  0
SECTION
  2
HEADER
  9
$ACADVER
  1
AC1021
  9
$ACADMAINTVER
 70
    25
  9
$DWGCODEPAGE
  3
ANSI_1252
  9
$LASTSAVEDBY
  1
turupasi
  9
$INSBASE
 10
0.0
 20
0.0
 30
0.0
  9
$EXTMIN
 10
4384.422927960629
 20
1675.05449136015
 30
-0.0000000349181948
  9
$EXTMAX
 10
6196.054589683477
 20
2707.117803016982
 30
0.0000000814935747
  9
$LIMMIN
 10
0.0
 20
0.0
  9
$LIMMAX
 10
420.0
 20
297.0
  9
$ORTHOMODE
 70
     1
  9
$REGENMODE
 70
     1
  9
$FILLMODE
 70
     1
  9
$QTEXTMODE
 70
     0
  9
$MIRRTEXT
 70
     1
  9
$LTSCALE
 40
50.0
  9
$ATTMODE
 70
     1
  9
$TEXTSIZE
 40
70.0
  9
$TRACEWID
 40
1.0
  9
$TEXTSTYLE
  7
KUVASTO
  9
$CLAYER
  8
MAINOS
  9
$CELTYPE
  6
BYLAYER
  9
$CECOLOR
 62
   256
  9
$CELTSCALE
 40
1.0
  9
$DISPSILH
 70
     1
  9
$DIMSCALE
 40
0.0
  9
$DIMASZ
 40
70.0
  9
$DIMEXO
 40
0.625
  9
$DIMDLI
 40
3.75
  9
$DIMRND
 40
0.0
  9
$DIMDLE
 40
0.0
  9
$DIMEXE
 40
1.25
  9
$DIMTP
 40
0.0
  9
$DIMTM
 40
0.0
  9
$DIMTXT
 40
60.0
  9
$DIMCEN
 40
2.5
  9
$DIMTSZ
 40
0.0
  9
$DIMTOL
 70
     0
  9
$DIMLIM
 70
     0
  9
$DIMTIH
 70
     0
  9
$DIMTOH
 70
     1
  9
$DIMSE1
 70
     0
  9
$DIMSE2
 70
     0
  9
$DIMTAD
 70
     1
  9
$DIMZIN
 70
     8
  9
$DIMBLK
  1

  9
$DIMASO
 70
     1
  9
$DIMSHO
 70
     1
  9
$DIMPOST
  1

  9
$DIMAPOST
  1

  9
$DIMALT
 70
     0
  9
$DIMALTD
 70
     4
  9
$DIMALTF
 40
0.0394
  9
$DIMLFAC
 40
1.0
  9
$DIMTOFL
 70
     1
  9
$DIMTVP
 40
0.0
  9
$DIMTIX
 70
     0
  9
$DIMSOXD
 70
     0
  9
$DIMSAH
 70
     1
  9
$DIMBLK1
  1
OPEN
  9
$DIMBLK2
  1
OPEN
  9
$DIMSTYLE
  2
STANDARD
  9
$DIMCLRD
 70
     3
  9
$DIMCLRE
 70
     3
  9
$DIMCLRT
 70
     5
  9
$DIMTFAC
 40
1.0
  9
$DIMGAP
 40
20.0
  9
$DIMJUST
 70
     0
  9
$DIMSD1
 70
     0
  9
$DIMSD2
 70
     0
  9
$DIMTOLJ
 70
     1
  9
$DIMTZIN
 70
     0
  9
$DIMALTZ
 70
     0
  9
$DIMALTTZ
 70
     0
  9
$DIMUPT
 70
     0
  9
$DIMDEC
 70
     4
  9
$DIMTDEC
 70
     4
  9
$DIMALTU
 70
     8
  9
$DIMALTTD
 70
     4
  9
$DIMTXSTY
  7
KUVASTO
  9
$DIMAUNIT
 70
     0
  9
$DIMADEC
 70
     0
  9
$DIMALTRND
 40
0.0
  9
$DIMAZIN
 70
     0
  9
$DIMDSEP
 70
    46
  9
$DIMATFIT
 70
     3
  9
$DIMFRAC
 70
     0
  9
$DIMLDRBLK
  1
OPEN
  9
$DIMLUNIT
 70
     6
  9
$DIMLWD
 70
    -2
  9
$DIMLWE
 70
    -2
  9
$DIMTMOVE
 70
     0
  9
$DIMFXL
 40
1.0
  9
$DIMFXLON
 70
     0
  9
$DIMJOGANG
 40
0.7853981633974483
  9
$DIMTFILL
 70
     0
  9
$DIMTFILLCLR
 70
     0
  9
$DIMARCSYM
 70
     0
  9
$DIMLTYPE
  6

  9
$DIMLTEX1
  6

  9
$DIMLTEX2
  6

  9
$LUNITS
 70
     2
  9
$LUPREC
 70
     4
  9
$SKETCHINC
 40
1.0
  9
$FILLETRAD
 40
0.0
  9
$AUNITS
 70
     0
  9
$AUPREC
 70
     0
  9
$MENU
  1
.
  9
$ELEVATION
 40
0.0
  9
$PELEVATION
 40
0.0
  9
$THICKNESS
 40
0.0
  9
$LIMCHECK
 70
     0
  9
$CHAMFERA
 40
0.0
  9
$CHAMFERB
 40
0.0
  9
$CHAMFERC
 40
20.0
  9
$CHAMFERD
 40
0.0
  9
$SKPOLY
 70
     0
  9
$TDCREATE
 40
2452044.350563495
  9
$TDUCREATE
 40
2452044.267230162
  9
$TDUPDATE
 40
2456969.653205706
  9
$TDUUPDATE
 40
2456969.569872373
  9
$TDINDWG
 40
0.6813689352
  9
$TDUSRTIMER
 40
0.6813681597
  9
$USRTIMER
 70
     1
  9
$ANGBASE
 50
0.0
  9
$ANGDIR
 70
     0
  9
$PDMODE
 70
     0
  9
$PDSIZE
 40
0.0
  9
$PLINEWID
 40
0.0
  9
$SPLFRAME
 70
     0
  9
$SPLINETYPE
 70
     6
  9
$SPLINESEGS
 70
     8
  9
$HANDSEED
  5
2A8
  9
$SURFTAB1
 70
     6
  9
$SURFTAB2
 70
     6
  9
$SURFTYPE
 70
     6
  9
$SURFU
 70
     6
  9
$SURFV
 70
     6
  9
$UCSBASE
  2

  9
$UCSNAME
  2

  9
$UCSORG
 10
0.0
 20
0.0
 30
0.0
  9
$UCSXDIR
 10
1.0
 20
0.0
 30
0.0
  9
$UCSYDIR
 10
0.0
 20
1.0
 30
0.0
  9
$UCSORTHOREF
  2

  9
$UCSORTHOVIEW
 70
     0
  9
$UCSORGTOP
 10
0.0
 20
0.0
 30
0.0
  9
$UCSORGBOTTOM
 10
0.0
 20
0.0
 30
0.0
  9
$UCSORGLEFT
 10
0.0
 20
0.0
 30
0.0
  9
$UCSORGRIGHT
 10
0.0
 20
0.0
 30
0.0
  9
$UCSORGFRONT
 10
0.0
 20
0.0
 30
0.0
  9
$UCSORGBACK
 10
0.0
 20
0.0
 30
0.0
  9
$PUCSBASE
  2

  9
$PUCSNAME
  2

  9
$PUCSORG
 10
0.0
 20
0.0
 30
0.0
  9
$PUCSXDIR
 10
1.0
 20
0.0
 30
0.0
  9
$PUCSYDIR
 10
0.0
 20
1.0
 30
0.0
  9
$PUCSORTHOREF
  2

  9
$PUCSORTHOVIEW
 70
     0
  9
$PUCSORGTOP
 10
0.0
 20
0.0
 30
0.0
  9
$PUCSORGBOTTOM
 10
0.0
 20
0.0
 30
0.0
  9
$PUCSORGLEFT
 10
0.0
 20
0.0
 30
0.0
  9
$PUCSORGRIGHT
 10
0.0
 20
0.0
 30
0.0
  9
$PUCSORGFRONT
 10
0.0
 20
0.0
 30
0.0
  9
$PUCSORGBACK
 10
0.0
 20
0.0
 30
0.0
  9
$USERI1
 70
     0
  9
$USERI2
 70
     0
  9
$USERI3
 70
     0
  9
$USERI4
 70
     0
  9
$USERI5
 70
     0
  9
$USERR1
 40
0.0
  9
$USERR2
 40
0.0
  9
$USERR3
 40
0.0
  9
$USERR4
 40
0.0
  9
$USERR5
 40
0.0
  9
$WORLDVIEW
 70
     1
  9
$SHADEDGE
 70
     3
  9
$SHADEDIF
 70
    70
  9
$TILEMODE
 70
     1
  9
$MAXACTVP
 70
    48
  9
$PINSBASE
 10
0.0
 20
0.0
 30
0.0
  9
$PLIMCHECK
 70
     0
  9
$PEXTMIN
 10
1.000000000000000E+20
 20
1.000000000000000E+20
 30
1.000000000000000E+20
  9
$PEXTMAX
 10
-1.000000000000000E+20
 20
-1.000000000000000E+20
 30
-1.000000000000000E+20
  9
$PLIMMIN
 10
0.0
 20
0.0
  9
$PLIMMAX
 10
420.0
 20
297.0
  9
$UNITMODE
 70
     0
  9
$VISRETAIN
 70
     1
  9
$PLINEGEN
 70
     0
  9
$PSLTSCALE
 70
     1
  9
$TREEDEPTH
 70
  3020
  9
$CMLSTYLE
  2
STANDARD
  9
$CMLJUST
 70
     0
  9
$CMLSCALE
 40
20.0
  9
$PROXYGRAPHICS
 70
     1
  9
$MEASUREMENT
 70
     1
  9
$CELWEIGHT
370
    -1
  9
$ENDCAPS
280
     0
  9
$JOINSTYLE
280
     0
  9
$LWDISPLAY
290
     0
  9
$INSUNITS
 70
     0
  9
$HYPERLINKBASE
  1

  9
$STYLESHEET
  1
monochrome.ctb
  9
$XEDIT
290
     1
  9
$CEPSNTYPE
380
     0
  9
$PSTYLEMODE
290
     1
  9
$FINGERPRINTGUID
  2
{DFB77EDF-71BF-4C3F-AE2E-ECE0062F40CF}
  9
$VERSIONGUID
  2
{F91518AA-6BD9-4A66-9E04-997DD73332AE}
  9
$EXTNAMES
290
     1
  9
$PSVPSCALE
 40
0.0
  9
$OLESTARTUP
290
     0
  9
$SORTENTS
280
   127
  9
$INDEXCTL
280
     0
  9
$HIDETEXT
280
     1
  9
$XCLIPFRAME
290
     0
  9
$HALOGAP
280
     0
  9
$OBSCOLOR
 70
   257
  9
$OBSLTYPE
280
     0
  9
$INTERSECTIONDISPLAY
280
     0
  9
$INTERSECTIONCOLOR
 70
   257
  9
$DIMASSOC
280
     1
  9
$PROJECTNAME
  1

  9
$CAMERADISPLAY
290
     0
  9
$LENSLENGTH
 40
50.0
  9
$CAMERAHEIGHT
 40
0.0
  9
$STEPSPERSEC
 40
2.0
  9
$STEPSIZE
 40
6.0
  9
$3DDWFPREC
 40
2.0
  9
$PSOLWIDTH
 40
0.25
  9
$PSOLHEIGHT
 40
4.0
  9
$LOFTANG1
 40
1.570796326794896
  9
$LOFTANG2
 40
1.570796326794896
  9
$LOFTMAG1
 40
0.0
  9
$LOFTMAG2
 40
0.0
  9
$LOFTPARAM
 70
     7
  9
$LOFTNORMALS
280
     1
  9
$LATITUDE
 40
37.795
  9
$LONGITUDE
 40
-122.394
  9
$NORTHDIRECTION
 40
0.0
  9
$TIMEZONE
 70
 -8000
  9
$LIGHTGLYPHDISPLAY
280
     1
  9
$TILEMODELIGHTSYNCH
280
     1
  9
$CMATERIAL
347
1AD
  9
$SOLIDHIST
280
     1
  9
$SHOWHIST
280
     1
  9
$DWFFRAME
280
     2
  9
$DGNFRAME
280
     0
  9
$REALWORLDSCALE
290
     1
  9
$INTERFERECOLOR
 62
     1
  9
$INTERFEREOBJVS
345
1CF
  9
$INTERFEREVPVS
346
1CC
  9
$CSHADOW
280
     0
  9
$SHADOWPLANELOCATION
 40
0.0
  0
ENDSEC
  0
SECTION
  2
CLASSES
  0
CLASS
  1
DICTIONARYVAR
  2
AcDbDictionaryVar
  3
ObjectDBX Classes
 90
        0
 91
       12
280
     0
281
     0
  0
CLASS
  1
ACDBDICTIONARYWDFLT
  2
AcDbDictionaryWithDefault
  3
ObjectDBX Classes
 90
        0
 91
        1
280
     0
281
     0
  0
CLASS
  1
MATERIAL
  2
AcDbMaterial
  3
ObjectDBX Classes
 90
     1153
 91
        3
280
     0
281
     0
  0
CLASS
  1
VISUALSTYLE
  2
AcDbVisualStyle
  3
ObjectDBX Classes
 90
     4095
 91
       16
280
     0
281
     0
  0
CLASS
  1
TABLESTYLE
  2
AcDbTableStyle
  3
ObjectDBX Classes
 90
     4095
 91
        1
280
     0
281
     0
  0
CLASS
  1
SCALE
  2
AcDbScale
  3
ObjectDBX Classes
 90
     1153
 91
       33
280
     0
281
     0
  0
CLASS
  1
MLEADERSTYLE
  2
AcDbMLeaderStyle
  3
ACDB_MLEADERSTYLE_CLASS
 90
     4095
 91
        1
280
     0
281
     0
  0
CLASS
  1
CELLSTYLEMAP
  2
AcDbCellStyleMap
  3
ObjectDBX Classes
 90
     1152
 91
        9
280
     0
281
     0
  0
ENDSEC
  0
SECTION
  2
TABLES
  0
TABLE
  2
VPORT
  5
1A
330
0
100
AcDbSymbolTable
 70
     1
  0
VPORT
  5
188
330
1A
100
AcDbSymbolTableRecord
100
AcDbViewportTableRecord
  2
*Active
 70
     0
 10
0.0
 20
0.0
 11
1.0
 21
1.0
 12
5391.433292417956
 22
2156.397662942848
 13
0.0
 23
0.0
 14
10.0
 24
10.0
 15
10.0
 25
10.0
 16
0.0
 26
-0.0000000000000001
 36
0.9999999999999998
 17
0.0
 27
0.0
 37
0.0
 40
1642.885269689855
 41
1.971916971916972
 42
50.0
 43
0.0
 44
0.0
 50
0.0
 51
0.0
 71
     0
 72
 20000
 73
     1
 74
     1
 75
     0
 76
     0
 77
     0
 78
     0
281
     0
 65
     1
110
0.0
120
0.0
130
0.0
111
1.0
121
0.0
131
0.0
112
0.0
122
1.0
132
0.0
 79
     0
146
0.0
348
1CB
 60
     3
 61
     5
292
     1
282
     1
141
0.0
142
0.0
 63
   250
421
  3355443
  0
ENDTAB
  0
TABLE
  2
LTYPE
  5
15
330
0
100
AcDbSymbolTable
 70
     2
  0
LTYPE
  5
16
330
15
100
AcDbSymbolTableRecord
100
AcDbLinetypeTableRecord
  2
BYBLOCK
 70
     0
  3

 72
    65
 73
     0
 40
0.0
  0
LTYPE
  5
17
330
15
100
AcDbSymbolTableRecord
100
AcDbLinetypeTableRecord
  2
BYLAYER
 70
     0
  3

 72
    65
 73
     0
 40
0.0
  0
LTYPE
  5
8
330
15
100
AcDbSymbolTableRecord
100
AcDbLinetypeTableRecord
  2
CONTINUOUS
 70
     0
  3
Solid line
 72
    65
 73
     0
 40
0.0
  0
LTYPE
  5
76
330
15
100
AcDbSymbolTableRecord
100
AcDbLinetypeTableRecord
  2
DASHED
 70
     0
  3
Dashed __ __ __ __ __ __ __ __ __ __ __ __ __ _
 72
    65
 73
     2
 40
0.75
 49
0.5
 74
     0
 49
-0.25
 74
     0
  0
ENDTAB
  0
TABLE
  2
LAYER
  5
10
330
0
100
AcDbSymbolTable
 70
     3
  0
LAYER
  5
4
102
{ACAD_XDICTIONARY
360
20A
102
}
330
10
100
AcDbSymbolTableRecord
100
AcDbLayerTableRecord
  2
0
 70
     0
 62
     7
  6
CONTINUOUS
370
    -3
390
5
347
1BD
  0
LAYER
  5
2A
102
{ACAD_XDICTIONARY
360
20C
102
}
330
10
100
AcDbSymbolTableRecord
100
AcDbLayerTableRecord
  2
MAINOS
 70
     0
 62
     7
  6
CONTINUOUS
370
    -3
390
5
347
1BD
  0
LAYER
  5
3E
330
10
100
AcDbSymbolTableRecord
100
AcDbLayerTableRecord
  2
DEFPOINTS
 70
     0
 62
     7
  6
CONTINUOUS
290
     0
370
    -3
390
5
347
1BD
  0
ENDTAB
  0
TABLE
  2
STYLE
  5
11
330
0
100
AcDbSymbolTable
 70
     2
  0
STYLE
  5
12
330
11
100
AcDbSymbolTableRecord
100
AcDbTextStyleTableRecord
  2
STANDARD
 70
     0
 40
0.0
 41
1.0
 50
0.0
 71
     0
 42
2.5
  3

  4

1001
ACAD
1000
AGaramond
1071
 33554450
  0
STYLE
  5
1F
330
11
100
AcDbSymbolTableRecord
100
AcDbTextStyleTableRecord
  2
KUVASTO
 70
     0
 40
70.0
 41
1.0
 50
0.0
 71
     0
 42
70.0
  3
Foustbk_.ttf
  4

1001
ACAD
1000
FoundrySterling-Book
1071
        2
  0
ENDTAB
  0
TABLE
  2
VIEW
  5
18
330
0
100
AcDbSymbolTable
 70
     2
  0
ENDTAB
  0
TABLE
  2
UCS
  5
19
330
0
100
AcDbSymbolTable
 70
     0
  0
ENDTAB
  0
TABLE
  2
APPID
  5
1C
330
0
100
AcDbSymbolTable
 70
     2
  0
APPID
  5
13
330
1C
100
AcDbSymbolTableRecord
100
AcDbRegAppTableRecord
  2
ACAD
 70
     0
  0
APPID
  5
1FD
330
1C
100
AcDbSymbolTableRecord
100
AcDbRegAppTableRecord
  2
ACAD_MLEADERVER
 70
     0
  0
ENDTAB
  0
TABLE
  2
DIMSTYLE
  5
1D
330
0
100
AcDbSymbolTable
 70
     1
100
AcDbDimStyleTable
 71
     1
340
1E
  0
DIMSTYLE
105
1E
102
{ACAD_REACTORS
330
35
330
52
330
43
102
}
330
1D
100
AcDbSymbolTableRecord
100
AcDbDimStyleTableRecord
  2
STANDARD
 70
     0
 40
0.0
 41
70.0
 42
0.625
 43
3.75
 44
1.25
 73
     0
 77
     1
 78
     8
140
60.0
141
2.5
143
0.0394
147
20.0
171
     4
172
     1
173
     1
176
     3
177
     3
178
     5
273
     8
274
     4
277
     6
340
1F
341
20
343
20
344
20
  0
ENDTAB
  0
TABLE
  2
BLOCK_RECORD
  5
1
330
0
100
AcDbSymbolTable
 70
     7
  0
BLOCK_RECORD
  5
2
330
1
100
AcDbSymbolTableRecord
100
AcDbBlockTableRecord
  2
*MODEL_SPACE
340
A
 70
     0
280
     1
281
     0
  0
BLOCK_RECORD
  5
C
330
1
100
AcDbSymbolTableRecord
100
AcDbBlockTableRecord
  2
*PAPER_SPACE
340
F
 70
     0
280
     1
281
     0
  0
BLOCK_RECORD
  5
20
330
1
100
AcDbSymbolTableRecord
100
AcDbBlockTableRecord
  2
_OPEN
340
0
102
{BLKREFS
331
78
331
7A
331
8B
331
8D
331
6E
331
62
331
23A
331
23B
331
247
331
248
331
266
331
267
331
278
331
279
331
281
331
282
331
28A
331
28B
102
}
 70
     0
280
     1
281
     0
  0
BLOCK_RECORD
  5
A1
330
1
100
AcDbSymbolTableRecord
100
AcDbBlockTableRecord
  2
*D1
340
0
 70
     0
280
     1
281
     0
  0
BLOCK_RECORD
  5
AD
330
1
100
AcDbSymbolTableRecord
100
AcDbBlockTableRecord
  2
*D2
340
0
 70
     0
280
     1
281
     0
  0
BLOCK_RECORD
  5
D4
330
1
100
AcDbSymbolTableRecord
100
AcDbBlockTableRecord
  2
*D3
340
0
 70
     0
280
     1
281
     0
  0
BLOCK_RECORD
  5
234
330
1
100
AcDbSymbolTableRecord
100
AcDbBlockTableRecord
  2
*D4
340
0
 70
     0
280
     1
281
     0
  0
BLOCK_RECORD
  5
241
330
1
100
AcDbSymbolTableRecord
100
AcDbBlockTableRecord
  2
*D5
340
0
 70
     0
280
     1
281
     0
  0
BLOCK_RECORD
  5
260
330
1
100
AcDbSymbolTableRecord
100
AcDbBlockTableRecord
  2
*D6
340
0
 70
     0
280
     1
281
     0
  0
ENDTAB
  0
ENDSEC
  0
SECTION
  2
BLOCKS
  0
BLOCK
  5
3
330
2
100
AcDbEntity
  8
0
100
AcDbBlockBegin
  2
*MODEL_SPACE
 70
     0
 10
0.0
 20
0.0
 30
0.0
  3
*MODEL_SPACE
  1

  0
ENDBLK
  5
9
330
2
100
AcDbEntity
  8
0
100
AcDbBlockEnd
  0
BLOCK
  5
D
330
C
100
AcDbEntity
 67
     1
  8
0
100
AcDbBlockBegin
  2
*PAPER_SPACE
 70
     0
 10
0.0
 20
0.0
 30
0.0
  3
*PAPER_SPACE
  1

  0
ENDBLK
  5
E
330
C
100
AcDbEntity
 67
     1
  8
0
100
AcDbBlockEnd
  0
BLOCK
  5
24
330
20
100
AcDbEntity
  8
0
100
AcDbBlockBegin
  2
_OPEN
 70
     0
 10
0.0
 20
0.0
 30
0.0
  3
_OPEN
  1

  0
LINE
  5
21
330
20
100
AcDbEntity
  8
0
  6
ByBlock
 62
     0
100
AcDbLine
 10
-1.0
 20
0.1666666666666666
 30
0.0
 11
0.0
 21
0.0
 31
0.0
  0
LINE
  5
22
330
20
100
AcDbEntity
  8
0
  6
ByBlock
 62
     0
100
AcDbLine
 10
0.0
 20
0.0
 30
0.0
 11
-1.0
 21
-0.1666666666666666
 31
0.0
  0
LINE
  5
23
330
20
100
AcDbEntity
  8
0
  6
ByBlock
 62
     0
100
AcDbLine
 10
0.0
 20
0.0
 30
0.0
 11
-1.0
 21
0.0
 31
0.0
  0
ENDBLK
  5
25
330
20
100
AcDbEntity
  8
0
100
AcDbBlockEnd
  0
BLOCK
  5
AB
330
A1
100
AcDbEntity
  8
0
100
AcDbBlockBegin
  2
*D1
 70
     1
 10
0.0
 20
0.0
 30
0.0
  3
*D1
  1

  0
LINE
  5
27E
330
A1
100
AcDbEntity
  8
MAINOS
 62
     3
370
    -2
100
AcDbLine
 10
6153.857555468965
 20
2544.999861045216
 30
0.0
 11
6185.624027050657
 21
2544.999861045216
 31
0.0
  0
LINE
  5
27F
330
A1
100
AcDbEntity
  8
MAINOS
 62
     3
370
    -2
100
AcDbLine
 10
6153.857555468965
 20
1847.447231967638
 30
0.0
 11
6185.624027050656
 21
1847.447231967638
 31
0.0
  0
LINE
  5
280
330
A1
100
AcDbEntity
  8
MAINOS
 62
     3
370
    -2
100
AcDbLine
 10
6184.374027050657
 20
2474.999861045215
 30
0.0
 11
6184.374027050655
 21
1917.447231967638
 31
0.0
  0
INSERT
  5
281
330
A1
100
AcDbEntity
  8
MAINOS
 62
     3
370
    -2
100
AcDbBlockReference
  2
_OPEN
 10
6184.374027050657
 20
2544.999861045216
 30
0.0
 41
70.0
 42
70.0
 43
70.0
 50
90.0
  0
INSERT
  5
282
330
A1
100
AcDbEntity
  8
MAINOS
 62
     3
370
    -2
100
AcDbBlockReference
  2
_OPEN
 10
6184.374027050655
 20
1847.447231967638
 30
0.0
 41
70.0
 42
70.0
 43
70.0
 50
270.0
  0
MTEXT
  5
283
330
A1
100
AcDbEntity
  8
MAINOS
 62
     5
100
AcDbMText
 10
6118.669379374495
 20
2196.223546506427
 30
0.0
 40
70.0
 41
0.0
 46
0.0
 71
     5
 72
     1
  1
\A1;(692)
  7
KUVASTO
 11
0.0000000000000001
 21
1.0
 31
0.0
 73
     1
 44
1.0
  0
POINT
  5
284
330
A1
100
AcDbEntity
  8
DEFPOINTS
 62
     0
100
AcDbPoint
 10
6153.232555468965
 20
2544.999861045216
 30
0.0
  0
POINT
  5
285
330
A1
100
AcDbEntity
  8
DEFPOINTS
 62
     0
100
AcDbPoint
 10
6153.232555468965
 20
1847.447231967638
 30
0.0
  0
POINT
  5
286
330
A1
100
AcDbEntity
  8
DEFPOINTS
 62
     0
100
AcDbPoint
 10
6184.374027050655
 20
1847.447231967638
 30
0.0
  0
ENDBLK
  5
AC
330
A1
100
AcDbEntity
  8
0
100
AcDbBlockEnd
  0
BLOCK
  5
B7
330
AD
100
AcDbEntity
  8
0
100
AcDbBlockBegin
  2
*D2
 70
     1
 10
0.0
 20
0.0
 30
0.0
  3
*D2
  1

  0
LINE
  5
287
330
AD
100
AcDbEntity
  8
MAINOS
 62
     3
370
    -2
100
AcDbLine
 10
5993.012315519455
 20
1847.447231967638
 30
0.0
 11
6024.022894131752
 21
1847.447231967638
 31
0.0
  0
LINE
  5
288
330
AD
100
AcDbEntity
  8
MAINOS
 62
     3
370
    -2
100
AcDbLine
 10
5990.012315519457
 20
2439.999861045213
 30
0.0
 11
6024.022894131753
 21
2439.999861045213
 31
0.0
  0
LINE
  5
289
330
AD
100
AcDbEntity
  8
MAINOS
 62
     3
370
    -2
100
AcDbLine
 10
6022.772894131752
 20
1917.447231967639
 30
0.0
 11
6022.772894131753
 21
2369.999861045213
 31
0.0
  0
INSERT
  5
28A
330
AD
100
AcDbEntity
  8
MAINOS
 62
     3
370
    -2
100
AcDbBlockReference
  2
_OPEN
 10
6022.772894131752
 20
1847.447231967638
 30
0.0
 41
70.0
 42
70.0
 43
70.0
 50
270.0
  0
INSERT
  5
28B
330
AD
100
AcDbEntity
  8
MAINOS
 62
     3
370
    -2
100
AcDbBlockReference
  2
_OPEN
 10
6022.772894131753
 20
2439.999861045213
 30
0.0
 41
70.0
 42
70.0
 43
70.0
 50
90.0
  0
MTEXT
  5
28C
330
AD
100
AcDbEntity
  8
MAINOS
 62
     5
100
AcDbMText
 10
5966.461050053791
 20
2143.723546506427
 30
0.0
 40
70.0
 41
0.0
 46
0.0
 71
     5
 72
     1
  1
\A1;592
  7
KUVASTO
 11
0.0000000000000001
 21
1.0
 31
0.0
 73
     1
 44
1.0
  0
POINT
  5
28D
330
AD
100
AcDbEntity
  8
DEFPOINTS
 62
     0
100
AcDbPoint
 10
5992.387315519454
 20
1847.447231967638
 30
0.0
  0
POINT
  5
28E
330
AD
100
AcDbEntity
  8
DEFPOINTS
 62
     0
100
AcDbPoint
 10
5989.387315519457
 20
2439.999861045213
 30
0.0
  0
POINT
  5
28F
330
AD
100
AcDbEntity
  8
DEFPOINTS
 62
     0
100
AcDbPoint
 10
6022.772894131753
 20
2439.999861045213
 30
0.0
  0
ENDBLK
  5
B8
330
AD
100
AcDbEntity
  8
0
100
AcDbBlockEnd
  0
BLOCK
  5
DE
330
D4
100
AcDbEntity
  8
0
100
AcDbBlockBegin
  2
*D3
 70
     1
 10
0.0
 20
0.0
 30
0.0
  3
*D3
  1

  0
LINE
  5
275
330
D4
100
AcDbEntity
  8
MAINOS
 62
     3
370
    -2
100
AcDbLine
 10
5843.63143068857
 20
1711.068966274669
 30
0.0
 11
5843.63143068857
 21
1685.578516666573
 31
0.0
  0
LINE
  5
276
330
D4
100
AcDbEntity
  8
MAINOS
 62
     3
370
    -2
100
AcDbLine
 10
4651.678801610991
 20
1711.068966274671
 30
0.0
 11
4651.678801610991
 21
1685.578516666573
 31
0.0
  0
LINE
  5
277
330
D4
100
AcDbEntity
  8
MAINOS
 62
     3
370
    -2
100
AcDbLine
 10
5773.63143068857
 20
1686.828516666573
 30
0.0
 11
4721.678801610991
 21
1686.828516666573
 31
0.0
  0
INSERT
  5
278
330
D4
100
AcDbEntity
  8
MAINOS
 62
     3
370
    -2
100
AcDbBlockReference
  2
_OPEN
 10
5843.63143068857
 20
1686.828516666573
 30
0.0
 41
70.0
 42
70.0
 43
70.0
  0
INSERT
  5
279
330
D4
100
AcDbEntity
  8
MAINOS
 62
     3
370
    -2
100
AcDbBlockReference
  2
_OPEN
 10
4651.678801610991
 20
1686.828516666573
 30
0.0
 41
70.0
 42
70.0
 43
70.0
 50
180.0
  0
MTEXT
  5
27A
330
D4
100
AcDbEntity
  8
MAINOS
 62
     5
100
AcDbMText
 10
5247.655116149781
 20
1743.140360744534
 30
0.0
 40
70.0
 41
0.0
 46
0.0
 71
     5
 72
     1
  1
\A1;1192
  7
KUVASTO
 73
     1
 44
1.0
  0
POINT
  5
27B
330
D4
100
AcDbEntity
  8
DEFPOINTS
 62
     0
100
AcDbPoint
 10
5843.63143068857
 20
1711.693966274669
 30
0.0
  0
POINT
  5
27C
330
D4
100
AcDbEntity
  8
DEFPOINTS
 62
     0
100
AcDbPoint
 10
4651.678801610991
 20
1711.693966274671
 30
0.0
  0
POINT
  5
27D
330
D4
100
AcDbEntity
  8
DEFPOINTS
 62
     0
100
AcDbPoint
 10
4651.678801610991
 20
1686.828516666573
 30
0.0
  0
ENDBLK
  5
DF
330
D4
100
AcDbEntity
  8
0
100
AcDbBlockEnd
  0
BLOCK
  5
235
330
234
100
AcDbEntity
  8
0
100
AcDbBlockBegin
  2
*D4
 70
     1
 10
0.0
 20
0.0
 30
0.0
  3
*D4
  1

  0
LINE
  5
237
330
234
100
AcDbEntity
  8
MAINOS
 62
     3
370
    -2
100
AcDbLine
 10
5846.256430688575
 20
1847.447231967638
 30
0.0
 11
6575.208201078893
 21
1847.447231967638
 31
0.0
  0
LINE
  5
238
330
234
100
AcDbEntity
  8
MAINOS
 62
     3
370
    -2
100
AcDbLine
 10
5846.256430688575
 20
2444.999861045214
 30
0.0
 11
6575.208201078893
 21
2444.999861045214
 31
0.0
  0
LINE
  5
239
330
234
100
AcDbEntity
  8
MAINOS
 62
     3
370
    -2
100
AcDbLine
 10
6573.958201078892
 20
1917.447231967638
 30
0.0
 11
6573.958201078894
 21
2374.999861045214
 31
0.0
  0
INSERT
  5
23A
330
234
100
AcDbEntity
  8
MAINOS
 62
     3
370
    -2
100
AcDbBlockReference
  2
_OPEN
 10
6573.958201078892
 20
1847.447231967638
 30
0.0
 41
70.0
 42
70.0
 43
70.0
 50
270.0
  0
INSERT
  5
23B
330
234
100
AcDbEntity
  8
MAINOS
 62
     3
370
    -2
100
AcDbBlockReference
  2
_OPEN
 10
6573.958201078894
 20
2444.999861045214
 30
0.0
 41
70.0
 42
70.0
 43
70.0
 50
90.0
  0
MTEXT
  5
23C
330
234
100
AcDbEntity
  8
MAINOS
 62
     5
100
AcDbMText
 10
6511.506926716075
 20
2146.223546506427
 30
0.0
 40
70.0
 41
0.0
 46
0.0
 71
     5
 72
     1
  1
\A1;597,5526
  7
KUVASTO
 11
0.0000000000000001
 21
1.0
 31
0.0
 73
     1
 44
1.0
  0
POINT
  5
23D
330
234
100
AcDbEntity
  8
DEFPOINTS
 62
     0
100
AcDbPoint
 10
5845.631430688575
 20
1847.447231967638
 30
0.0
  0
POINT
  5
23E
330
234
100
AcDbEntity
  8
DEFPOINTS
 62
     0
100
AcDbPoint
 10
5845.631430688575
 20
2444.999861045214
 30
0.0
  0
POINT
  5
23F
330
234
100
AcDbEntity
  8
DEFPOINTS
 62
     0
100
AcDbPoint
 10
6573.958201078894
 20
2444.999861045214
 30
0.0
  0
ENDBLK
  5
236
330
234
100
AcDbEntity
  8
0
100
AcDbBlockEnd
  0
BLOCK
  5
242
330
241
100
AcDbEntity
  8
0
100
AcDbBlockBegin
  2
*D5
 70
     1
 10
0.0
 20
0.0
 30
0.0
  3
*D5
  1

  0
LINE
  5
244
330
241
100
AcDbEntity
  8
MAINOS
 62
     3
370
    -2
100
AcDbLine
 10
5846.256430688575
 20
1847.447231967638
 30
0.0
 11
6736.044679760287
 21
1847.447231967638
 31
0.0
  0
LINE
  5
245
330
241
100
AcDbEntity
  8
MAINOS
 62
     3
370
    -2
100
AcDbLine
 10
5846.28011614978
 20
2544.999861045216
 30
0.0
 11
6736.044679760287
 21
2544.999861045216
 31
0.0
  0
LINE
  5
246
330
241
100
AcDbEntity
  8
MAINOS
 62
     3
370
    -2
100
AcDbLine
 10
6734.794679760288
 20
1917.447231967637
 30
0.0
 11
6734.794679760288
 21
2474.999861045215
 31
0.0
  0
INSERT
  5
247
330
241
100
AcDbEntity
  8
MAINOS
 62
     3
370
    -2
100
AcDbBlockReference
  2
_OPEN
 10
6734.794679760288
 20
1847.447231967638
 30
0.0
 41
70.0
 42
70.0
 43
70.0
 50
270.0
  0
INSERT
  5
248
330
241
100
AcDbEntity
  8
MAINOS
 62
     3
370
    -2
100
AcDbBlockReference
  2
_OPEN
 10
6734.794679760288
 20
2544.999861045216
 30
0.0
 41
70.0
 42
70.0
 43
70.0
 50
90.0
  0
MTEXT
  5
249
330
241
100
AcDbEntity
  8
MAINOS
 62
     5
100
AcDbMText
 10
6672.343405397469
 20
2196.223546506427
 30
0.0
 40
70.0
 41
0.0
 46
0.0
 71
     5
 72
     1
  1
\A1;697,5526
  7
KUVASTO
 11
0.0000000000000001
 21
1.0
 31
0.0
 73
     1
 44
1.0
  0
POINT
  5
24A
330
241
100
AcDbEntity
  8
DEFPOINTS
 62
     0
100
AcDbPoint
 10
5845.631430688575
 20
1847.447231967638
 30
0.0
  0
POINT
  5
24B
330
241
100
AcDbEntity
  8
DEFPOINTS
 62
     0
100
AcDbPoint
 10
5845.65511614978
 20
2544.999861045216
 30
0.0
  0
POINT
  5
24C
330
241
100
AcDbEntity
  8
DEFPOINTS
 62
     0
100
AcDbPoint
 10
6734.794679760288
 20
2544.999861045216
 30
0.0
  0
ENDBLK
  5
243
330
241
100
AcDbEntity
  8
0
100
AcDbBlockEnd
  0
BLOCK
  5
261
330
260
100
AcDbEntity
  8
0
100
AcDbBlockBegin
  2
*D6
 70
     1
 10
0.0
 20
0.0
 30
0.0
  3
*D6
  1

  0
LINE
  5
263
330
260
100
AcDbEntity
  8
MAINOS
 62
     3
370
    -2
100
AcDbLine
 10
4649.67880161099
 20
1846.822231967639
 30
0.0
 11
4649.67880161099
 21
1403.509030929329
 31
0.0
  0
LINE
  5
264
330
260
100
AcDbEntity
  8
MAINOS
 62
     3
370
    -2
100
AcDbLine
 10
5845.631430688575
 20
1846.822231967638
 30
0.0
 11
5845.631430688575
 21
1403.509030929329
 31
0.0
  0
LINE
  5
265
330
260
100
AcDbEntity
  8
MAINOS
 62
     3
370
    -2
100
AcDbLine
 10
4719.67880161099
 20
1404.759030929329
 30
0.0
 11
5775.631430688576
 21
1404.759030929329
 31
0.0
  0
INSERT
  5
266
330
260
100
AcDbEntity
  8
MAINOS
 62
     3
370
    -2
100
AcDbBlockReference
  2
_OPEN
 10
4649.67880161099
 20
1404.759030929329
 30
0.0
 41
70.0
 42
70.0
 43
70.0
 50
180.0
  0
INSERT
  5
267
330
260
100
AcDbEntity
  8
MAINOS
 62
     3
370
    -2
100
AcDbBlockReference
  2
_OPEN
 10
5845.631430688575
 20
1404.759030929329
 30
0.0
 41
70.0
 42
70.0
 43
70.0
  0
MTEXT
  5
268
330
260
100
AcDbEntity
  8
MAINOS
 62
     5
100
AcDbMText
 10
5247.655116149783
 20
1467.210305292147
 30
0.0
 40
70.0
 41
0.0
 46
0.0
 71
     5
 72
     1
  1
\A1;1 195,9526
  7
KUVASTO
 73
     1
 44
1.0
  0
POINT
  5
269
330
260
100
AcDbEntity
  8
DEFPOINTS
 62
     0
100
AcDbPoint
 10
4649.67880161099
 20
1847.44723196764
 30
0.0
  0
POINT
  5
26A
330
260
100
AcDbEntity
  8
DEFPOINTS
 62
     0
100
AcDbPoint
 10
5845.631430688575
 20
1847.447231967638
 30
0.0
  0
POINT
  5
26B
330
260
100
AcDbEntity
  8
DEFPOINTS
 62
     0
100
AcDbPoint
 10
5845.631430688575
 20
1404.759030929329
 30
0.0
  0
ENDBLK
  5
262
330
260
100
AcDbEntity
  8
0
100
AcDbBlockEnd
  0
ENDSEC
  0
SECTION
  2
ENTITIES
  0
LWPOLYLINE
  5
2D
330
2
100
AcDbEntity
  8
MAINOS
100
AcDbPolyline
 90
       26
 70
     1
 43
0.0
 10
5519.169530401906
 20
1878.499861045211
 10
5519.169530401907
 20
1998.375300160158
 42
0.1028989752745143
 10
5518.837770699448
 20
1999.97029643586
 10
5513.995545941198
 20
2011.106650958166
 42
-0.3541185725306578
 10
5514.836438737884
 20
2014.138812426371
 10
5518.180408071942
 20
2016.524042571616
 10
5515.906812524161
 20
2021.752954347617
 42
0.4142135623728508
 10
5513.275194237538
 20
2022.789576358535
 10
5511.441074088767
 20
2021.992078220685
 42
-0.4142135623730951
 10
5508.809455802147
 20
2023.028700231604
 10
5428.495013096942
 20
2207.739272722601
 10
5428.495013096942
 20
2207.584389745334
 42
-0.4142135623730951
 10
5426.495013096941
 20
2205.584389745335
 10
5070.49501309694
 20
2205.58438974533
 42
-0.4142135623730951
 10
5068.49501309694
 20
2207.58438974533
 10
5068.49501309694
 20
2207.739272722591
 10
4988.18057039174
 20
2023.028700231598
 42
-0.4142135623730951
 10
4985.54895210512
 20
2021.992078220678
 10
4983.71483195635
 20
2022.789576358529
 42
0.4142135623729729
 10
4981.083213669729
 20
2021.75295434761
 10
4978.862768071974
 20
2016.525259703543
 10
4982.208443762072
 20
2014.138812426364
 42
-0.3541185725306579
 10
4983.049336558757
 20
2011.106650958161
 10
4978.207111800506
 20
1999.970296435855
 42
0.1028989752745144
 10
4977.875352098046
 20
1998.375300160153
 10
4977.875352098048
 20
1878.499861045211
  0
LWPOLYLINE
  5
2E
330
2
100
AcDbEntity
  8
MAINOS
100
AcDbPolyline
 90
       26
 70
     0
 43
0.0
 10
5441.74122120772
 20
2252.499861045212
 10
5562.65511614978
 20
2252.499861045212
 10
5562.65511614978
 20
2040.563944276803
 10
5521.872675490034
 20
2056.628574873821
 42
-0.1989123673797111
 10
5520.771557794713
 20
2057.691911871935
 10
5504.020837932511
 20
2096.215930107861
 42
-0.3939104756148502
 10
5504.931460854809
 20
2098.787449912068
 10
5530.417005325004
 20
2112.054384628621
 42
0.5067804403100823
 10
5530.907721660907
 20
2115.242619857351
 10
5517.8243176091
 20
2128.326023909158
 42
0.2891079116003104
 10
5515.742490328259
 20
2128.797093328969
 10
5495.066486987193
 20
2121.47533654019
 42
-0.3939104756149908
 10
5492.564753119955
 20
2122.563121384524
 10
5468.517983448577
 20
2177.866905398343
 42
-0.3788661086953475
 10
5469.337026871428
 20
2180.387661857077
 10
5483.921066463167
 20
2188.97831769787
 42
0.4904361115191761
 10
5484.320203299619
 20
2192.115789581127
 10
5465.452789970774
 20
2210.983202909972
 42
0.198912367379658
 10
5464.0385764084
 20
2211.568989347599
 10
5456.274777148679
 20
2211.568989347598
 42
0.4142135623730951
 10
5458.274777148679
 20
2213.568989347598
 10
5458.274777148679
 20
2228.568989347598
 42
0.4142135623730951
 10
5456.274777148679
 20
2230.568989347598
 10
5442.139807320955
 20
2230.568989347598
 42
-0.3939104756147633
 10
5440.144679220435
 20
2232.429476400108
 10
5438.741221207724
 20
2252.499861045217
  0
LWPOLYLINE
  5
2F
330
2
100
AcDbEntity
  8
0
  6
Continuous
 62
     7
370
    15
100
AcDbPolyline
 90
       25
 70
     1
 43
0.0
 10
4932.631430688569
 20
2040.066432407909
 10
4932.631430688568
 20
2252.499861045212
 10
5057.808333089633
 20
2252.499861045212
 10
5056.404875076921
 20
2232.429476400104
 42
-0.3939104756148944
 10
5054.409746976402
 20
2230.568989347593
 10
5040.274777148677
 20
2230.568989347593
 42
0.4142135623730951
 10
5038.274777148679
 20
2228.568989347593
 10
5038.274777148679
 20
2213.568989347592
 42
0.4142135623731618
 10
5040.274777148677
 20
2211.568989347593
 10
5032.510977888958
 20
2211.568989347593
 42
0.198912367379658
 10
5031.096764326584
 20
2210.983202909966
 10
5012.229350997741
 20
2192.115789581121
 42
0.4904361115191761
 10
5012.628487834192
 20
2188.978317697865
 10
5027.21252742593
 20
2180.387661857071
 42
-0.3788661086953475
 10
5028.031570848781
 20
2177.866905398338
 10
5003.984801177407
 20
2122.563121384518
 42
-0.3939104756149908
 10
5001.483067310168
 20
2121.475336540184
 10
4980.807063969102
 20
2128.797093328962
 42
0.2891079116003105
 10
4978.725236688261
 20
2128.326023909151
 10
4965.641832636453
 20
2115.242619857344
 42
0.5067804403100823
 10
4966.132548972358
 20
2112.054384628615
 10
4991.61809344255
 20
2098.787449912062
 42
-0.3939104756149108
 10
4992.528716364851
 20
2096.215930107855
 10
4975.77799650265
 20
2057.691911871928
 42
-0.1989123673797111
 10
4974.676878807327
 20
2056.628574873814
  0
LWPOLYLINE
  5
30
330
2
100
AcDbEntity
  8
MAINOS
100
AcDbPolyline
 90
        6
 70
     0
 43
0.0
 10
5525.169530401909
 20
1937.499861045212
 10
5727.631430688568
 20
1937.499861045212
 10
5727.631430688568
 20
2297.499861045212
 10
4767.631430688568
 20
2297.499861045212
 10
4767.631430688568
 20
1937.499861045212
 10
4970.994408304997
 20
1937.499861045212
  0
LINE
  5
31
330
2
100
AcDbEntity
  8
MAINOS
 62
     3
100
AcDbLine
 10
4534.273555582092
 20
2202.499861045213
 30
0.0
 11
4534.273555582092
 21
2132.499861045213
 31
0.0
  0
LWPOLYLINE
  5
32
330
2
100
AcDbEntity
  8
0
  6
Continuous
 62
     7
370
    15
100
AcDbPolyline
 90
        4
 70
     1
 43
0.0
 10
4812.631430688568
 20
2252.499861045213
 10
4887.631430688568
 20
2252.499861045212
 10
4887.631430688569
 20
1982.499861045213
 10
4812.631430688568
 20
1982.499861045212
  0
LWPOLYLINE
  5
33
330
2
100
AcDbEntity
  8
MAINOS
 62
     6
100
AcDbPolyline
 90
        4
 70
     0
 43
0.0
 10
4606.678801610993
 20
1969.999861045213
 10
4606.678801610995
 20
2484.999861045216
 10
5888.631430688568
 20
2484.999861045216
 10
5888.631430688568
 20
1969.999861045213
  0
LWPOLYLINE
  5
34
330
2
100
AcDbEntity
  8
0
  6
Continuous
 62
     7
370
    15
100
AcDbPolyline
 90
        4
 70
     1
 43
0.0
 10
5682.631430688569
 20
1982.499861045213
 10
5607.63143068857
 20
1982.499861045214
 10
5607.63143068857
 20
2252.499861045211
 10
5682.631430688569
 20
2252.499861045211
  0
DIMENSION
  5
35
330
2
100
AcDbEntity
  8
MAINOS
100
AcDbDimension
  2
*D2
 10
6022.772894131753
 20
2439.999861045213
 30
0.0
 11
5966.461050053791
 21
2143.723546506427
 31
0.0
 70
    32
  1
592
 71
     5
 42
592.5526290775742
 73
     0
 74
     0
 75
     0
  3
STANDARD
100
AcDbAlignedDimension
 13
5992.387315519454
 23
1847.447231967638
 33
0.0
 14
5989.387315519457
 24
2439.999861045213
 34
0.0
 50
90.0
100
AcDbRotatedDimension
1001
ACAD
1000
DSTYLE
1002
{
1070
    40
1040
1.0
1002
}
  0
DIMENSION
  5
43
330
2
100
AcDbEntity
  8
MAINOS
100
AcDbDimension
  2
*D1
 10
6184.374027050655
 20
1847.447231967638
 30
0.0
 11
6118.669379374495
 21
2196.223546506427
 31
0.0
 70
    32
  1
(692)
 71
     5
 42
697.5526290775774
 73
     0
 74
     0
 75
     0
  3
STANDARD
100
AcDbAlignedDimension
 13
6153.232555468965
 23
2544.999861045216
 33
0.0
 14
6153.232555468965
 24
1847.447231967638
 34
0.0
 50
90.0
100
AcDbRotatedDimension
1001
ACAD
1000
DSTYLE
1002
{
1070
    40
1040
1.0
1002
}
  0
LWPOLYLINE
  5
50
330
2
100
AcDbEntity
  8
MAINOS
100
AcDbPolyline
 90
       17
 70
     1
 43
0.0
 10
5843.631430688575
 20
2439.999861045214
 10
5743.655116149781
 20
2439.999861045214
 10
5743.655116149781
 20
2424.999861045214
 10
5247.702487072203
 20
2424.999861045214
 10
4749.749857994626
 20
2424.999861045214
 10
4749.749857994626
 20
2439.999861045214
 10
4651.678801610991
 20
2439.999861045216
 10
4651.67880161099
 20
1847.44723196764
 10
4920.655116149784
 20
1847.447231967638
 10
4920.655116149784
 20
1917.447231967638
 10
4721.678801610991
 20
1917.44723196764
 10
4721.678801610993
 20
2369.999861045215
 10
5773.63143068857
 20
2369.999861045212
 10
5773.63143068857
 20
1917.447231967636
 10
5574.655116149778
 20
1917.447231967638
 10
5574.655116149778
 20
1847.447231967637
 10
5843.631430688575
 20
1847.447231967638
  0
LWPOLYLINE
  5
51
330
2
100
AcDbEntity
  8
MAINOS
 62
     4
100
AcDbPolyline
 90
        2
 70
     0
 43
0.0
 10
4977.875352098047
 20
1937.499861045212
 10
5519.169530401907
 20
1937.499861045212
  0
DIMENSION
  5
52
330
2
100
AcDbEntity
  8
MAINOS
100
AcDbDimension
  2
*D3
 10
4651.678801610991
 20
1686.828516666573
 30
0.0
 11
5247.655116149781
 21
1743.140360744534
 31
0.0
 70
    32
  1
1192
 71
     5
 42
1191.952629077578
 73
     0
 74
     0
 75
     0
  3
STANDARD
100
AcDbAlignedDimension
 13
5843.63143068857
 23
1711.693966274669
 33
0.0
 14
4651.678801610991
 24
1711.693966274671
 34
0.0
100
AcDbRotatedDimension
1001
ACAD
1000
DSTYLE
1002
{
1070
    40
1040
1.0
1002
}
  0
LWPOLYLINE
  5
5F
330
2
100
AcDbEntity
  8
0
  6
Continuous
 62
     7
370
    15
100
AcDbPolyline
 90
       27
 70
     0
 43
0.0
 10
5567.15511614978
 20
1937.499861045212
 10
5567.15511614978
 20
1851.499861045216
 42
-0.4142135623730951
 10
5565.155116149782
 20
1849.499861045216
 10
5537.155116149782
 20
1849.499861045216
 10
5537.155116149782
 20
1841.499861045216
 10
5542.155116149782
 20
1836.499861045216
 10
5545.155116149782
 20
1836.499861045216
 42
-0.4142135623730951
 10
5553.155116149781
 20
1828.499861045216
 10
5553.155116149783
 20
1776.499861045216
 42
-0.4142135623730951
 10
5548.155116149782
 20
1771.499861045216
 10
5418.155116149783
 20
1771.499861045212
 42
-0.4142135623730951
 10
5413.155116149783
 20
1776.499861045212
 10
5413.155116149783
 20
1796.499861045212
 42
-0.4142135623730951
 10
5418.155116149783
 20
1801.499861045212
 10
5518.155116149783
 20
1801.499861045215
 42
0.4142135623730951
 10
5523.155116149783
 20
1806.499861045215
 10
5523.155116149782
 20
1831.499861045215
 42
-0.4142135623730951
 10
5528.155116149782
 20
1836.499861045215
 10
5529.155116149783
 20
1836.499861045215
 10
5529.15511614978
 20
1849.499861045216
 10
5517.655116149782
 20
1849.499861045215
 10
5517.05511614978
 20
1849.499861045216
 10
4978.255116149782
 20
1849.499861045211
 10
4977.655116149781
 20
1849.499861045211
 10
4930.155116149781
 20
1849.49986104521
 42
-0.4142135623730951
 10
4928.155116149781
 20
1851.49986104521
 10
4928.155116149781
 20
1937.49986104521
  0
MTEXT
  5
60
330
2
100
AcDbEntity
  8
MAINOS
 62
     5
100
AcDbMText
 10
4457.764728879975
 20
1746.911609152124
 30
0.0
 40
70.0
 41
0.0
 46
0.0
 71
     5
 72
     1
  1
\A1;45
  7
KUVASTO
 73
     1
 44
1.0
  0
LINE
  5
61
330
2
100
AcDbEntity
  8
MAINOS
 62
     3
100
AcDbLine
 10
4466.678801610991
 20
1686.828516666573
 30
0.0
 11
4384.760575254395
 21
1686.828516666573
 31
0.0
  0
INSERT
  5
62
330
2
100
AcDbEntity
  8
MAINOS
 62
     3
100
AcDbBlockReference
  2
_OPEN
 10
4606.678801610991
 20
1686.828516666573
 30
0.0
 41
-70.0
 42
70.0
 43
70.0
 50
180.0
  0
LINE
  5
63
330
2
100
AcDbEntity
  8
MAINOS
 62
     3
100
AcDbLine
 10
4536.678801610992
 20
1686.828516666573
 30
0.0
 11
4466.678801610991
 21
1686.828516666573
 31
0.0
  0
LINE
  5
64
330
2
100
AcDbEntity
  8
MAINOS
 62
     3
100
AcDbLine
 10
4651.678801610991
 20
1686.828516666573
 30
0.0
 11
4606.678801610991
 21
1686.828516666573
 31
0.0
  0
LINE
  5
65
330
2
100
AcDbEntity
  8
MAINOS
 62
     3
100
AcDbLine
 10
4606.678801610991
 20
1711.068966274669
 30
0.0
 11
4606.678801610991
 21
1685.578516666573
 31
0.0
  0
LWPOLYLINE
  5
66
330
2
100
AcDbEntity
  8
0
  6
Continuous
 62
     7
370
    15
100
AcDbPolyline
 90
        9
 70
     0
 43
0.0
 10
4932.631430688569
 20
2020.268037745258
 10
4970.858185777599
 20
2003.646571577948
 42
0.4142135623729727
 10
4973.489804064209
 20
2004.683193588844
 10
4971.685033666412
 20
2000.508708331377
 42
-0.2239846608725755
 10
4966.553651917866
 20
1996.008607315272
 10
4939.818925946415
 20
1988.342548003432
 42
0.3838640350355008
 10
4938.045999953425
 20
1985.505273319418
 10
4938.132473234478
 20
1985.014858972697
 42
0.2610122853455788
 10
4940.768883801369
 20
1982.499861045213
  0
LWPOLYLINE
  5
67
330
2
100
AcDbEntity
  8
MAINOS
100
AcDbPolyline
 90
        2
 70
     0
 43
0.0
 10
4932.631430688569
 20
2020.268037745258
 10
4932.631430688569
 20
1982.499861045213
  0
LWPOLYLINE
  5
68
330
2
100
AcDbEntity
  8
0
  6
Continuous
 62
     7
370
    15
100
AcDbPolyline
 90
        2
 70
     0
 43
0.0
 10
4970.994408304997
 20
1982.499861045213
 10
4970.994408304997
 20
1937.499861045212
  0
LWPOLYLINE
  5
69
330
2
100
AcDbEntity
  8
MAINOS
100
AcDbPolyline
 90
        3
 70
     0
 43
0.0
 10
4970.994408304997
 20
1937.499861045212
 10
4970.994408304997
 20
1982.499861045213
 10
4932.631430688569
 20
1982.499861045213
  0
LWPOLYLINE
  5
6A
330
2
100
AcDbEntity
  8
MAINOS
100
AcDbPolyline
 90
        2
 70
     0
 43
0.0
 10
4973.489804064209
 20
2004.683193588844
 10
4978.862768071974
 20
2016.525259703543
  0
MTEXT
  5
6B
330
2
100
AcDbEntity
  8
MAINOS
 62
     5
100
AcDbMText
 10
6032.550563058748
 20
1746.911609152124
 30
0.0
 40
70.0
 41
0.0
 46
0.0
 71
     5
 72
     1
  1
\A1;45
  7
KUVASTO
 73
     1
 44
1.0
  0
LINE
  5
6C
330
2
100
AcDbEntity
  8
MAINOS
 62
     3
100
AcDbLine
 10
5958.63143068857
 20
1686.828516666573
 30
0.0
 11
6028.631430688569
 21
1686.828516666573
 31
0.0
  0
LINE
  5
6D
330
2
100
AcDbEntity
  8
MAINOS
 62
     3
100
AcDbLine
 10
5843.63143068857
 20
1686.828516666573
 30
0.0
 11
5888.631430688571
 21
1686.828516666573
 31
0.0
  0
INSERT
  5
6E
330
2
100
AcDbEntity
  8
MAINOS
 62
     3
100
AcDbBlockReference
  2
_OPEN
 10
5888.63143068857
 20
1686.828516666573
 30
0.0
 41
70.0
 42
70.0
 43
70.0
 50
180.0
  0
LINE
  5
6F
330
2
100
AcDbEntity
  8
MAINOS
 62
     3
100
AcDbLine
 10
5888.631430688571
 20
1711.068966274669
 30
0.0
 11
5888.631430688571
 21
1685.578516666573
 31
0.0
  0
LWPOLYLINE
  5
70
330
2
100
AcDbEntity
  8
0
  6
Continuous
 62
     7
370
    15
100
AcDbPolyline
 90
        9
 70
     0
 43
0.0
 10
5556.055762750323
 20
1982.499861045213
 42
0.2574109489918839
 10
5558.692173317216
 20
1985.03025937044
 10
5558.778646598268
 20
1985.520673717162
 42
0.3838640350355009
 10
5557.00572060528
 20
1988.357948401175
 10
5530.270994633828
 20
1996.024007713014
 42
-0.2239846608725755
 10
5525.139612885281
 20
2000.52410872912
 10
5523.315570224792
 20
2004.713978165539
 42
0.4142135623729727
 10
5525.947188511411
 20
2003.67735615462
 10
5562.875352098044
 20
2019.73417866667
  0
LWPOLYLINE
  5
71
330
2
100
AcDbEntity
  8
MAINOS
100
AcDbPolyline
 90
        4
 70
     0
 43
0.0
 10
5562.678801610995
 20
2019.648716082596
 10
5562.678801610995
 20
1982.499861045213
 10
5525.227463506491
 20
1982.499861045213
 10
5525.227463506491
 20
1937.499861045212
  0
LWPOLYLINE
  5
72
330
2
100
AcDbEntity
  8
MAINOS
100
AcDbPolyline
 90
        2
 70
     0
 43
0.0
 10
5607.678801610991
 20
1982.499861045213
 10
5607.63143068857
 20
1982.499861045213
  0
LWPOLYLINE
  5
73
330
2
100
AcDbEntity
  8
MAINOS
100
AcDbPolyline
 90
        2
 70
     0
 43
0.0
 10
5523.315570224574
 20
2004.713978166036
 10
5518.180408071942
 20
2016.524042571616
  0
LINE
  5
74
330
2
100
AcDbEntity
  8
MAINOS
 62
     3
100
AcDbLine
 10
6028.631430688569
 20
1686.828516666573
 30
0.0
 11
6110.549657045163
 21
1686.828516666573
 31
0.0
  0
LWPOLYLINE
  5
75
330
2
100
AcDbEntity
  8
MAINOS
  6
DASHED
100
AcDbPolyline
 90
        4
 70
     0
 43
0.0
 10
5843.655116149782
 20
2439.999861045214
 10
5843.65511614978
 20
2539.999861045215
 10
4651.655116149781
 20
2539.999861045213
 10
4651.655116149781
 20
2439.999861045214
  0
MTEXT
  5
77
330
2
100
AcDbEntity
  8
MAINOS
 62
     5
100
AcDbMText
 10
4477.163686218164
 20
2402.249567206164
 30
0.0
 40
70.0
 41
0.0
 46
0.0
 71
     5
 72
     1
  1
270
  7
KUVASTO
 11
0.0000000000000001
 21
1.0
 31
0.0
 73
     1
 44
1.0
  0
INSERT
  5
78
330
2
100
AcDbEntity
  8
MAINOS
 62
     3
100
AcDbBlockReference
  2
_OPEN
 10
4534.273555582092
 20
2539.999861045214
 30
0.0
 41
70.0
 42
70.0
 43
70.0
 50
270.0
  0
LINE
  5
79
330
2
100
AcDbEntity
  8
MAINOS
 62
     3
100
AcDbLine
 10
4534.273555582092
 20
2539.999861045214
 30
0.0
 11
4534.273555582092
 21
2272.499861045214
 31
0.0
  0
INSERT
  5
7A
330
2
100
AcDbEntity
  8
MAINOS
 62
     3
100
AcDbBlockReference
  2
_OPEN
 10
4534.273555582092
 20
2272.499861045214
 30
0.0
 41
70.0
 42
70.0
 43
70.0
 50
90.0
  0
LINE
  5
7B
330
2
100
AcDbEntity
  8
MAINOS
 62
     3
100
AcDbLine
 10
4559.380416342011
 20
2272.499861045214
 30
0.0
 11
4533.023555582095
 21
2272.499861045214
 31
0.0
  0
LINE
  5
7C
330
2
100
AcDbEntity
  8
MAINOS
 62
     3
100
AcDbLine
 10
4559.380416342011
 20
2539.999861045214
 30
0.0
 11
4533.023555582095
 21
2539.999861045214
 31
0.0
  0
LINE
  5
7D
330
2
100
AcDbEntity
  8
MAINOS
 62
     3
100
AcDbLine
 10
4534.273555582092
 20
2609.999861045214
 30
0.0
 11
4534.273555582092
 21
2679.999861045212
 31
0.0
  0
MTEXT
  5
7F
330
2
100
AcDbEntity
  8
MAINOS
 62
     5
100
AcDbMText
 10
5962.693225531626
 20
2628.918993415391
 30
0.0
 40
70.0
 41
0.0
 46
0.0
 71
     5
 72
     1
  1
\A1;45
  7
KUVASTO
 11
0.0000000000000001
 21
1.0
 31
0.0
 73
     1
 44
1.0
  0
LINE
  5
80
330
2
100
AcDbEntity
  8
MAINOS
 62
     3
100
AcDbLine
 10
5990.637315519458
 20
2439.999861045213
 30
0.0
 11
6024.026318017178
 21
2439.999861045213
 31
0.0
  0
LINE
  5
81
330
2
100
AcDbEntity
  8
MAINOS
 62
     3
100
AcDbLine
 10
5990.637315519458
 20
2484.999861045216
 30
0.0
 11
6024.026318017178
 21
2484.999861045216
 31
0.0
  0
LWPOLYLINE
  5
82
330
2
100
AcDbEntity
  8
0
  6
Continuous
 62
     7
370
    15
100
AcDbPolyline
 90
        6
 70
     1
 43
0.0
 10
5233.514687068677
 20
2252.499861045214
 10
5232.111229055966
 20
2232.429476400106
 42
-0.3939104756148944
 10
5230.116100955447
 20
2230.568989347595
 10
5163.580276352385
 20
2230.568989347594
 42
-0.3939104756148945
 10
5161.585148251866
 20
2232.429476400106
 10
5160.181690239153
 20
2252.499861045212
  0
CIRCLE
  5
83
330
2
100
AcDbEntity
  8
MAINOS
 62
     6
100
AcDbCircle
 10
5247.655116149781
 20
2269.999861045214
 30
0.0
 40
75.0
  0
LINE
  5
84
330
2
100
AcDbEntity
  8
MAINOS
 62
     3
100
AcDbLine
 10
5222.65511614978
 20
2272.499861045214
 30
0.0
 11
5272.655116149781
 21
2272.499861045214
 31
0.0
  0
LWPOLYLINE
  5
85
330
2
100
AcDbEntity
  8
MAINOS
100
AcDbPolyline
 90
        6
 70
     1
 43
0.0
 10
5072.32851324963
 20
2252.499861045212
 10
5145.661510079156
 20
2252.499861045213
 10
5144.258052066445
 20
2232.429476400105
 42
-0.3939104756148944
 10
5142.262923965926
 20
2230.568989347594
 10
5075.727099362864
 20
2230.568989347593
 42
-0.3939104756148945
 10
5073.731971262343
 20
2232.429476400105
  0
LWPOLYLINE
  5
86
330
2
100
AcDbEntity
  8
0
  6
Continuous
 62
     7
370
    15
100
AcDbPolyline
 90
        6
 70
     1
 43
0.0
 10
5336.367864058202
 20
2252.499861045215
 10
5334.96440604549
 20
2232.429476400108
 42
-0.3939104756148944
 10
5332.969277944972
 20
2230.568989347597
 10
5266.433453341909
 20
2230.568989347596
 42
-0.3939104756148945
 10
5264.43832524139
 20
2232.429476400107
 10
5263.034867228676
 20
2252.499861045212
  0
LINE
  5
87
330
2
100
AcDbEntity
  8
MAINOS
 62
     3
100
AcDbLine
 10
5247.655116149781
 20
2244.999861045213
 30
0.0
 11
5247.655116149781
 21
2294.999861045213
 31
0.0
  0
LWPOLYLINE
  5
88
330
2
100
AcDbEntity
  8
0
  6
Continuous
 62
     7
370
    15
100
AcDbPolyline
 90
        6
 70
     1
 43
0.0
 10
5424.221041047726
 20
2252.499861045216
 10
5422.817583035014
 20
2232.429476400109
 42
-0.3939104756148944
 10
5420.822454934494
 20
2230.568989347598
 10
5354.286630331431
 20
2230.568989347597
 42
-0.3939104756148945
 10
5352.291502230912
 20
2232.429476400108
 10
5350.8880442182
 20
2252.499861045212
  0
LWPOLYLINE
  5
89
330
2
100
AcDbEntity
  8
MAINOS
100
AcDbPolyline
 90
        2
 70
     0
 43
0.0
 10
5438.741221207724
 20
2252.499861045212
 10
5441.74122120772
 20
2252.499861045212
  0
LINE
  5
8A
330
2
100
AcDbEntity
  8
MAINOS
 62
     3
100
AcDbLine
 10
6022.776318017178
 20
2554.999861045216
 30
0.0
 11
6022.776318017178
 21
2624.999861045215
 31
0.0
  0
INSERT
  5
8B
330
2
100
AcDbEntity
  8
MAINOS
 62
     3
100
AcDbBlockReference
  2
_OPEN
 10
6022.776318017178
 20
2439.999861045213
 30
0.0
 41
70.0
 42
70.0
 43
70.0
 50
90.0
  0
LINE
  5
8C
330
2
100
AcDbEntity
  8
MAINOS
 62
     3
100
AcDbLine
 10
6022.776318017178
 20
2274.999861045213
 30
0.0
 11
6022.776318017178
 21
2204.999861045215
 31
0.0
  0
INSERT
  5
8D
330
2
100
AcDbEntity
  8
MAINOS
 62
     3
100
AcDbBlockReference
  2
_OPEN
 10
6022.776318017178
 20
2484.999861045216
 30
0.0
 41
70.0
 42
70.0
 43
70.0
 50
270.0
  0
LINE
  5
8E
330
2
100
AcDbEntity
  8
MAINOS
 62
     3
100
AcDbLine
 10
6022.776318017178
 20
2439.999861045213
 30
0.0
 11
6022.776318017178
 21
2484.999861045216
 31
0.0
  0
LINE
  5
8F
330
2
100
AcDbEntity
  8
MAINOS
 62
     3
100
AcDbLine
 10
6022.776318017178
 20
2624.999861045215
 30
0.0
 11
6022.776318017178
 21
2706.91808740181
 31
0.0
  0
LWPOLYLINE
  5
13C
330
2
100
AcDbEntity
  8
MAINOS
100
AcDbPolyline
 90
        4
 70
     0
 43
0.0
 10
4749.749857994626
 20
2424.999861045214
 10
4666.678801610992
 20
2424.999861045214
 10
4666.678801610992
 20
1862.447231967639
 10
4920.655116149784
 20
1862.447231967639
  0
LWPOLYLINE
  5
142
330
2
100
AcDbEntity
  8
MAINOS
100
AcDbPolyline
 90
        4
 70
     0
 43
0.0
 10
5743.655116149781
 20
2424.999861045214
 10
5828.726172533415
 20
2424.999861045214
 10
5828.726172533415
 20
1862.447231967639
 10
5574.749857994623
 20
1862.447231967639
  0
ENDSEC
  0
SECTION
  2
OBJECTS
  0
DICTIONARY
  5
7
330
0
100
AcDbDictionary
281
     1
  3
ACAD_COLOR
350
1D6
  3
ACAD_GROUP
350
27
  3
ACAD_LAYOUT
350
B
  3
ACAD_MATERIAL
350
1AC
  3
ACAD_MLEADERSTYLE
350
1FB
  3
ACAD_MLINESTYLE
350
28
  3
ACAD_PLOTSETTINGS
350
29
  3
ACAD_PLOTSTYLENAME
350
6
  3
ACAD_SCALELIST
350
1D9
  3
ACAD_TABLESTYLE
350
1D7
  3
ACAD_VISUALSTYLE
350
1C5
  3
ACDB_RECOMPOSE_DATA
350
2A7
  3
AcDbVariableDictionary
350
91
  0
DICTIONARY
  5
20A
330
4
100
AcDbDictionary
280
     1
281
     1
  3
ADSK_XREC_LAYER_RECONCILED
360
20B
  0
DICTIONARY
  5
20C
330
2A
100
AcDbDictionary
280
     1
281
     1
  3
ADSK_XREC_LAYER_RECONCILED
360
20D
  0
DICTIONARY
  5
1D6
102
{ACAD_REACTORS
330
7
102
}
330
7
100
AcDbDictionary
281
     1
  0
DICTIONARY
  5
27
102
{ACAD_REACTORS
330
7
102
}
330
7
100
AcDbDictionary
281
     1
  0
DICTIONARY
  5
B
102
{ACAD_REACTORS
330
7
102
}
330
7
100
AcDbDictionary
281
     1
  3
Layout1
350
F
  3
Model
350
A
  0
DICTIONARY
  5
1AC
102
{ACAD_REACTORS
330
7
102
}
330
7
100
AcDbDictionary
281
     1
  3
ByBlock
350
1B5
  3
ByLayer
350
1AD
  3
Global
350
1BD
  0
DICTIONARY
  5
1FB
102
{ACAD_REACTORS
330
7
102
}
330
7
100
AcDbDictionary
281
     1
  3
Standard
350
1FC
  0
DICTIONARY
  5
28
102
{ACAD_REACTORS
330
7
102
}
330
7
100
AcDbDictionary
281
     1
  3
STANDARD
350
2B
  0
DICTIONARY
  5
29
102
{ACAD_REACTORS
330
7
102
}
330
7
100
AcDbDictionary
281
     1
  0
ACDBDICTIONARYWDFLT
  5
6
102
{ACAD_REACTORS
330
7
102
}
330
7
100
AcDbDictionary
281
     1
  3
Normal
350
5
100
AcDbDictionaryWithDefault
340
5
  0
DICTIONARY
  5
1D9
102
{ACAD_REACTORS
330
7
102
}
330
7
100
AcDbDictionary
281
     1
  3
A0
350
1DA
  3
A1
350
1DB
  3
A2
350
1DC
  3
A3
350
1DD
  3
A4
350
1DE
  3
A5
350
1DF
  3
A6
350
1E0
  3
A7
350
1E1
  3
A8
350
1E2
  3
A9
350
1E3
  3
B0
350
1E4
  3
B1
350
1E5
  3
B2
350
1E6
  3
B3
350
1E7
  3
B4
350
1E8
  3
B5
350
1E9
  3
B6
350
1EA
  3
B7
350
1EB
  3
B8
350
1EC
  3
B9
350
1ED
  3
C0
350
1EE
  3
C1
350
1EF
  3
C2
350
1F0
  3
C3
350
1F1
  3
C4
350
1F2
  3
C5
350
1F3
  3
C6
350
1F4
  3
C7
350
1F5
  3
C8
350
1F6
  3
C9
350
1F7
  3
D0
350
1F8
  3
D1
350
1F9
  3
D2
350
1FA
  0
DICTIONARY
  5
1D7
102
{ACAD_REACTORS
330
7
102
}
330
7
100
AcDbDictionary
281
     1
  3
Standard
350
1D8
  0
DICTIONARY
  5
1C5
102
{ACAD_REACTORS
330
7
102
}
330
7
100
AcDbDictionary
281
     1
  3
2dWireframe
350
1CB
  3
3D Hidden
350
1CD
  3
3dWireframe
350
1CC
  3
Basic
350
1CA
  3
Brighten
350
1D1
  3
ColorChange
350
1D5
  3
Conceptual
350
1CE
  3
Dim
350
1D0
  3
Facepattern
350
1D4
  3
Flat
350
1C6
  3
FlatWithEdges
350
1C7
  3
Gouraud
350
1C8
  3
GouraudWithEdges
350
1C9
  3
Linepattern
350
1D3
  3
Realistic
350
1CF
  3
Thicken
350
1D2
  0
XRECORD
  5
2A7
102
{ACAD_REACTORS
330
7
102
}
330
7
100
AcDbXrecord
280
     1
 90
        1
330
1D8
  0
DICTIONARY
  5
91
102
{ACAD_REACTORS
330
7
102
}
330
7
100
AcDbDictionary
281
     1
  3
CANNOSCALE
350
219
  3
CMLEADERSTYLE
350
217
  3
CTABLESTYLE
350
216
  3
DIMASSOC
350
93
  3
HIDETEXT
350
92
  3
LIGHTINGUNITS
350
21A
  3
MSLTSCALE
350
218
  0
XRECORD
  5
20B
102
{ACAD_REACTORS
330
20A
102
}
330
20A
100
AcDbXrecord
280
     1
290
     1
  0
XRECORD
  5
20D
102
{ACAD_REACTORS
330
20C
102
}
330
20C
100
AcDbXrecord
280
     1
290
     1
  0
LAYOUT
  5
F
102
{ACAD_REACTORS
330
B
102
}
330
B
100
AcDbPlotSettings
  1

  2
ASPA2
  4

  6

 40
0.0
 41
0.0
 42
0.0
 43
0.0
 44
0.0
 45
0.0
 46
0.0
 47
0.0
 48
0.0
 49
0.0
140
0.0
141
0.0
142
1.0
143
1.0
 70
   688
 72
     0
 73
     0
 74
     5
  7
acad.ctb
 75
    16
147
1.0
 76
     0
 77
     2
 78
   300
148
0.0
149
0.0
100
AcDbLayout
  1
Layout1
 70
     1
 71
     1
 10
0.0
 20
0.0
 11
420.0
 21
297.0
 12
0.0
 22
0.0
 32
0.0
 14
1.000000000000000E+20
 24
1.000000000000000E+20
 34
1.000000000000000E+20
 15
-1.000000000000000E+20
 25
-1.000000000000000E+20
 35
-1.000000000000000E+20
146
0.0
 13
0.0
 23
0.0
 33
0.0
 16
1.0
 26
0.0
 36
0.0
 17
0.0
 27
1.0
 37
0.0
 76
     0
330
C
  0
LAYOUT
  5
A
102
{ACAD_REACTORS
330
B
102
}
330
B
100
AcDbPlotSettings
  1

  2
Amyuni PDF Converter
  4
A4
  6

 40
6.720416545867919
 41
6.80509614944458
 42
6.889755249023437
 43
6.720428466796875
 44
209.9733276367186
 45
296.9259948730469
 46
22.9
 47
18.68
 48
4023.38883973324
 49
1366.248850261901
140
6483.802066701888
141
2871.953625506398
142
1.0
143
10.0
 70
 11956
 72
     1
 73
     1
 74
     4
  7
monochrome.ctb
 75
    20
147
0.1
 76
     0
 77
     2
 78
   300
148
-4023.38883973324
149
-1366.248850261901
100
AcDbLayout
  1
Model
 70
     1
 71
     0
 10
0.0
 20
0.0
 11
12.0
 21
9.0
 12
0.0
 22
0.0
 32
0.0
 14
0.0
 24
0.0
 34
0.0
 15
0.0
 25
0.0
 35
0.0
146
0.0
 13
0.0
 23
0.0
 33
0.0
 16
1.0
 26
0.0
 36
0.0
 17
0.0
 27
1.0
 37
0.0
 76
     0
330
2
331
188
  0
MATERIAL
  5
1B5
102
{ACAD_XDICTIONARY
360
1B6
102
}
102
{ACAD_REACTORS
330
1AC
102
}
330
1AC
100
AcDbMaterial
  1
ByBlock
 72
     0
 43
0.0208333333333333
 43
0.0
 43
0.0
 43
0.0
 43
0.0
 43
0.0208333333333333
 43
0.0
 43
0.0
 43
0.0
 43
0.0
 43
1.0
 43
0.0
 43
0.0
 43
0.0
 43
0.0
 43
1.0
 77
     0
 47
0.0208333333333333
 47
0.0
 47
0.0
 47
0.0
 47
0.0
 47
0.0208333333333333
 47
0.0
 47
0.0
 47
0.0
 47
0.0
 47
1.0
 47
0.0
 47
0.0
 47
0.0
 47
0.0
 47
1.0
171
     0
 49
0.0208333333333333
 49
0.0
 49
0.0
 49
0.0
 49
0.0
 49
0.0208333333333333
 49
0.0
 49
0.0
 49
0.0
 49
0.0
 49
1.0
 49
0.0
 49
0.0
 49
0.0
 49
0.0
 49
1.0
175
     0
142
0.0208333333333333
142
0.0
142
0.0
142
0.0
142
0.0
142
0.0208333333333333
142
0.0
142
0.0
142
0.0
142
0.0
142
1.0
142
0.0
142
0.0
142
0.0
142
0.0
142
1.0
179
     0
144
0.0208333333333333
144
0.0
144
0.0
144
0.0
144
0.0
144
0.0208333333333333
144
0.0
144
0.0
144
0.0
144
0.0
144
1.0
144
0.0
144
0.0
144
0.0
144
0.0
144
1.0
147
0.0208333333333333
147
0.0
147
0.0
147
0.0
147
0.0
147
0.0208333333333333
147
0.0
147
0.0
147
0.0
147
0.0
147
1.0
147
0.0
147
0.0
147
0.0
147
0.0
147
1.0
  0
MATERIAL
  5
1AD
102
{ACAD_XDICTIONARY
360
1AE
102
}
102
{ACAD_REACTORS
330
1AC
102
}
330
1AC
100
AcDbMaterial
  1
ByLayer
 72
     0
 43
0.0208333333333333
 43
0.0
 43
0.0
 43
0.0
 43
0.0
 43
0.0208333333333333
 43
0.0
 43
0.0
 43
0.0
 43
0.0
 43
1.0
 43
0.0
 43
0.0
 43
0.0
 43
0.0
 43
1.0
 77
     0
 47
0.0208333333333333
 47
0.0
 47
0.0
 47
0.0
 47
0.0
 47
0.0208333333333333
 47
0.0
 47
0.0
 47
0.0
 47
0.0
 47
1.0
 47
0.0
 47
0.0
 47
0.0
 47
0.0
 47
1.0
171
     0
 49
0.0208333333333333
 49
0.0
 49
0.0
 49
0.0
 49
0.0
 49
0.0208333333333333
 49
0.0
 49
0.0
 49
0.0
 49
0.0
 49
1.0
 49
0.0
 49
0.0
 49
0.0
 49
0.0
 49
1.0
175
     0
142
0.0208333333333333
142
0.0
142
0.0
142
0.0
142
0.0
142
0.0208333333333333
142
0.0
142
0.0
142
0.0
142
0.0
142
1.0
142
0.0
142
0.0
142
0.0
142
0.0
142
1.0
179
     0
144
0.0208333333333333
144
0.0
144
0.0
144
0.0
144
0.0
144
0.0208333333333333
144
0.0
144
0.0
144
0.0
144
0.0
144
1.0
144
0.0
144
0.0
144
0.0
144
0.0
144
1.0
147
0.0208333333333333
147
0.0
147
0.0
147
0.0
147
0.0
147
0.0208333333333333
147
0.0
147
0.0
147
0.0
147
0.0
147
1.0
147
0.0
147
0.0
147
0.0
147
0.0
147
1.0
  0
MATERIAL
  5
1BD
102
{ACAD_XDICTIONARY
360
1BE
102
}
102
{ACAD_REACTORS
330
1AC
102
}
330
1AC
100
AcDbMaterial
  1
Global
 72
     0
 43
0.0208333333333333
 43
0.0
 43
0.0
 43
0.0
 43
0.0
 43
0.0208333333333333
 43
0.0
 43
0.0
 43
0.0
 43
0.0
 43
1.0
 43
0.0
 43
0.0
 43
0.0
 43
0.0
 43
1.0
 77
     0
 47
0.0208333333333333
 47
0.0
 47
0.0
 47
0.0
 47
0.0
 47
0.0208333333333333
 47
0.0
 47
0.0
 47
0.0
 47
0.0
 47
1.0
 47
0.0
 47
0.0
 47
0.0
 47
0.0
 47
1.0
171
     0
 49
0.0208333333333333
 49
0.0
 49
0.0
 49
0.0
 49
0.0
 49
0.0208333333333333
 49
0.0
 49
0.0
 49
0.0
 49
0.0
 49
1.0
 49
0.0
 49
0.0
 49
0.0
 49
0.0
 49
1.0
175
     0
142
0.0208333333333333
142
0.0
142
0.0
142
0.0
142
0.0
142
0.0208333333333333
142
0.0
142
0.0
142
0.0
142
0.0
142
1.0
142
0.0
142
0.0
142
0.0
142
0.0
142
1.0
179
     0
144
0.0208333333333333
144
0.0
144
0.0
144
0.0
144
0.0
144
0.0208333333333333
144
0.0
144
0.0
144
0.0
144
0.0
144
1.0
144
0.0
144
0.0
144
0.0
144
0.0
144
1.0
147
0.0208333333333333
147
0.0
147
0.0
147
0.0
147
0.0
147
0.0208333333333333
147
0.0
147
0.0
147
0.0
147
0.0
147
1.0
147
0.0
147
0.0
147
0.0
147
0.0
147
1.0
  0
MLEADERSTYLE
  5
1FC
102
{ACAD_REACTORS
330
1FB
102
}
330
1FB
100
AcDbMLeaderStyle
170
     2
171
     1
172
     0
 90
        2
 40
0.0
 41
0.0
173
     1
 91
-1056964608
340
16
 92
       -2
290
     1
 42
2.0
291
     1
 43
0.36
  3
Standard
 44
4.0
300

342
12
174
     1
178
     6
175
     1
176
     0
 93
-1056964608
 45
4.0
292
     0
297
     0
 46
4.0
 94
-1056964608
 47
1.0
 49
1.0
140
1.0
293
     1
141
0.0
294
     1
177
     0
142
1.0
295
     0
296
     0
143
0.125
1001
ACAD_MLEADERVER
1070
     2
  0
MLINESTYLE
  5
2B
102
{ACAD_REACTORS
330
28
102
}
330
28
100
AcDbMlineStyle
  2
STANDARD
 70
     0
  3

 62
   256
 51
90.0
 52
90.0
 71
     2
 49
0.5
 62
   256
  6
BYLAYER
 49
-0.5
 62
   256
  6
BYLAYER
  0
ACDBPLACEHOLDER
  5
5
102
{ACAD_REACTORS
330
6
102
}
330
6
  0
SCALE
  5
1DA
102
{ACAD_REACTORS
330
1D9
102
}
330
1D9
100
AcDbScale
 70
     0
300
1:1
140
1.0
141
1.0
290
     1
  0
SCALE
  5
1DB
102
{ACAD_REACTORS
330
1D9
102
}
330
1D9
100
AcDbScale
 70
     0
300
1:2
140
1.0
141
2.0
290
     0
  0
SCALE
  5
1DC
102
{ACAD_REACTORS
330
1D9
102
}
330
1D9
100
AcDbScale
 70
     0
300
1:4
140
1.0
141
4.0
290
     0
  0
SCALE
  5
1DD
102
{ACAD_REACTORS
330
1D9
102
}
330
1D9
100
AcDbScale
 70
     0
300
1:5
140
1.0
141
5.0
290
     0
  0
SCALE
  5
1DE
102
{ACAD_REACTORS
330
1D9
102
}
330
1D9
100
AcDbScale
 70
     0
300
1:8
140
1.0
141
8.0
290
     0
  0
SCALE
  5
1DF
102
{ACAD_REACTORS
330
1D9
102
}
330
1D9
100
AcDbScale
 70
     0
300
1:10
140
1.0
141
10.0
290
     0
  0
SCALE
  5
1E0
102
{ACAD_REACTORS
330
1D9
102
}
330
1D9
100
AcDbScale
 70
     0
300
1:16
140
1.0
141
16.0
290
     0
  0
SCALE
  5
1E1
102
{ACAD_REACTORS
330
1D9
102
}
330
1D9
100
AcDbScale
 70
     0
300
1:20
140
1.0
141
20.0
290
     0
  0
SCALE
  5
1E2
102
{ACAD_REACTORS
330
1D9
102
}
330
1D9
100
AcDbScale
 70
     0
300
1:30
140
1.0
141
30.0
290
     0
  0
SCALE
  5
1E3
102
{ACAD_REACTORS
330
1D9
102
}
330
1D9
100
AcDbScale
 70
     0
300
1:40
140
1.0
141
40.0
290
     0
  0
SCALE
  5
1E4
102
{ACAD_REACTORS
330
1D9
102
}
330
1D9
100
AcDbScale
 70
     0
300
1:50
140
1.0
141
50.0
290
     0
  0
SCALE
  5
1E5
102
{ACAD_REACTORS
330
1D9
102
}
330
1D9
100
AcDbScale
 70
     0
300
1:100
140
1.0
141
100.0
290
     0
  0
SCALE
  5
1E6
102
{ACAD_REACTORS
330
1D9
102
}
330
1D9
100
AcDbScale
 70
     0
300
2:1
140
2.0
141
1.0
290
     0
  0
SCALE
  5
1E7
102
{ACAD_REACTORS
330
1D9
102
}
330
1D9
100
AcDbScale
 70
     0
300
4:1
140
4.0
141
1.0
290
     0
  0
SCALE
  5
1E8
102
{ACAD_REACTORS
330
1D9
102
}
330
1D9
100
AcDbScale
 70
     0
300
8:1
140
8.0
141
1.0
290
     0
  0
SCALE
  5
1E9
102
{ACAD_REACTORS
330
1D9
102
}
330
1D9
100
AcDbScale
 70
     0
300
10:1
140
10.0
141
1.0
290
     0
  0
SCALE
  5
1EA
102
{ACAD_REACTORS
330
1D9
102
}
330
1D9
100
AcDbScale
 70
     0
300
100:1
140
100.0
141
1.0
290
     0
  0
SCALE
  5
1EB
102
{ACAD_REACTORS
330
1D9
102
}
330
1D9
100
AcDbScale
 70
     0
300
1/128" = 1'-0"
140
0.0078125
141
12.0
290
     0
  0
SCALE
  5
1EC
102
{ACAD_REACTORS
330
1D9
102
}
330
1D9
100
AcDbScale
 70
     0
300
1/64" = 1'-0"
140
0.015625
141
12.0
290
     0
  0
SCALE
  5
1ED
102
{ACAD_REACTORS
330
1D9
102
}
330
1D9
100
AcDbScale
 70
     0
300
1/32" = 1'-0"
140
0.03125
141
12.0
290
     0
  0
SCALE
  5
1EE
102
{ACAD_REACTORS
330
1D9
102
}
330
1D9
100
AcDbScale
 70
     0
300
1/16" = 1'-0"
140
0.0625
141
12.0
290
     0
  0
SCALE
  5
1EF
102
{ACAD_REACTORS
330
1D9
102
}
330
1D9
100
AcDbScale
 70
     0
300
3/32" = 1'-0"
140
0.09375
141
12.0
290
     0
  0
SCALE
  5
1F0
102
{ACAD_REACTORS
330
1D9
102
}
330
1D9
100
AcDbScale
 70
     0
300
1/8" = 1'-0"
140
0.125
141
12.0
290
     0
  0
SCALE
  5
1F1
102
{ACAD_REACTORS
330
1D9
102
}
330
1D9
100
AcDbScale
 70
     0
300
3/16" = 1'-0"
140
0.1875
141
12.0
290
     0
  0
SCALE
  5
1F2
102
{ACAD_REACTORS
330
1D9
102
}
330
1D9
100
AcDbScale
 70
     0
300
1/4" = 1'-0"
140
0.25
141
12.0
290
     0
  0
SCALE
  5
1F3
102
{ACAD_REACTORS
330
1D9
102
}
330
1D9
100
AcDbScale
 70
     0
300
3/8" = 1'-0"
140
0.375
141
12.0
290
     0
  0
SCALE
  5
1F4
102
{ACAD_REACTORS
330
1D9
102
}
330
1D9
100
AcDbScale
 70
     0
300
1/2" = 1'-0"
140
0.5
141
12.0
290
     0
  0
SCALE
  5
1F5
102
{ACAD_REACTORS
330
1D9
102
}
330
1D9
100
AcDbScale
 70
     0
300
3/4" = 1'-0"
140
0.75
141
12.0
290
     0
  0
SCALE
  5
1F6
102
{ACAD_REACTORS
330
1D9
102
}
330
1D9
100
AcDbScale
 70
     0
300
1" = 1'-0"
140
1.0
141
12.0
290
     0
  0
SCALE
  5
1F7
102
{ACAD_REACTORS
330
1D9
102
}
330
1D9
100
AcDbScale
 70
     0
300
1-1/2" = 1'-0"
140
1.5
141
12.0
290
     0
  0
SCALE
  5
1F8
102
{ACAD_REACTORS
330
1D9
102
}
330
1D9
100
AcDbScale
 70
     0
300
3" = 1'-0"
140
3.0
141
12.0
290
     0
  0
SCALE
  5
1F9
102
{ACAD_REACTORS
330
1D9
102
}
330
1D9
100
AcDbScale
 70
     0
300
6" = 1'-0"
140
6.0
141
12.0
290
     0
  0
SCALE
  5
1FA
102
{ACAD_REACTORS
330
1D9
102
}
330
1D9
100
AcDbScale
 70
     0
300
1'-0" = 1'-0"
140
12.0
141
12.0
290
     0
  0
TABLESTYLE
  5
1D8
102
{ACAD_XDICTIONARY
360
2A5
102
}
102
{ACAD_REACTORS
330
1D7
102
}
330
1D7
100
AcDbTableStyle
  3
Standard
 70
     0
 71
     0
 40
1.5
 41
1.5
280
     0
281
     0
  7
STANDARD
140
4.5
170
     2
 62
     0
 63
     7
283
     0
 90
      512
 91
        0
  1

274
    -2
284
     1
 64
     0
275
    -2
285
     1
 65
     0
276
    -2
286
     1
 66
     0
277
    -2
287
     1
 67
     0
278
    -2
288
     1
 68
     0
279
    -2
289
     1
 69
     0
  7
STANDARD
140
6.0
170
     5
 62
     0
 63
     7
283
     0
 90
      512
 91
        0
  1

274
    -2
284
     1
 64
     0
275
    -2
285
     1
 65
     0
276
    -2
286
     1
 66
     0
277
    -2
287
     1
 67
     0
278
    -2
288
     1
 68
     0
279
    -2
289
     1
 69
     0
  7
STANDARD
140
4.5
170
     5
 62
     0
 63
     7
283
     0
 90
      512
 91
        0
  1

274
    -2
284
     1
 64
     0
275
    -2
285
     1
 65
     0
276
    -2
286
     1
 66
     0
277
    -2
287
     1
 67
     0
278
    -2
288
     1
 68
     0
279
    -2
289
     1
 69
     0
  0
VISUALSTYLE
  5
1CB
102
{ACAD_REACTORS
330
1C5
102
}
330
1C5
100
AcDbVisualStyle
  2
2dWireframe
 70
     4
 71
     0
 72
     2
 73
     0
 90
        0
 40
-0.6
 41
-30.0
 62
     5
 63
     7
421
 16777215
 74
     1
 91
        4
 64
     7
 65
   257
 75
     1
175
     1
 42
1.0
 92
        0
 66
   257
 43
1.0
 76
     1
 77
     6
 78
     2
 67
     7
 79
     5
170
     0
171
     0
290
     0
174
     0
 93
        1
 44
0.0
173
     0
291
     0
 45
0.0
  0
VISUALSTYLE
  5
1CD
102
{ACAD_REACTORS
330
1C5
102
}
330
1C5
100
AcDbVisualStyle
  2
3D Hidden
 70
     6
 71
     1
 72
     2
 73
     2
 90
        0
 40
-0.6
 41
-30.0
 62
     5
 63
     7
421
 16777215
 74
     2
 91
        2
 64
     7
 65
   257
 75
     2
175
     1
 42
40.0
 92
        0
 66
   257
 43
1.0
 76
     1
 77
     6
 78
     2
 67
     7
 79
     3
170
     0
171
     0
290
     0
174
     0
 93
        1
 44
0.0
173
     0
291
     0
 45
0.0
  0
VISUALSTYLE
  5
1CC
102
{ACAD_REACTORS
330
1C5
102
}
330
1C5
100
AcDbVisualStyle
  2
3dWireframe
 70
     5
 71
     0
 72
     2
 73
     0
 90
        0
 40
-0.6
 41
-30.0
 62
     5
 63
     7
421
 16777215
 74
     1
 91
        4
 64
     7
 65
   257
 75
     1
175
     1
 42
1.0
 92
        0
 66
   257
 43
1.0
 76
     1
 77
     6
 78
     2
 67
     7
 79
     5
170
     0
171
     0
290
     0
174
     0
 93
        1
 44
0.0
173
     0
291
     0
 45
0.0
  0
VISUALSTYLE
  5
1CA
102
{ACAD_REACTORS
330
1C5
102
}
330
1C5
100
AcDbVisualStyle
  2
Basic
 70
     7
 71
     1
 72
     0
 73
     1
 90
        0
 40
-0.6
 41
-30.0
 62
     5
 63
     7
421
 16777215
 74
     0
 91
        4
 64
     7
 65
   257
 75
     1
175
     1
 42
1.0
 92
        8
 66
     7
 43
1.0
 76
     1
 77
     6
 78
     2
 67
     7
 79
     5
170
     0
171
     0
290
     0
174
     0
 93
        1
 44
0.0
173
     0
291
     1
 45
0.0
  0
VISUALSTYLE
  5
1D1
102
{ACAD_REACTORS
330
1C5
102
}
330
1C5
100
AcDbVisualStyle
  2
Brighten
 70
    12
 71
     2
 72
     2
 73
     0
 90
        0
 40
-0.6
 41
-30.0
 62
     5
 63
     7
421
 16777215
 74
     1
 91
        4
 64
     7
 65
   257
 75
     1
175
     1
 42
1.0
 92
        8
 66
     7
 43
1.0
 76
     1
 77
     6
 78
     2
 67
     7
 79
     5
170
     0
171
     0
290
     0
174
     0
 93
        1
 44
50.0
173
     0
291
     1
 45
0.0
  0
VISUALSTYLE
  5
1D5
102
{ACAD_REACTORS
330
1C5
102
}
330
1C5
100
AcDbVisualStyle
  2
ColorChange
 70
    16
 71
     2
 72
     2
 73
     3
 90
        0
 40
-0.6
 41
-30.0
 62
     5
 63
     8
421
  8421504
 74
     1
 91
        4
 64
     7
 65
   257
 75
     1
175
     1
 42
1.0
 92
        8
 66
     8
424
  8421504
 43
1.0
 76
     1
 77
     6
 78
     2
 67
     7
 79
     5
170
     0
171
     0
290
     0
174
     0
 93
        1
 44
0.0
173
     0
291
     1
 45
0.0
  0
VISUALSTYLE
  5
1CE
102
{ACAD_REACTORS
330
1C5
102
}
330
1C5
100
AcDbVisualStyle
  2
Conceptual
 70
     9
 71
     3
 72
     2
 73
     0
 90
        0
 40
-0.6
 41
-30.0
 62
     5
 63
     7
421
 16777215
 74
     2
 91
        2
 64
     7
 65
   257
 75
     1
175
     1
 42
40.0
 92
        8
 66
     7
 43
1.0
 76
     1
 77
     6
 78
     2
 67
     7
 79
     3
170
     0
171
     0
290
     0
174
     0
 93
        1
 44
0.0
173
     0
291
     0
 45
0.0
  0
VISUALSTYLE
  5
1D0
102
{ACAD_REACTORS
330
1C5
102
}
330
1C5
100
AcDbVisualStyle
  2
Dim
 70
    11
 71
     2
 72
     2
 73
     0
 90
        0
 40
-0.6
 41
-30.0
 62
     5
 63
     7
421
 16777215
 74
     1
 91
        4
 64
     7
 65
   257
 75
     1
175
     1
 42
1.0
 92
        8
 66
     7
 43
1.0
 76
     1
 77
     6
 78
     2
 67
     7
 79
     5
170
     0
171
     0
290
     0
174
     0
 93
        1
 44
-50.0
173
     0
291
     1
 45
0.0
  0
VISUALSTYLE
  5
1D4
102
{ACAD_REACTORS
330
1C5
102
}
330
1C5
100
AcDbVisualStyle
  2
Facepattern
 70
    15
 71
     2
 72
     2
 73
     0
 90
        0
 40
-0.6
 41
-30.0
 62
     5
 63
     7
421
 16777215
 74
     1
 91
        4
 64
     7
 65
   257
 75
     1
175
     1
 42
1.0
 92
        8
 66
     7
 43
1.0
 76
     1
 77
     6
 78
     2
 67
     7
 79
     5
170
     0
171
     0
290
     0
174
     0
 93
        1
 44
0.0
173
     0
291
     1
 45
0.0
  0
VISUALSTYLE
  5
1C6
102
{ACAD_REACTORS
330
1C5
102
}
330
1C5
100
AcDbVisualStyle
  2
Flat
 70
     0
 71
     2
 72
     1
 73
     1
 90
        2
 40
-0.6
 41
30.0
 62
     5
 63
     7
421
 16777215
 74
     0
 91
        4
 64
     7
 65
   257
 75
     1
175
     1
 42
1.0
 92
        8
 66
     7
 43
1.0
 76
     1
 77
     6
 78
     2
 67
     7
 79
     5
170
     0
171
     0
290
     0
174
     0
 93
       13
 44
0.0
173
     0
291
     1
 45
0.0
  0
VISUALSTYLE
  5
1C7
102
{ACAD_REACTORS
330
1C5
102
}
330
1C5
100
AcDbVisualStyle
  2
FlatWithEdges
 70
     1
 71
     2
 72
     1
 73
     1
 90
        2
 40
-0.6
 41
30.0
 62
     5
 63
     7
421
 16777215
 74
     1
 91
        4
 64
     7
 65
   257
 75
     1
175
     1
 42
1.0
 92
        0
 66
   257
 43
1.0
 76
     1
 77
     6
 78
     2
 67
     7
 79
     5
170
     0
171
     0
290
     0
174
     0
 93
       13
 44
0.0
173
     0
291
     1
 45
0.0
  0
VISUALSTYLE
  5
1C8
102
{ACAD_REACTORS
330
1C5
102
}
330
1C5
100
AcDbVisualStyle
  2
Gouraud
 70
     2
 71
     2
 72
     2
 73
     1
 90
        2
 40
-0.6
 41
30.0
 62
     5
 63
     7
421
 16777215
 74
     0
 91
        4
 64
     7
 65
   257
 75
     1
175
     1
 42
1.0
 92
        0
 66
     7
 43
1.0
 76
     1
 77
     6
 78
     2
 67
     7
 79
     5
170
     0
171
     0
290
     0
174
     0
 93
       13
 44
0.0
173
     0
291
     1
 45
0.0
  0
VISUALSTYLE
  5
1C9
102
{ACAD_REACTORS
330
1C5
102
}
330
1C5
100
AcDbVisualStyle
  2
GouraudWithEdges
 70
     3
 71
     2
 72
     2
 73
     1
 90
        2
 40
-0.6
 41
30.0
 62
     5
 63
     7
421
 16777215
 74
     1
 91
        4
 64
     7
 65
   257
 75
     1
175
     1
 42
1.0
 92
        0
 66
   257
 43
1.0
 76
     1
 77
     6
 78
     2
 67
     7
 79
     5
170
     0
171
     0
290
     0
174
     0
 93
       13
 44
0.0
173
     0
291
     1
 45
0.0
  0
VISUALSTYLE
  5
1D3
102
{ACAD_REACTORS
330
1C5
102
}
330
1C5
100
AcDbVisualStyle
  2
Linepattern
 70
    14
 71
     2
 72
     2
 73
     0
 90
        0
 40
-0.6
 41
-30.0
 62
     5
 63
     7
421
 16777215
 74
     1
 91
        4
 64
     7
 65
   257
 75
     7
175
     7
 42
1.0
 92
        8
 66
     7
 43
1.0
 76
     1
 77
     6
 78
     2
 67
     7
 79
     5
170
     0
171
     0
290
     0
174
     0
 93
        1
 44
0.0
173
     0
291
     1
 45
0.0
  0
VISUALSTYLE
  5
1CF
102
{ACAD_REACTORS
330
1C5
102
}
330
1C5
100
AcDbVisualStyle
  2
Realistic
 70
     8
 71
     2
 72
     2
 73
     0
 90
        0
 40
-0.6
 41
-30.0
 62
     5
 63
     7
421
 16777215
 74
     1
 91
        0
 64
     7
 65
   257
 75
     1
175
     1
 42
1.0
 92
        8
 66
     8
424
  7895160
 43
1.0
 76
     1
 77
     6
 78
     2
 67
     7
 79
     5
170
     0
171
     0
290
     0
174
     0
 93
       13
 44
0.0
173
     0
291
     0
 45
0.0
  0
VISUALSTYLE
  5
1D2
102
{ACAD_REACTORS
330
1C5
102
}
330
1C5
100
AcDbVisualStyle
  2
Thicken
 70
    13
 71
     2
 72
     2
 73
     0
 90
        0
 40
-0.6
 41
-30.0
 62
     5
 63
     7
421
 16777215
 74
     1
 91
        4
 64
     7
 65
   257
 75
     1
175
     1
 42
1.0
 92
       12
 66
     7
 43
1.0
 76
     1
 77
     6
 78
     2
 67
     7
 79
     5
170
     0
171
     0
290
     0
174
     0
 93
        1
 44
0.0
173
     0
291
     1
 45
0.0
  0
DICTIONARYVAR
  5
219
102
{ACAD_REACTORS
330
91
102
}
330
91
100
DictionaryVariables
280
     0
  1
1:1
  0
DICTIONARYVAR
  5
217
102
{ACAD_REACTORS
330
91
102
}
330
91
100
DictionaryVariables
280
     0
  1
STANDARD
  0
DICTIONARYVAR
  5
216
102
{ACAD_REACTORS
330
91
102
}
330
91
100
DictionaryVariables
280
     0
  1
STANDARD
  0
DICTIONARYVAR
  5
93
102
{ACAD_REACTORS
330
91
102
}
330
91
100
DictionaryVariables
280
     0
  1
1
  0
DICTIONARYVAR
  5
92
102
{ACAD_REACTORS
330
91
102
}
330
91
100
DictionaryVariables
280
     0
  1
1
  0
DICTIONARYVAR
  5
21A
102
{ACAD_REACTORS
330
91
102
}
330
91
100
DictionaryVariables
280
     0
  1
0
  0
DICTIONARYVAR
  5
218
102
{ACAD_REACTORS
330
91
102
}
330
91
100
DictionaryVariables
280
     0
  1
0
  0
DICTIONARY
  5
1B6
330
1B5
100
AcDbDictionary
280
     1
281
     1
  3
BUMPTILE
360
1B8
  3
DIFFUSETILE
360
1B7
  3
OPACITYTILE
360
1BB
  3
REFLECTIONTILE
360
1BA
  3
REFRACTIONTILE
360
1BC
  3
SPECULARTILE
360
1B9
  0
DICTIONARY
  5
1AE
330
1AD
100
AcDbDictionary
280
     1
281
     1
  3
BUMPTILE
360
1B0
  3
DIFFUSETILE
360
1AF
  3
OPACITYTILE
360
1B3
  3
REFLECTIONTILE
360
1B2
  3
REFRACTIONTILE
360
1B4
  3
SPECULARTILE
360
1B1
  0
DICTIONARY
  5
1BE
330
1BD
100
AcDbDictionary
280
     1
281
     1
  3
BUMPTILE
360
1C0
  3
DIFFUSETILE
360
1BF
  3
OPACITYTILE
360
1C3
  3
REFLECTIONTILE
360
1C2
  3
REFRACTIONTILE
360
1C4
  3
SPECULARTILE
360
1C1
  0
DICTIONARY
  5
2A5
330
1D8
100
AcDbDictionary
280
     1
281
     1
  3
ACAD_ROUNDTRIP_2008_TABLESTYLE_CELLSTYLEMAP
360
2A6
  0
XRECORD
  5
1B8
102
{ACAD_REACTORS
330
1B6
102
}
330
1B6
100
AcDbXrecord
280
     1
270
     1
271
     1
  0
XRECORD
  5
1B7
102
{ACAD_REACTORS
330
1B6
102
}
330
1B6
100
AcDbXrecord
280
     1
270
     1
271
     1
  0
XRECORD
  5
1BB
102
{ACAD_REACTORS
330
1B6
102
}
330
1B6
100
AcDbXrecord
280
     1
270
     1
271
     1
  0
XRECORD
  5
1BA
102
{ACAD_REACTORS
330
1B6
102
}
330
1B6
100
AcDbXrecord
280
     1
270
     1
271
     1
  0
XRECORD
  5
1BC
102
{ACAD_REACTORS
330
1B6
102
}
330
1B6
100
AcDbXrecord
280
     1
270
     1
271
     1
  0
XRECORD
  5
1B9
102
{ACAD_REACTORS
330
1B6
102
}
330
1B6
100
AcDbXrecord
280
     1
270
     1
271
     1
  0
XRECORD
  5
1B0
102
{ACAD_REACTORS
330
1AE
102
}
330
1AE
100
AcDbXrecord
280
     1
270
     1
271
     1
  0
XRECORD
  5
1AF
102
{ACAD_REACTORS
330
1AE
102
}
330
1AE
100
AcDbXrecord
280
     1
270
     1
271
     1
  0
XRECORD
  5
1B3
102
{ACAD_REACTORS
330
1AE
102
}
330
1AE
100
AcDbXrecord
280
     1
270
     1
271
     1
  0
XRECORD
  5
1B2
102
{ACAD_REACTORS
330
1AE
102
}
330
1AE
100
AcDbXrecord
280
     1
270
     1
271
     1
  0
XRECORD
  5
1B4
102
{ACAD_REACTORS
330
1AE
102
}
330
1AE
100
AcDbXrecord
280
     1
270
     1
271
     1
  0
XRECORD
  5
1B1
102
{ACAD_REACTORS
330
1AE
102
}
330
1AE
100
AcDbXrecord
280
     1
270
     1
271
     1
  0
XRECORD
  5
1C0
102
{ACAD_REACTORS
330
1BE
102
}
330
1BE
100
AcDbXrecord
280
     1
270
     1
271
     1
  0
XRECORD
  5
1BF
102
{ACAD_REACTORS
330
1BE
102
}
330
1BE
100
AcDbXrecord
280
     1
270
     1
271
     1
  0
XRECORD
  5
1C3
102
{ACAD_REACTORS
330
1BE
102
}
330
1BE
100
AcDbXrecord
280
     1
270
     1
271
     1
  0
XRECORD
  5
1C2
102
{ACAD_REACTORS
330
1BE
102
}
330
1BE
100
AcDbXrecord
280
     1
270
     1
271
     1
  0
XRECORD
  5
1C4
102
{ACAD_REACTORS
330
1BE
102
}
330
1BE
100
AcDbXrecord
280
     1
270
     1
271
     1
  0
XRECORD
  5
1C1
102
{ACAD_REACTORS
330
1BE
102
}
330
1BE
100
AcDbXrecord
280
     1
270
     1
271
     1
  0
CELLSTYLEMAP
  5
2A6
102
{ACAD_REACTORS
330
2A5
102
}
330
2A5
100
AcDbCellStyleMap
 90
        3
300
CELLSTYLE
  1
TABLEFORMAT_BEGIN
 90
        5
170
     1
 91
        0
 92
    32768
 62
   257
 93
        1
300
CONTENTFORMAT
  1
CONTENTFORMAT_BEGIN
 90
        0
 91
        0
 92
      512
 93
        0
300

 40
0.0
140
1.0
 94
        5
 62
     0
340
12
144
6.0
309
CONTENTFORMAT_END
171
     1
301
MARGIN
  1
CELLMARGIN_BEGIN
 40
1.5
 40
1.5
 40
1.5
 40
1.5
 40
4.5
 40
4.5
309
CELLMARGIN_END
 94
        6
 95
        1
302
GRIDFORMAT
  1
GRIDFORMAT_BEGIN
 90
        0
 91
        1
 62
     0
 92
       -2
340
0
 93
        0
 40
1.125
309
GRIDFORMAT_END
 95
        2
302
GRIDFORMAT
  1
GRIDFORMAT_BEGIN
 90
        0
 91
        1
 62
     0
 92
       -2
340
0
 93
        0
 40
1.125
309
GRIDFORMAT_END
 95
        4
302
GRIDFORMAT
  1
GRIDFORMAT_BEGIN
 90
        0
 91
        1
 62
     0
 92
       -2
340
0
 93
        0
 40
1.125
309
GRIDFORMAT_END
 95
        8
302
GRIDFORMAT
  1
GRIDFORMAT_BEGIN
 90
        0
 91
        1
 62
     0
 92
       -2
340
0
 93
        0
 40
1.125
309
GRIDFORMAT_END
 95
       16
302
GRIDFORMAT
  1
GRIDFORMAT_BEGIN
 90
        0
 91
        1
 62
     0
 92
       -2
340
0
 93
        0
 40
1.125
309
GRIDFORMAT_END
 95
       32
302
GRIDFORMAT
  1
GRIDFORMAT_BEGIN
 90
        0
 91
        1
 62
     0
 92
       -2
340
0
 93
        0
 40
1.125
309
GRIDFORMAT_END
309
TABLEFORMAT_END
  1
CELLSTYLE_BEGIN
 90
        1
 91
        1
300
_TITLE
309
CELLSTYLE_END
300
CELLSTYLE
  1
TABLEFORMAT_BEGIN
 90
        5
170
     1
 91
        0
 92
        0
 62
   257
 93
        1
300
CONTENTFORMAT
  1
CONTENTFORMAT_BEGIN
 90
        0
 91
        0
 92
      512
 93
        0
300

 40
0.0
140
1.0
 94
        5
 62
     0
340
12
144
4.5
309
CONTENTFORMAT_END
171
     1
301
MARGIN
  1
CELLMARGIN_BEGIN
 40
1.5
 40
1.5
 40
1.5
 40
1.5
 40
4.5
 40
4.5
309
CELLMARGIN_END
 94
        6
 95
        1
302
GRIDFORMAT
  1
GRIDFORMAT_BEGIN
 90
        0
 91
        1
 62
     0
 92
       -2
340
0
 93
        0
 40
1.125
309
GRIDFORMAT_END
 95
        2
302
GRIDFORMAT
  1
GRIDFORMAT_BEGIN
 90
        0
 91
        1
 62
     0
 92
       -2
340
0
 93
        0
 40
1.125
309
GRIDFORMAT_END
 95
        4
302
GRIDFORMAT
  1
GRIDFORMAT_BEGIN
 90
        0
 91
        1
 62
     0
 92
       -2
340
0
 93
        0
 40
1.125
309
GRIDFORMAT_END
 95
        8
302
GRIDFORMAT
  1
GRIDFORMAT_BEGIN
 90
        0
 91
        1
 62
     0
 92
       -2
340
0
 93
        0
 40
1.125
309
GRIDFORMAT_END
 95
       16
302
GRIDFORMAT
  1
GRIDFORMAT_BEGIN
 90
        0
 91
        1
 62
     0
 92
       -2
340
0
 93
        0
 40
1.125
309
GRIDFORMAT_END
 95
       32
302
GRIDFORMAT
  1
GRIDFORMAT_BEGIN
 90
        0
 91
        1
 62
     0
 92
       -2
340
0
 93
        0
 40
1.125
309
GRIDFORMAT_END
309
TABLEFORMAT_END
  1
CELLSTYLE_BEGIN
 90
        2
 91
        1
300
_HEADER
309
CELLSTYLE_END
300
CELLSTYLE
  1
TABLEFORMAT_BEGIN
 90
        5
170
     1
 91
        0
 92
        0
 62
   257
 93
        1
300
CONTENTFORMAT
  1
CONTENTFORMAT_BEGIN
 90
        0
 91
        0
 92
      512
 93
        0
300

 40
0.0
140
1.0
 94
        2
 62
     0
340
12
144
4.5
309
CONTENTFORMAT_END
171
     1
301
MARGIN
  1
CELLMARGIN_BEGIN
 40
1.5
 40
1.5
 40
1.5
 40
1.5
 40
4.5
 40
4.5
309
CELLMARGIN_END
 94
        6
 95
        1
302
GRIDFORMAT
  1
GRIDFORMAT_BEGIN
 90
        0
 91
        1
 62
     0
 92
       -2
340
0
 93
        0
 40
1.125
309
GRIDFORMAT_END
 95
        2
302
GRIDFORMAT
  1
GRIDFORMAT_BEGIN
 90
        0
 91
        1
 62
     0
 92
       -2
340
0
 93
        0
 40
1.125
309
GRIDFORMAT_END
 95
        4
302
GRIDFORMAT
  1
GRIDFORMAT_BEGIN
 90
        0
 91
        1
 62
     0
 92
       -2
340
0
 93
        0
 40
1.125
309
GRIDFORMAT_END
 95
        8
302
GRIDFORMAT
  1
GRIDFORMAT_BEGIN
 90
        0
 91
        1
 62
     0
 92
       -2
340
0
 93
        0
 40
1.125
309
GRIDFORMAT_END
 95
       16
302
GRIDFORMAT
  1
GRIDFORMAT_BEGIN
 90
        0
 91
        1
 62
     0
 92
       -2
340
0
 93
        0
 40
1.125
309
GRIDFORMAT_END
 95
       32
302
GRIDFORMAT
  1
GRIDFORMAT_BEGIN
 90
        0
 91
        1
 62
     0
 92
       -2
340
0
 93
        0
 40
1.125
309
GRIDFORMAT_END
309
TABLEFORMAT_END
  1
CELLSTYLE_BEGIN
 90
        3
 91
        2
300
_DATA
309
CELLSTYLE_END
  0
ENDSEC
  0
EOF
