  0
SECTION
  2
HEADER
  9
$ACADVER
  1
AC1015
  9
$ACADMAINTVER
 70
    14
  9
$DWGCODEPAGE
  3
ANSI_1252
  9
$INSBASE
 10
0.0
 20
0.0
 30
0.0
  9
$EXTMIN
 10
1147.42991393099
 20
1564.520677473944
 30
-0.0221812020040488
  9
$EXTMAX
 10
2789.01685128439
 20
2976.099492802777
 30
363.4556353087621
  9
$LIMMIN
 10
0.0
 20
0.0
  9
$LIMMAX
 10
420.0
 20
297.0
  9
$ORTHOMODE
 70
     1
  9
$REGENMODE
 70
     1
  9
$FILLMODE
 70
     1
  9
$QTEXTMODE
 70
     0
  9
$MIRRTEXT
 70
     1
  9
$LTSCALE
 40
50.0
  9
$ATTMODE
 70
     1
  9
$TEXTSIZE
 40
70.0
  9
$TRACEWID
 40
1.0
  9
$TEXTSTYLE
  7
KUVASTO
  9
$CLAYER
  8
MAINOS
  9
$CELTYPE
  6
BYLAYER
  9
$CECOLOR
 62
   256
  9
$CELTSCALE
 40
1.0
  9
$DISPSILH
 70
     1
  9
$DIMSCALE
 40
0.0
  9
$DIMASZ
 40
70.0
  9
$DIMEXO
 40
0.625
  9
$DIMDLI
 40
3.75
  9
$DIMRND
 40
0.0
  9
$DIMDLE
 40
0.0
  9
$DIMEXE
 40
1.25
  9
$DIMTP
 40
0.0
  9
$DIMTM
 40
0.0
  9
$DIMTXT
 40
60.0
  9
$DIMCEN
 40
2.5
  9
$DIMTSZ
 40
0.0
  9
$DIMTOL
 70
     0
  9
$DIMLIM
 70
     0
  9
$DIMTIH
 70
     0
  9
$DIMTOH
 70
     1
  9
$DIMSE1
 70
     0
  9
$DIMSE2
 70
     0
  9
$DIMTAD
 70
     1
  9
$DIMZIN
 70
     8
  9
$DIMBLK
  1

  9
$DIMASO
 70
     1
  9
$DIMSHO
 70
     1
  9
$DIMPOST
  1

  9
$DIMAPOST
  1

  9
$DIMALT
 70
     0
  9
$DIMALTD
 70
     4
  9
$DIMALTF
 40
0.0394
  9
$DIMLFAC
 40
1.0
  9
$DIMTOFL
 70
     1
  9
$DIMTVP
 40
0.0
  9
$DIMTIX
 70
     0
  9
$DIMSOXD
 70
     0
  9
$DIMSAH
 70
     1
  9
$DIMBLK1
  1
OPEN
  9
$DIMBLK2
  1
OPEN
  9
$DIMSTYLE
  2
STANDARD
  9
$DIMCLRD
 70
     3
  9
$DIMCLRE
 70
     3
  9
$DIMCLRT
 70
     5
  9
$DIMTFAC
 40
1.0
  9
$DIMGAP
 40
20.0
  9
$DIMJUST
 70
     0
  9
$DIMSD1
 70
     0
  9
$DIMSD2
 70
     0
  9
$DIMTOLJ
 70
     1
  9
$DIMTZIN
 70
     0
  9
$DIMALTZ
 70
     0
  9
$DIMALTTZ
 70
     0
  9
$DIMUPT
 70
     0
  9
$DIMDEC
 70
     4
  9
$DIMTDEC
 70
     4
  9
$DIMALTU
 70
     8
  9
$DIMALTTD
 70
     4
  9
$DIMTXSTY
  7
KUVASTO
  9
$DIMAUNIT
 70
     0
  9
$DIMADEC
 70
     0
  9
$DIMALTRND
 40
0.0
  9
$DIMAZIN
 70
     0
  9
$DIMDSEP
 70
    46
  9
$DIMATFIT
 70
     3
  9
$DIMFRAC
 70
     0
  9
$DIMLDRBLK
  1
OPEN
  9
$DIMLUNIT
 70
     6
  9
$DIMLWD
 70
    -2
  9
$DIMLWE
 70
    -2
  9
$DIMTMOVE
 70
     0
  9
$LUNITS
 70
     2
  9
$LUPREC
 70
     4
  9
$SKETCHINC
 40
1.0
  9
$FILLETRAD
 40
60.0
  9
$AUNITS
 70
     0
  9
$AUPREC
 70
     0
  9
$MENU
  1
.
  9
$ELEVATION
 40
0.0
  9
$PELEVATION
 40
0.0
  9
$THICKNESS
 40
0.0
  9
$LIMCHECK
 70
     0
  9
$CHAMFERA
 40
30.0
  9
$CHAMFERB
 40
30.0
  9
$CHAMFERC
 40
20.0
  9
$CHAMFERD
 40
0.0
  9
$SKPOLY
 70
     0
  9
$TDCREATE
 40
2452044.392230162
  9
$TDUCREATE
 40
2452044.267230162
  9
$TDUPDATE
 40
2453846.454721134
  9
$TDUUPDATE
 40
2453846.329721134
  9
$TDINDWG
 40
0.7303744097
  9
$TDUSRTIMER
 40
0.7303738657
  9
$USRTIMER
 70
     1
  9
$ANGBASE
 50
0.0
  9
$ANGDIR
 70
     0
  9
$PDMODE
 70
     0
  9
$PDSIZE
 40
0.0
  9
$PLINEWID
 40
0.0
  9
$SPLFRAME
 70
     0
  9
$SPLINETYPE
 70
     6
  9
$SPLINESEGS
 70
     8
  9
$HANDSEED
  5
B4
  9
$SURFTAB1
 70
     6
  9
$SURFTAB2
 70
     6
  9
$SURFTYPE
 70
     6
  9
$SURFU
 70
     6
  9
$SURFV
 70
     6
  9
$UCSBASE
  2

  9
$UCSNAME
  2

  9
$UCSORG
 10
0.0
 20
0.0
 30
0.0
  9
$UCSXDIR
 10
1.0
 20
0.0
 30
0.0
  9
$UCSYDIR
 10
0.0
 20
1.0
 30
0.0
  9
$UCSORTHOREF
  2

  9
$UCSORTHOVIEW
 70
     0
  9
$UCSORGTOP
 10
0.0
 20
0.0
 30
0.0
  9
$UCSORGBOTTOM
 10
0.0
 20
0.0
 30
0.0
  9
$UCSORGLEFT
 10
0.0
 20
0.0
 30
0.0
  9
$UCSORGRIGHT
 10
0.0
 20
0.0
 30
0.0
  9
$UCSORGFRONT
 10
0.0
 20
0.0
 30
0.0
  9
$UCSORGBACK
 10
0.0
 20
0.0
 30
0.0
  9
$PUCSBASE
  2

  9
$PUCSNAME
  2

  9
$PUCSORG
 10
0.0
 20
0.0
 30
0.0
  9
$PUCSXDIR
 10
1.0
 20
0.0
 30
0.0
  9
$PUCSYDIR
 10
0.0
 20
1.0
 30
0.0
  9
$PUCSORTHOREF
  2

  9
$PUCSORTHOVIEW
 70
     0
  9
$PUCSORGTOP
 10
0.0
 20
0.0
 30
0.0
  9
$PUCSORGBOTTOM
 10
0.0
 20
0.0
 30
0.0
  9
$PUCSORGLEFT
 10
0.0
 20
0.0
 30
0.0
  9
$PUCSORGRIGHT
 10
0.0
 20
0.0
 30
0.0
  9
$PUCSORGFRONT
 10
0.0
 20
0.0
 30
0.0
  9
$PUCSORGBACK
 10
0.0
 20
0.0
 30
0.0
  9
$USERI1
 70
     0
  9
$USERI2
 70
     0
  9
$USERI3
 70
     0
  9
$USERI4
 70
     0
  9
$USERI5
 70
     0
  9
$USERR1
 40
0.0
  9
$USERR2
 40
0.0
  9
$USERR3
 40
0.0
  9
$USERR4
 40
0.0
  9
$USERR5
 40
0.0
  9
$WORLDVIEW
 70
     1
  9
$SHADEDGE
 70
     3
  9
$SHADEDIF
 70
    70
  9
$TILEMODE
 70
     1
  9
$MAXACTVP
 70
    48
  9
$PINSBASE
 10
0.0
 20
0.0
 30
0.0
  9
$PLIMCHECK
 70
     0
  9
$PEXTMIN
 10
1.000000000000000E+20
 20
1.000000000000000E+20
 30
1.000000000000000E+20
  9
$PEXTMAX
 10
-1.000000000000000E+20
 20
-1.000000000000000E+20
 30
-1.000000000000000E+20
  9
$PLIMMIN
 10
0.0
 20
0.0
  9
$PLIMMAX
 10
420.0
 20
297.0
  9
$UNITMODE
 70
     0
  9
$VISRETAIN
 70
     1
  9
$PLINEGEN
 70
     0
  9
$PSLTSCALE
 70
     1
  9
$TREEDEPTH
 70
  3020
  9
$CMLSTYLE
  2
STANDARD
  9
$CMLJUST
 70
     0
  9
$CMLSCALE
 40
20.0
  9
$PROXYGRAPHICS
 70
     1
  9
$MEASUREMENT
 70
     1
  9
$CELWEIGHT
370
    -1
  9
$ENDCAPS
280
     0
  9
$JOINSTYLE
280
     0
  9
$LWDISPLAY
290
     0
  9
$INSUNITS
 70
     0
  9
$HYPERLINKBASE
  1

  9
$STYLESHEET
  1

  9
$XEDIT
290
     1
  9
$CEPSNTYPE
380
     0
  9
$PSTYLEMODE
290
     1
  9
$FINGERPRINTGUID
  2
{DFB77EDF-71BF-4C3F-AE2E-ECE0062F40CF}
  9
$VERSIONGUID
  2
{320B2CA8-EE91-4BE6-8507-3938BCE7E695}
  9
$EXTNAMES
290
     1
  9
$PSVPSCALE
 40
0.0
  9
$OLESTARTUP
290
     0
  0
ENDSEC
  0
SECTION
  2
CLASSES
  0
CLASS
  1
LWPOLYLINE
  2
AcDbPolyline
  3
AutoCAD 2000
 90
    32768
280
     0
281
     1
  0
CLASS
  1
DICTIONARYVAR
  2
AcDbDictionaryVar
  3
AutoCAD 2000
 90
        0
280
     0
281
     0
  0
CLASS
  1
HATCH
  2
AcDbHatch
  3
AutoCAD 2000
 90
    32768
280
     0
281
     1
  0
CLASS
  1
ACDBDICTIONARYWDFLT
  2
AcDbDictionaryWithDefault
  3
AutoCAD 2000
 90
        0
280
     0
281
     0
  0
CLASS
  1
ACDBPLACEHOLDER
  2
AcDbPlaceHolder
  3
AutoCAD 2000
 90
        0
280
     0
281
     0
  0
CLASS
  1
LAYOUT
  2
AcDbLayout
  3
AutoCAD 2000
 90
        0
280
     0
281
     0
  0
ENDSEC
  0
SECTION
  2
TABLES
  0
TABLE
  2
VPORT
  5
1A
330
0
100
AcDbSymbolTable
 70
     3
  0
VPORT
  5
B3
330
1A
100
AcDbSymbolTableRecord
100
AcDbViewportTableRecord
  2
*Active
 70
     0
 10
0.0
 20
0.0
 11
1.0
 21
1.0
 12
1968.22338260769
 22
2270.310085138361
 13
0.0
 23
0.0
 14
10.0
 24
10.0
 15
10.0
 25
10.0
 16
0.0
 26
-0.0000000000000001
 36
0.9999999999999998
 17
0.0
 27
0.0
 37
0.0
 40
1424.200980592578
 41
2.076119402985074
 42
50.0
 43
0.0
 44
0.0
 50
0.0
 51
0.0
 71
     0
 72
 20000
 73
     1
 74
     1
 75
     0
 76
     0
 77
     0
 78
     0
281
     0
 65
     1
110
0.0
120
0.0
130
0.0
111
1.0
121
0.0
131
0.0
112
0.0
122
1.0
132
0.0
 79
     0
146
0.0
  0
ENDTAB
  0
TABLE
  2
LTYPE
  5
15
330
0
100
AcDbSymbolTable
 70
     2
  0
LTYPE
  5
16
330
15
100
AcDbSymbolTableRecord
100
AcDbLinetypeTableRecord
  2
BYBLOCK
 70
     0
  3

 72
    65
 73
     0
 40
0.0
  0
LTYPE
  5
17
330
15
100
AcDbSymbolTableRecord
100
AcDbLinetypeTableRecord
  2
BYLAYER
 70
     0
  3

 72
    65
 73
     0
 40
0.0
  0
LTYPE
  5
8
330
15
100
AcDbSymbolTableRecord
100
AcDbLinetypeTableRecord
  2
CONTINUOUS
 70
     0
  3
Solid line
 72
    65
 73
     0
 40
0.0
  0
LTYPE
  5
51
330
15
100
AcDbSymbolTableRecord
100
AcDbLinetypeTableRecord
  2
DASHDOT
 70
     0
  3
Dash dot __ . __ . __ . __ . __ . __ . __ . __
 72
    65
 73
     4
 40
1.0
 49
0.5
 74
     0
 49
-0.25
 74
     0
 49
0.0
 74
     0
 49
-0.25
 74
     0
  0
ENDTAB
  0
TABLE
  2
LAYER
  5
10
330
0
100
AcDbSymbolTable
 70
     3
  0
LAYER
  5
4
330
10
100
AcDbSymbolTableRecord
100
AcDbLayerTableRecord
  2
0
 70
     0
 62
     7
  6
CONTINUOUS
370
    -3
390
5
  0
LAYER
  5
2A
330
10
100
AcDbSymbolTableRecord
100
AcDbLayerTableRecord
  2
MAINOS
 70
     0
 62
     7
  6
CONTINUOUS
370
    -3
390
5
  0
LAYER
  5
2D
330
10
100
AcDbSymbolTableRecord
100
AcDbLayerTableRecord
  2
DEFPOINTS
 70
     0
 62
     7
  6
CONTINUOUS
290
     0
370
    -3
390
5
  0
ENDTAB
  0
TABLE
  2
STYLE
  5
11
330
0
100
AcDbSymbolTable
 70
     2
  0
STYLE
  5
12
330
11
100
AcDbSymbolTableRecord
100
AcDbTextStyleTableRecord
  2
STANDARD
 70
     0
 40
0.0
 41
1.0
 50
0.0
 71
     0
 42
2.5
  3

  4

1001
ACAD
1000
AGaramond
1071
 33554450
  0
STYLE
  5
1F
330
11
100
AcDbSymbolTableRecord
100
AcDbTextStyleTableRecord
  2
KUVASTO
 70
     0
 40
70.0
 41
1.0
 50
0.0
 71
     0
 42
70.0
  3
Foustbk_.ttf
  4

1001
ACAD
1000
FoundrySterling-Book
1071
        2
  0
ENDTAB
  0
TABLE
  2
VIEW
  5
18
330
0
100
AcDbSymbolTable
 70
     0
  0
ENDTAB
  0
TABLE
  2
UCS
  5
19
330
0
100
AcDbSymbolTable
 70
     0
  0
ENDTAB
  0
TABLE
  2
APPID
  5
1C
330
0
100
AcDbSymbolTable
 70
     1
  0
APPID
  5
13
330
1C
100
AcDbSymbolTableRecord
100
AcDbRegAppTableRecord
  2
ACAD
 70
     0
  0
ENDTAB
  0
TABLE
  2
DIMSTYLE
  5
1D
330
0
100
AcDbSymbolTable
 70
     1
100
AcDbDimStyleTable
 71
     1
340
1E
  0
DIMSTYLE
105
1E
102
{ACAD_REACTORS
330
8F
330
5F
330
43
330
2F
102
}
330
1D
100
AcDbSymbolTableRecord
100
AcDbDimStyleTableRecord
  2
STANDARD
 70
     0
 40
0.0
 41
70.0
 42
0.625
 43
3.75
 44
1.25
 73
     0
 77
     1
 78
     8
140
60.0
141
2.5
143
0.0394
147
20.0
171
     4
172
     1
173
     1
176
     3
177
     3
178
     5
273
     8
274
     4
277
     6
340
1F
341
20
343
20
344
20
  0
ENDTAB
  0
TABLE
  2
BLOCK_RECORD
  5
1
330
0
100
AcDbSymbolTable
 70
     5
  0
BLOCK_RECORD
  5
2
330
1
100
AcDbSymbolTableRecord
100
AcDbBlockTableRecord
  2
*MODEL_SPACE
340
A
  0
BLOCK_RECORD
  5
C
330
1
100
AcDbSymbolTableRecord
100
AcDbBlockTableRecord
  2
*PAPER_SPACE
340
F
  0
BLOCK_RECORD
  5
20
330
1
100
AcDbSymbolTableRecord
100
AcDbBlockTableRecord
  2
_OPEN
340
0
102
{BLKREFS
331
83
331
7B
331
76
331
94
331
95
331
73
331
64
331
65
331
48
331
49
331
34
331
35
102
}
  0
BLOCK_RECORD
  5
90
330
1
100
AcDbSymbolTableRecord
100
AcDbBlockTableRecord
  2
*D1
340
0
  0
BLOCK_RECORD
  5
60
330
1
100
AcDbSymbolTableRecord
100
AcDbBlockTableRecord
  2
*D2
340
0
  0
BLOCK_RECORD
  5
44
330
1
100
AcDbSymbolTableRecord
100
AcDbBlockTableRecord
  2
*D3
340
0
  0
BLOCK_RECORD
  5
30
330
1
100
AcDbSymbolTableRecord
100
AcDbBlockTableRecord
  2
*D4
340
0
  0
ENDTAB
  0
ENDSEC
  0
SECTION
  2
BLOCKS
  0
BLOCK
  5
3
330
2
100
AcDbEntity
  8
0
100
AcDbBlockBegin
  2
*MODEL_SPACE
 70
     0
 10
0.0
 20
0.0
 30
0.0
  3
*MODEL_SPACE
  1

  0
ENDBLK
  5
9
330
2
100
AcDbEntity
  8
0
100
AcDbBlockEnd
  0
BLOCK
  5
D
330
C
100
AcDbEntity
 67
     1
  8
0
100
AcDbBlockBegin
  2
*PAPER_SPACE
 70
     0
 10
0.0
 20
0.0
 30
0.0
  3
*PAPER_SPACE
  1

  0
ENDBLK
  5
E
330
C
100
AcDbEntity
 67
     1
  8
0
100
AcDbBlockEnd
  0
BLOCK
  5
24
330
20
100
AcDbEntity
  8
0
100
AcDbBlockBegin
  2
_OPEN
 70
     0
 10
0.0
 20
0.0
 30
0.0
  3
_OPEN
  1

  0
LINE
  5
21
330
20
100
AcDbEntity
  8
0
  6
ByBlock
 62
     0
100
AcDbLine
 10
-1.0
 20
0.1666666666666666
 30
0.0
 11
0.0
 21
0.0
 31
0.0
  0
LINE
  5
22
330
20
100
AcDbEntity
  8
0
  6
ByBlock
 62
     0
100
AcDbLine
 10
0.0
 20
0.0
 30
0.0
 11
-1.0
 21
-0.1666666666666666
 31
0.0
  0
LINE
  5
23
330
20
100
AcDbEntity
  8
0
  6
ByBlock
 62
     0
100
AcDbLine
 10
0.0
 20
0.0
 30
0.0
 11
-1.0
 21
0.0
 31
0.0
  0
ENDBLK
  5
25
330
20
100
AcDbEntity
  8
0
100
AcDbBlockEnd
  0
BLOCK
  5
9A
330
90
100
AcDbEntity
  8
0
100
AcDbBlockBegin
  2
*D1
 70
     1
 10
0.0
 20
0.0
 30
0.0
  3
*D1
  1

  0
LINE
  5
91
330
90
100
AcDbEntity
  8
MAINOS
 62
     3
370
    -2
100
AcDbLine
 10
2001.892885622781
 20
2726.930802529459
 30
0.0
 11
1984.310357587644
 21
2709.348274494323
 31
0.0
  0
LINE
  5
92
330
90
100
AcDbEntity
  8
MAINOS
 62
     3
370
    -2
100
AcDbLine
 10
2567.578310572019
 20
2161.245377580221
 30
0.0
 11
2549.995782536882
 21
2143.662849545085
 31
0.0
  0
LINE
  5
93
330
90
100
AcDbEntity
  8
MAINOS
 62
     3
370
    -2
100
AcDbLine
 10
2034.691715747186
 20
2660.734683287748
 30
0.0
 11
2501.382191330307
 21
2194.044207704627
 31
0.0
  0
INSERT
  5
94
330
90
100
AcDbEntity
  8
MAINOS
 62
     3
370
    -2
100
AcDbBlockReference
  2
_OPEN
 10
1985.194241064128
 20
2710.232157970807
 30
0.0
 41
70.0
 42
70.0
 43
70.0
 50
135.0
  0
INSERT
  5
95
330
90
100
AcDbEntity
  8
MAINOS
 62
     3
370
    -2
100
AcDbBlockReference
  2
_OPEN
 10
2550.879666013366
 20
2144.546733021568
 30
0.0
 41
70.0
 42
70.0
 43
70.0
 50
315.0
  0
MTEXT
  5
96
330
90
100
AcDbEntity
  8
MAINOS
 62
     5
100
AcDbMText
 10
2307.855440347392
 20
2467.207932304833
 30
0.0
 40
70.0
 41
0.0
 71
     5
 72
     1
  1
\A1;800
  7
KUVASTO
 11
0.7071067811865476
 21
-0.7071067811865475
 31
0.0
 73
     1
 44
1.0
  0
POINT
  5
97
330
90
100
AcDbEntity
  8
DEFPOINTS
 62
     0
100
AcDbPoint
 10
2002.334827361022
 20
2727.372744267701
 30
0.0
  0
POINT
  5
98
330
90
100
AcDbEntity
  8
DEFPOINTS
 62
     0
100
AcDbPoint
 10
2568.02025231026
 20
2161.687319318463
 30
0.0
  0
POINT
  5
99
330
90
100
AcDbEntity
  8
DEFPOINTS
 62
     0
100
AcDbPoint
 10
2550.879666013366
 20
2144.546733021568
 30
0.0
  0
ENDBLK
  5
9B
330
90
100
AcDbEntity
  8
0
100
AcDbBlockEnd
  0
BLOCK
  5
6A
330
60
100
AcDbEntity
  8
0
100
AcDbBlockBegin
  2
*D2
 70
     1
 10
0.0
 20
0.0
 30
0.0
  3
*D2
  1

  0
LINE
  5
61
330
60
100
AcDbEntity
  8
MAINOS
 62
     3
370
    -2
100
AcDbLine
 10
2320.451166273675
 20
1662.159580684494
 30
0.0
 11
2336.989902720514
 21
1645.620844242294
 31
0.0
  0
LINE
  5
62
330
60
100
AcDbEntity
  8
MAINOS
 62
     3
370
    -2
100
AcDbLine
 10
2584.452077161547
 20
1926.160491646436
 30
0.0
 11
2600.990813608387
 21
1909.621755204236
 31
0.0
  0
LINE
  5
63
330
60
100
AcDbEntity
  8
MAINOS
 62
     3
370
    -2
100
AcDbLine
 10
2385.603493920021
 20
1696.002202408655
 30
0.0
 11
2550.609455455665
 21
1861.008163990593
 31
0.0
  0
INSERT
  5
64
330
60
100
AcDbEntity
  8
MAINOS
 62
     3
370
    -2
100
AcDbBlockReference
  2
_OPEN
 10
2336.106019243907
 20
1646.504727718654
 30
0.0
 41
70.0
 42
70.0
 43
70.0
 50
225.0000000080376
  0
INSERT
  5
65
330
60
100
AcDbEntity
  8
MAINOS
 62
     3
370
    -2
100
AcDbBlockReference
  2
_OPEN
 10
2600.106930131779
 20
1910.505638680596
 30
0.0
 41
70.0
 42
70.0
 43
70.0
 50
45.00000000803765
  0
MTEXT
  5
66
330
60
100
AcDbEntity
  8
MAINOS
 62
     5
100
AcDbMText
 10
2428.287987873612
 20
1818.323670002684
 30
0.0
 40
70.0
 41
0.0
 71
     5
 72
     1
  1
\A1;373
  7
KUVASTO
 11
0.7071067810873522
 21
0.7071067812857429
 31
0.0
 73
     1
 44
1.0
  0
POINT
  5
67
330
60
100
AcDbEntity
  8
DEFPOINTS
 62
     0
100
AcDbPoint
 10
2320.009224535371
 20
1662.601522422673
 30
0.0
  0
POINT
  5
68
330
60
100
AcDbEntity
  8
DEFPOINTS
 62
     0
100
AcDbPoint
 10
2584.010135423243
 20
1926.602433384615
 30
0.0
  0
POINT
  5
69
330
60
100
AcDbEntity
  8
DEFPOINTS
 62
     0
100
AcDbPoint
 10
2600.106930131779
 20
1910.505638680596
 30
0.0
  0
ENDBLK
  5
6B
330
60
100
AcDbEntity
  8
0
100
AcDbBlockEnd
  0
BLOCK
  5
4E
330
44
100
AcDbEntity
  8
0
100
AcDbBlockBegin
  2
*D3
 70
     1
 10
0.0
 20
0.0
 30
0.0
  3
*D3
  1

  0
LINE
  5
45
330
44
100
AcDbEntity
  8
MAINOS
 62
     3
370
    -2
100
AcDbLine
 10
1347.699633705696
 20
1632.980661037013
 30
0.0
 11
1347.699633705696
 21
1574.974208530642
 31
0.0
  0
LINE
  5
46
330
44
100
AcDbEntity
  8
MAINOS
 62
     3
370
    -2
100
AcDbLine
 10
2441.791262979758
 20
1632.980661184868
 30
0.0
 11
2441.791262979758
 21
1574.974208530642
 31
0.0
  0
LINE
  5
47
330
44
100
AcDbEntity
  8
MAINOS
 62
     3
370
    -2
100
AcDbLine
 10
1417.699633705696
 20
1576.224208530642
 30
0.0
 11
2371.791262979758
 21
1576.224208530642
 31
0.0
  0
INSERT
  5
48
330
44
100
AcDbEntity
  8
MAINOS
 62
     3
370
    -2
100
AcDbBlockReference
  2
_OPEN
 10
1347.699633705696
 20
1576.224208530642
 30
0.0
 41
70.0
 42
70.0
 43
70.0
 50
180.0
  0
INSERT
  5
49
330
44
100
AcDbEntity
  8
MAINOS
 62
     3
370
    -2
100
AcDbBlockReference
  2
_OPEN
 10
2441.791262979758
 20
1576.224208530642
 30
0.0
 41
70.0
 42
70.0
 43
70.0
  0
MTEXT
  5
4A
330
44
100
AcDbEntity
  8
MAINOS
 62
     5
100
AcDbMText
 10
1894.745448342727
 20
1632.536052608603
 30
0.0
 40
70.0
 41
0.0
 71
     5
 72
     1
  1
\A1;1095
  7
KUVASTO
 73
     1
 44
1.0
  0
POINT
  5
4B
330
44
100
AcDbEntity
  8
DEFPOINTS
 62
     0
100
AcDbPoint
 10
1347.699633705696
 20
1633.605661037013
 30
0.0
  0
POINT
  5
4C
330
44
100
AcDbEntity
  8
DEFPOINTS
 62
     0
100
AcDbPoint
 10
2441.791262979758
 20
1633.605661184868
 30
0.0
  0
POINT
  5
4D
330
44
100
AcDbEntity
  8
DEFPOINTS
 62
     0
100
AcDbPoint
 10
2441.791262979758
 20
1576.224208530642
 30
0.0
  0
ENDBLK
  5
4F
330
44
100
AcDbEntity
  8
0
100
AcDbBlockEnd
  0
BLOCK
  5
3A
330
30
100
AcDbEntity
  8
0
100
AcDbBlockBegin
  2
*D4
 70
     1
 10
0.0
 20
0.0
 30
0.0
  3
*D4
  1

  0
LINE
  5
31
330
30
100
AcDbEntity
  8
MAINOS
 62
     3
370
    -2
100
AcDbLine
 10
1296.32185037129
 20
1797.241027544749
 30
0.0
 11
1264.133501333162
 21
1797.241027544749
 31
0.0
  0
LINE
  5
32
330
30
100
AcDbEntity
  8
MAINOS
 62
     3
370
    -2
100
AcDbLine
 10
1296.32185037129
 20
2599.185632471018
 30
0.0
 11
1264.133501333162
 21
2599.185632471018
 31
0.0
  0
LINE
  5
33
330
30
100
AcDbEntity
  8
MAINOS
 62
     3
370
    -2
100
AcDbLine
 10
1265.383501333162
 20
1867.241027544749
 30
0.0
 11
1265.383501333162
 21
2529.185632471019
 31
0.0
  0
INSERT
  5
34
330
30
100
AcDbEntity
  8
MAINOS
 62
     3
370
    -2
100
AcDbBlockReference
  2
_OPEN
 10
1265.383501333162
 20
1797.241027544749
 30
0.0
 41
70.0
 42
70.0
 43
70.0
 50
270.0
  0
INSERT
  5
35
330
30
100
AcDbEntity
  8
MAINOS
 62
     3
370
    -2
100
AcDbBlockReference
  2
_OPEN
 10
1265.383501333162
 20
2599.185632471018
 30
0.0
 41
70.0
 42
70.0
 43
70.0
 50
90.0
  0
MTEXT
  5
36
330
30
100
AcDbEntity
  8
MAINOS
 62
     5
100
AcDbMText
 10
1209.071657255201
 20
2198.213330007884
 30
0.0
 40
70.0
 41
0.0
 71
     5
 72
     1
  1
\A1;802
  7
KUVASTO
 11
0.0000000000000001
 21
1.0
 31
0.0
 73
     1
 44
1.0
  0
POINT
  5
37
330
30
100
AcDbEntity
  8
DEFPOINTS
 62
     0
100
AcDbPoint
 10
1296.94685037129
 20
1797.241027544749
 30
0.0
  0
POINT
  5
38
330
30
100
AcDbEntity
  8
DEFPOINTS
 62
     0
100
AcDbPoint
 10
1296.94685037129
 20
2599.185632471018
 30
0.0
  0
POINT
  5
39
330
30
100
AcDbEntity
  8
DEFPOINTS
 62
     0
100
AcDbPoint
 10
1265.383501333162
 20
2599.185632471018
 30
0.0
  0
ENDBLK
  5
3B
330
30
100
AcDbEntity
  8
0
100
AcDbBlockEnd
  0
ENDSEC
  0
SECTION
  2
ENTITIES
  0
POINT
  5
2C
330
2
100
AcDbEntity
  8
DEFPOINTS
  6
ByBlock
 62
     0
100
AcDbPoint
 10
1658.897845322944
 20
2554.729875243701
 30
363.4334507219168
  0
MTEXT
  5
2E
330
2
100
AcDbEntity
  8
MAINOS
 62
     5
100
AcDbMText
 10
1890.561447400985
 20
2889.835275896331
 30
0.0
 40
70.0
 41
0.0
 71
     5
 72
     1
  1
45
  7
KUVASTO
 11
0.7071067811865474
 21
-0.7071067811865478
 31
0.0
 73
     1
 44
1.0
  0
DIMENSION
  5
2F
330
2
100
AcDbEntity
  8
MAINOS
100
AcDbDimension
  2
*D4
 10
1265.383501333162
 20
2599.185632471018
 30
0.0
 11
1209.071657255201
 21
2198.213330007884
 31
0.0
  1
802
 71
     5
 42
801.9446049262699
  3
STANDARD
100
AcDbAlignedDimension
 13
1296.94685037129
 23
1797.241027544749
 33
0.0
 14
1296.94685037129
 24
2599.185632471018
 34
0.0
 50
90.0
100
AcDbRotatedDimension
1001
ACAD
1000
DSTYLE
1002
{
1070
    40
1040
1.0
1002
}
  0
MTEXT
  5
3C
330
2
100
AcDbEntity
  8
MAINOS
 62
     5
100
AcDbMText
 10
2691.20776759542
 20
2086.576800406619
 30
0.0
 40
70.0
 41
0.0
 71
     5
 72
     1
  1
45
  7
KUVASTO
 11
0.7071067811865476
 21
0.7071067811865475
 31
0.0
 73
     1
 44
1.0
  0
LWPOLYLINE
  5
3D
330
2
100
AcDbEntity
  8
0
  6
Continuous
 62
     7
100
AcDbPolyline
 90
       12
 70
     0
 43
0.0
 10
2091.257768070281
 20
1877.620915180118
 10
2187.813640476302
 20
1877.620915193663
 10
2336.306064504646
 20
2026.113339263643
 10
2368.125869653571
 20
2057.933144421508
 10
2187.813640425718
 20
2238.245373598802
 10
2072.813640425715
 20
2238.245373582665
 10
1712.813640425714
 20
2238.24537353217
 10
1597.813640425717
 20
2238.245373516045
 10
1417.501411248451
 20
2057.93314428817
 10
1449.321216406303
 20
2026.113339139232
 10
1597.813640476299
 20
1877.620915110906
 10
1694.316883792101
 20
1877.62091512443
  0
LWPOLYLINE
  5
3E
330
2
100
AcDbEntity
  8
MAINOS
100
AcDbPolyline
 90
       31
 70
     0
 43
0.0
 10
1694.316883792101
 20
1877.620915120701
 10
1694.316883792101
 20
1922.620915120702
 10
1675.552311214056
 20
1922.620915120702
 10
1667.763640469979
 20
1922.620915120703
 10
1667.763640469979
 20
1971.729468185739
 10
1673.253896671015
 20
1965.841889225728
 10
1687.763640469975
 20
1964.82726909975
 10
1687.763640469975
 20
1947.120915120705
 10
1702.763640469975
 20
1947.120915120704
 10
1704.763640469975
 20
1949.120915120705
 10
1704.763640469975
 20
1975.120915120704
 10
1706.763640469975
 20
1977.120915120704
 10
1710.763640469977
 20
1977.120915120704
 10
1712.763640469977
 20
1979.120915120705
 10
1712.763640469978
 20
2149.120915120704
 10
1892.263640469978
 20
2149.120915120704
 10
1896.263640469978
 20
2149.120915120704
 10
2072.263640469978
 20
2149.120915120704
 10
2072.763640469979
 20
2149.120915120704
 10
2072.763640469979
 20
1979.120915120703
 10
2074.763640469979
 20
1977.120915120703
 10
2078.76364046998
 20
1977.120915120703
 10
2080.763640469979
 20
1975.120915120703
 10
2080.763640469979
 20
1949.120915120703
 10
2082.763640469979
 20
1947.120915120703
 10
2097.763640469979
 20
1947.120915120703
 10
2097.763640469979
 20
1964.827269099749
 10
2112.273384268939
 20
1965.841889225727
 10
2117.763640469979
 20
1971.729468185742
 10
2117.763640469979
 20
1922.620915120702
 10
2091.257768070281
 20
1922.620915120701
  0
LWPOLYLINE
  5
3F
330
2
100
AcDbEntity
  8
0
  6
Continuous
 62
     7
100
AcDbPolyline
 90
        4
 70
     0
 43
0.0
 10
2426.652945744305
 20
2083.959623056849
 10
1924.607131031432
 20
2586.005437628878
 42
0.4142135623730951
 10
1860.967520724642
 20
2586.005437619948
 10
1358.921706152616
 20
2083.959622907077
  0
LWPOLYLINE
  5
40
330
2
100
AcDbEntity
  8
0
  6
Continuous
 62
     7
100
AcDbPolyline
 90
       17
 70
     0
 43
0.0
 10
2426.652945744057
 20
2083.959623056851
 42
-0.4142135623730951
 10
2426.652945752987
 20
2020.32001275006
 10
2211.711743635474
 20
1805.37881057225
 42
-0.156850565506834
 10
2185.369719328658
 20
1797.241027629365
 10
2132.963548060161
 20
1797.241027622014
 10
2132.963548053823
 20
1842.421575601505
 10
2185.114898364041
 20
1842.421575608822
 10
2394.833140595373
 20
2052.139817898991
 10
1892.787325882502
 20
2554.185632471018
 10
1390.741511310464
 20
2052.139817758136
 10
1600.396886282016
 20
1842.484442845423
 10
1652.611103969835
 20
1842.484442920103
 10
1652.611103976182
 20
1797.241027544749
 10
1599.857574591681
 20
1797.241027544749
 42
-0.1549597719915072
 10
1573.862908350537
 20
1805.378810487803
 10
1358.921706172136
 20
2020.320012605905
 42
-0.4142135623730951
 10
1358.921706163206
 20
2083.959622912694
  0
LWPOLYLINE
  5
41
330
2
100
AcDbEntity
  8
0
  6
Continuous
 62
     7
100
AcDbPolyline
 90
        5
 70
     1
 43
0.0
 10
1616.426936239935
 20
2193.245373487084
 10
1622.737325933137
 20
2193.245373487969
 10
1622.737325971096
 20
1922.620915082823
 10
1616.426936277875
 20
1922.620915081931
 10
1481.114707056345
 20
2057.933144265536
  0
LWPOLYLINE
  5
42
330
2
100
AcDbEntity
  8
0
  6
Continuous
 62
     7
100
AcDbPolyline
 90
        5
 70
     1
 43
0.0
 10
2162.737325971163
 20
1922.620915158618
 10
2162.737325933203
 20
2193.245373563712
 10
2169.147715626354
 20
2193.245373564618
 10
2304.459944847897
 20
2057.933144381013
 10
2169.147715664319
 20
1922.620915159473
  0
DIMENSION
  5
43
330
2
100
AcDbEntity
  8
MAINOS
100
AcDbDimension
  2
*D3
 10
2441.791262979758
 20
1576.224208530642
 30
0.0
 11
1894.745448342727
 21
1632.536052608603
 31
0.0
  1
1095
 71
     5
 42
1094.091629274061
  3
STANDARD
100
AcDbAlignedDimension
 13
1347.699633705696
 23
1633.605661037013
 33
0.0
 14
2441.791262979758
 24
1633.605661184868
 34
0.0
100
AcDbRotatedDimension
1001
ACAD
1000
DSTYLE
1002
{
1070
    40
1040
1.0
1002
}
  0
LWPOLYLINE
  5
52
330
2
100
AcDbEntity
  8
0
  6
Continuous
 62
     7
370
    15
100
AcDbPolyline
 90
       19
 70
     0
 43
0.0
 10
1675.056590701387
 20
1922.620915120706
 42
-0.7145234262566916
 10
1674.97745027291
 20
1928.008393832922
 10
1701.018739322816
 20
1935.475613307194
 42
0.3345953195021264
 10
1706.81364047628
 20
1943.165706874701
 10
1706.81364047628
 20
1960.087516302558
 10
1710.53152983315
 20
1959.762243131589
 42
-0.3888787318528868
 10
1712.81364047628
 20
1957.27175638636
 10
1712.81364047628
 20
1852.087516302558
 10
1714.877531704201
 20
1813.985407302558
 10
1718.741147241606
 20
1813.985407606682
 10
2070.749749443852
 20
1813.985407606682
 10
2072.813640568715
 20
1852.087516606682
 10
2072.813640568715
 20
1957.271756690483
 42
-0.3888787318528563
 10
2075.095751211847
 20
1959.762243435712
 10
2078.813640568717
 20
1960.087516606682
 10
2078.813640568717
 20
1943.165707178825
 42
0.3345953195021264
 10
2084.608541722181
 20
1935.475613611318
 10
2110.649830772087
 20
1928.008394137046
 42
-0.7145234262566916
 10
2110.570690343611
 20
1922.62091542483
  0
LWPOLYLINE
  5
53
330
2
100
AcDbEntity
  8
0
  6
Continuous
 62
     7
370
    15
100
AcDbPolyline
 90
       35
 70
     0
 43
0.0
 10
1657.403851106391
 20
1877.620915120701
 10
1664.822440610643
 20
1792.826049074298
 42
0.3888787318516714
 10
1667.811024704917
 20
1790.087516302555
 10
1689.387325931191
 20
1790.087516302555
 10
1710.63267908328
 20
1790.087516302555
 10
1716.501564687683
 20
1790.087516302555
 10
2069.073087174698
 20
1790.087516302555
 10
2074.941972779101
 20
1790.087516302555
 10
2091.887325931186
 20
1790.087516302555
 10
2091.887325931186
 20
1788.087516302555
 10
2081.431533609347
 20
1788.087516302555
 42
0.3964328273651259
 10
2079.435264012503
 20
1786.209613381625
 10
2077.586172904141
 20
1755.977240997765
 42
-0.401159381248533
 10
2076.064503832272
 20
1754.569013362987
 10
1985.228034120846
 20
1754.568813807068
 42
0.3394542588634026
 10
1983.296182468268
 20
1753.086451897273
 10
1983.017983545849
 20
1752.048199384193
 10
1980.86098183646
 20
1743.998159412745
 10
1980.860989324395
 20
1743.998131467401
 10
1980.97573943824
 20
1743.569878212351
 42
0.3394542588634027
 10
1982.907591090819
 20
1742.087516302556
 10
2103.582012187685
 20
1742.087516302556
 42
0.3394542588637701
 10
2107.445715492839
 20
1745.052240122145
 10
2107.589039389638
 20
1745.587132186929
 10
2107.675230696399
 20
1745.908802522935
 10
2106.40916186384
 20
1753.089035675416
 10
2106.409336841443
 20
1753.089035675416
 10
2104.555881722583
 20
1783.39275900023
 10
2104.383595528033
 20
1786.209613381625
 42
0.3964328273651259
 10
2102.387325931191
 20
1788.087516302555
 10
2101.791964639528
 20
1788.087516302555
 10
2101.791964639528
 20
1790.087516302555
 10
2117.763627157464
 20
1790.087516302555
 42
0.3888787318529981
 10
2120.752211251739
 20
1792.826049074312
 10
2128.17080075601
 20
1877.620915120701
  0
LWPOLYLINE
  5
54
330
2
100
AcDbEntity
  8
MAINOS
 62
     4
100
AcDbPolyline
 90
        2
 70
     0
 43
0.0
 10
1712.787325977397
 20
1877.620915095446
 10
2072.787325977419
 20
1877.620915145955
  0
ARC
  5
56
330
2
100
AcDbEntity
  8
0
  6
Continuous
 62
     7
100
AcDbCircle
 10
1390.741511329172
 20
2052.139817771866
 30
0.0
 40
44.99999999999995
100
AcDbArc
 50
135.0000000080396
 51
225.0000000080396
  0
LWPOLYLINE
  5
57
330
2
100
AcDbEntity
  8
0
  6
Continuous
 62
     7
100
AcDbPolyline
 90
        3
 70
     0
 43
0.0
 10
1694.316883792101
 20
1922.620915124427
 10
1667.763640469979
 20
1922.620915120703
 10
1667.763640463091
 20
1971.729468193126
  0
LWPOLYLINE
  5
58
330
2
100
AcDbEntity
  8
0
  6
Continuous
 62
     7
100
AcDbPolyline
 90
        2
 70
     0
 43
0.0
 10
1712.81364047628
 20
1877.620915127022
 10
1712.813640469969
 20
1922.620915127022
  0
LINE
  5
59
330
2
100
AcDbEntity
  8
0
  6
Continuous
 62
     7
100
AcDbLine
 10
1663.885915439947
 20
1877.620915088588
 30
0.0
 11
1657.472013271611
 21
1877.620915087689
 31
0.0
  0
LINE
  5
5A
330
2
100
AcDbEntity
  8
0
  6
Continuous
 62
     7
100
AcDbLine
 10
1679.655184965
 20
1877.6209150908
 30
0.0
 11
1673.051066829859
 21
1877.620915089874
 31
0.0
  0
LWPOLYLINE
  5
5B
330
2
100
AcDbEntity
  8
0
  6
Continuous
 62
     7
100
AcDbPolyline
 90
        2
 70
     0
 43
0.0
 10
1667.763640461086
 20
1986.016024902168
 10
1667.76364045187
 20
2051.725805339887
  0
LWPOLYLINE
  5
5C
330
2
100
AcDbEntity
  8
0
  6
Continuous
 62
     7
370
    15
100
AcDbPolyline
 90
        4
 70
     1
 43
0.0
 10
1667.763640469979
 20
2051.72580533862
 10
1687.763640469977
 20
2050.32726909975
 10
1687.763640469975
 20
1987.41456114166
 10
1667.763640469979
 20
1986.01602490279
  0
LWPOLYLINE
  5
5D
330
2
100
AcDbEntity
  8
0
  6
Continuous
 62
     7
100
AcDbPolyline
 90
        2
 70
     0
 43
0.0
 10
1667.763640449094
 20
2071.516024901328
 10
1667.763640439877
 20
2137.225805340724
  0
LWPOLYLINE
  5
5E
330
2
100
AcDbEntity
  8
0
  6
Continuous
 62
     7
370
    15
100
AcDbPolyline
 90
        4
 70
     1
 43
0.0
 10
1687.763640469977
 20
2072.914561141659
 10
1667.763640469979
 20
2071.516024902789
 10
1667.763640469979
 20
2137.225805338619
 10
1687.763640469978
 20
2135.827269099749
  0
DIMENSION
  5
5F
330
2
100
AcDbEntity
  8
MAINOS
100
AcDbDimension
  2
*D2
 10
2600.106930131779
 20
1910.505638680596
 30
0.0
 11
2428.287987873612
 21
1818.323670002684
 31
0.0
 70
     1
  1
373
 71
     5
 42
373.3536687088553
  3
STANDARD
100
AcDbAlignedDimension
 13
2320.009224535371
 23
1662.601522422673
 33
0.0
 14
2584.010135423243
 24
1926.602433384615
 34
0.0
1001
ACAD
1000
DSTYLE
1002
{
1070
    40
1040
1.0
1002
}
  0
LWPOLYLINE
  5
6C
330
2
100
AcDbEntity
  8
0
  6
Continuous
 62
     7
100
AcDbPolyline
 90
        3
 70
     0
 43
0.0
 10
2072.813640568715
 20
1922.62091517753
 10
2072.813640469989
 20
1922.62091517753
 10
2072.813640476302
 20
1877.620915177531
  0
LWPOLYLINE
  5
6D
330
2
100
AcDbEntity
  8
MAINOS
100
AcDbPolyline
 90
        3
 70
     0
 43
0.0
 10
2110.022340648327
 20
1922.620915120702
 10
2091.257768070281
 20
1922.620915120702
 10
2091.257768070281
 20
1877.620915120701
  0
LWPOLYLINE
  5
6E
330
2
100
AcDbEntity
  8
0
  6
Continuous
 62
     7
370
    15
100
AcDbPolyline
 90
        4
 70
     1
 43
0.0
 10
2097.763640469978
 20
2050.327269099749
 10
2117.763640469978
 20
2051.725805338619
 10
2117.763640469978
 20
1986.016024902788
 10
2097.763640469979
 20
1987.414561141658
  0
LWPOLYLINE
  5
6F
330
2
100
AcDbEntity
  8
0
  6
Continuous
 62
     7
370
    15
100
AcDbPolyline
 90
        4
 70
     1
 43
0.0
 10
2097.763640469978
 20
2135.827269099749
 10
2117.763640469979
 20
2137.225805338619
 10
2117.76364046998
 20
2071.516024902788
 10
2097.763640469978
 20
2072.914561141658
  0
LINE
  5
70
330
2
100
AcDbEntity
  8
0
  6
Continuous
 62
     7
100
AcDbLine
 10
2162.873798193179
 20
2087.484442913385
 30
0.0
 11
2162.737325947952
 21
2087.620915158574
 31
0.0
  0
LINE
  5
71
330
2
100
AcDbEntity
  8
MAINOS
 62
     3
100
AcDbLine
 10
2600.106930131779
 20
1910.505638680596
 30
0.0
 11
2631.926735285174
 21
1942.325443833991
 31
0.0
  0
LINE
  5
72
330
2
100
AcDbEntity
  8
MAINOS
 62
     3
100
AcDbLine
 10
2681.424209968232
 20
1991.822918517049
 30
0.0
 11
2730.921684651291
 21
2041.320393200108
 31
0.0
  0
INSERT
  5
73
330
2
100
AcDbEntity
  8
MAINOS
 62
     3
100
AcDbBlockReference
  2
_OPEN
 10
2631.926735285174
 20
1942.32544383399
 30
0.0
 41
70.0
 42
70.0
 43
70.0
 50
225.0
  0
LINE
  5
74
330
2
100
AcDbEntity
  8
MAINOS
 62
     3
100
AcDbLine
 10
2614.786148988279
 20
1959.466030130886
 30
0.0
 11
2632.810618761658
 21
1941.441560357508
 31
0.0
  0
LINE
  5
75
330
2
100
AcDbEntity
  8
MAINOS
 62
     3
100
AcDbLine
 10
2730.921684651291
 20
2041.320393200108
 30
0.0
 11
2788.846618010813
 21
2099.24532655963
 31
0.0
  0
INSERT
  5
76
330
2
100
AcDbEntity
  8
MAINOS
 62
     3
100
AcDbBlockReference
  2
_OPEN
 10
1953.374435912001
 20
2742.051963122932
 30
0.0
 41
-70.0
 42
70.0
 43
70.0
 50
135.0
  0
LWPOLYLINE
  5
77
330
2
100
AcDbEntity
  8
MAINOS
 62
     6
100
AcDbPolyline
 90
        3
 70
     0
 43
0.0
 10
2410.389489641434
 20
2163.86268919831
 10
1892.787325882502
 20
2681.464852957242
 10
1375.18516212357
 20
2163.86268919831
  0
CIRCLE
  5
78
330
2
100
AcDbEntity
  8
MAINOS
 62
     6
100
AcDbCircle
 10
1892.787325878038
 20
2320.840394683922
 30
0.0
 40
75.0
  0
LWPOLYLINE
  5
79
330
2
100
AcDbEntity
  8
0
  6
Continuous
 62
     7
370
    15
100
AcDbPolyline
 90
        4
 70
     1
 43
0.0
 10
1978.263640469979
 20
2192.620915120703
 10
1976.969994449023
 20
2174.120915120704
 10
1914.057286490933
 20
2174.120915120703
 10
1912.763640469978
 20
2192.620915120703
  0
LINE
  5
7A
330
2
100
AcDbEntity
  8
0
  6
ByBlock
 62
     3
100
AcDbLine
 10
1593.844021453782
 20
2520.788749746746
 30
0.0
 11
1544.346546770723
 21
2471.291275063687
 31
0.0
  0
INSERT
  5
7B
330
2
100
AcDbEntity
  8
0
  6
ByBlock
 62
     3
100
AcDbBlockReference
  2
_OPEN
 10
1643.34149613684
 20
2570.286224429804
 30
0.0
 41
70.0
 42
70.0
 43
70.0
 50
45.0
  0
LWPOLYLINE
  5
7C
330
2
100
AcDbEntity
  8
0
  6
Continuous
 62
     7
100
AcDbPolyline
 90
        2
 70
     0
 43
0.0
 10
1667.763640437858
 20
2151.620915088586
 10
1667.763640432107
 20
2192.620915120702
  0
LWPOLYLINE
  5
7D
330
2
100
AcDbEntity
  8
0
  6
Continuous
 62
     7
370
    15
100
AcDbPolyline
 90
        9
 70
     1
 43
0.0
 10
1667.763640469977
 20
2151.620915120705
 10
1667.763640469977
 20
2192.620915120702
 10
1705.763640469978
 20
2192.620915120705
 10
1701.484614575001
 20
2188.630658919665
 10
1700.469994449023
 20
2174.120915120704
 10
1682.763640469978
 20
2174.120915120704
 10
1682.763640469978
 20
2159.120915120705
 10
1684.763640469978
 20
2157.120915120705
 10
1673.263640469978
 20
2157.120915120705
  0
LWPOLYLINE
  5
7E
330
2
100
AcDbEntity
  8
0
  6
Continuous
 62
     7
370
    15
100
AcDbPolyline
 90
        4
 70
     1
 43
0.0
 10
1872.763640469978
 20
2192.620915120704
 10
1871.469994449023
 20
2174.120915120704
 10
1808.557286490933
 20
2174.120915120704
 10
1807.263640469978
 20
2192.620915120704
  0
LWPOLYLINE
  5
7F
330
2
100
AcDbEntity
  8
0
  6
Continuous
 62
     7
370
    15
100
AcDbPolyline
 90
        4
 70
     1
 43
0.0
 10
1787.263640469978
 20
2192.620915120704
 10
1785.969994449023
 20
2174.120915120704
 10
1723.057286490933
 20
2174.120915120704
 10
1721.763640469979
 20
2192.620915120704
  0
LINE
  5
80
330
2
100
AcDbEntity
  8
MAINOS
 62
     3
100
AcDbLine
 10
1892.787325878038
 20
2295.840394683922
 30
0.0
 11
1892.787325878038
 21
2345.840394683922
 31
0.0
  0
LINE
  5
81
330
2
100
AcDbEntity
  8
MAINOS
 62
     3
100
AcDbLine
 10
1867.787325878038
 20
2320.840394683922
 30
0.0
 11
1917.787325878038
 21
2320.840394683922
 31
0.0
  0
MTEXT
  5
82
330
2
100
AcDbEntity
  8
0
  6
ByBlock
 62
     5
100
AcDbMText
 10
1683.451755308384
 20
2693.113671371652
 30
0.0
 40
70.0
 41
0.0
 71
     5
 72
     1
  1
210
  7
KUVASTO
 11
0.7071067811865476
 21
0.7071067811865475
 31
0.0
 73
     1
 44
1.0
  0
INSERT
  5
83
330
2
100
AcDbEntity
  8
0
  6
ByBlock
 62
     3
100
AcDbBlockReference
  2
_OPEN
 10
1791.833920186016
 20
2718.778648478979
 30
0.0
 41
70.0
 42
70.0
 43
70.0
 50
225.0
  0
LINE
  5
84
330
2
100
AcDbEntity
  8
0
  6
ByBlock
 62
     3
100
AcDbLine
 10
1742.336445502957
 20
2669.281173795921
 30
0.0
 11
1692.838970819899
 21
2619.783699112863
 31
0.0
  0
LINE
  5
85
330
2
100
AcDbEntity
  8
0
  6
ByBlock
 62
     3
100
AcDbLine
 10
1791.833920186016
 20
2718.77864847898
 30
0.0
 11
1643.34149613684
 21
2570.286224429803
 31
0.0
  0
LINE
  5
86
330
2
100
AcDbEntity
  8
0
  6
ByBlock
 62
     3
100
AcDbLine
 10
1664.112757834195
 20
2549.514962732448
 30
0.0
 11
1642.457612660357
 21
2571.170107906287
 31
0.0
  0
POINT
  5
87
330
2
100
AcDbEntity
  8
DEFPOINTS
  6
ByBlock
 62
     0
100
AcDbPoint
 10
1643.34149613684
 20
2570.286224429804
 30
0.0
  0
LINE
  5
88
330
2
100
AcDbEntity
  8
0
  6
ByBlock
 62
     3
100
AcDbLine
 10
1812.60518188337
 20
2698.007386781625
 30
0.0
 11
1790.950036709532
 21
2719.662531955462
 31
0.0
  0
LINE
  5
89
330
2
100
AcDbEntity
  8
0
  6
ByBlock
 62
     3
100
AcDbLine
 10
1812.60518188337
 20
2698.007386781625
 30
0.0
 11
1790.950036709532
 21
2719.662531955462
 31
0.0
  0
LINE
  5
8A
330
2
100
AcDbEntity
  8
0
  6
ByBlock
 62
     3
100
AcDbLine
 10
1791.833920186015
 20
2718.778648478979
 30
0.0
 11
1813.047123621612
 21
2739.991851914576
 31
0.0
  0
POINT
  5
8B
330
2
100
AcDbEntity
  8
DEFPOINTS
  6
ByBlock
 62
     0
100
AcDbPoint
 10
1807.390269372119
 20
2745.648706164068
 30
0.0
  0
LINE
  5
8C
330
2
100
AcDbEntity
  8
MAINOS
 62
     3
100
AcDbLine
 10
1854.379486545885
 20
2841.046912489048
 30
0.0
 11
1796.454553186361
 21
2898.971845848572
 31
0.0
  0
LINE
  5
8D
330
2
100
AcDbEntity
  8
MAINOS
 62
     3
100
AcDbLine
 10
1903.876961228943
 20
2791.54943780599
 30
0.0
 11
1854.379486545885
 21
2841.046912489048
 31
0.0
  0
LINE
  5
8E
330
2
100
AcDbEntity
  8
0
  6
ByBlock
 62
     3
100
AcDbLine
 10
1841.331394869074
 20
2768.276123162036
 30
0.0
 11
1890.828869552132
 21
2817.773597845096
 31
0.0
  0
DIMENSION
  5
8F
330
2
100
AcDbEntity
  8
MAINOS
100
AcDbDimension
  2
*D1
 10
2550.879666013366
 20
2144.546733021568
 30
0.0
 11
2307.855440347392
 21
2467.207932304833
 31
0.0
 70
     1
 71
     5
 42
800.0
  3
STANDARD
100
AcDbAlignedDimension
 13
2002.334827361023
 23
2727.372744267701
 33
0.0
 14
2568.02025231026
 24
2161.687319318463
 34
0.0
1001
ACAD
1000
DSTYLE
1002
{
1070
    40
1040
1.0
1002
}
  0
LWPOLYLINE
  5
9C
330
2
100
AcDbEntity
  8
0
  6
Continuous
 62
     7
370
    15
100
AcDbPolyline
 90
        4
 70
     1
 43
0.0
 10
2063.763640469978
 20
2192.620915120703
 10
2062.469994449024
 20
2174.120915120703
 10
1999.557286490933
 20
2174.120915120703
 10
1998.263640469978
 20
2192.620915120704
  0
LWPOLYLINE
  5
9D
330
2
100
AcDbEntity
  8
0
  6
Continuous
 62
     7
370
    15
100
AcDbPolyline
 90
        9
 70
     1
 43
0.0
 10
2112.263640469978
 20
2157.120915120703
 10
2100.763640469978
 20
2157.120915120703
 10
2102.763640469978
 20
2159.120915120704
 10
2102.763640469978
 20
2174.120915120703
 10
2085.057286490933
 20
2174.120915120703
 10
2084.042666364955
 20
2188.630658919664
 10
2079.763640469978
 20
2192.620915120704
 10
2117.763640469978
 20
2192.620915120702
 10
2117.76364046998
 20
2151.620915120702
  0
LINE
  5
9E
330
2
100
AcDbEntity
  8
MAINOS
 62
     3
100
AcDbLine
 10
1985.194241065396
 20
2710.232157969537
 30
0.0
 11
1953.374435912002
 21
2742.051963122932
 31
0.0
  0
LINE
  5
9F
330
2
100
AcDbEntity
  8
MAINOS
 62
     3
100
AcDbLine
 10
1970.515022208897
 20
2759.192549419827
 30
0.0
 11
1952.490552435518
 21
2741.168079646449
 31
0.0
  0
ENDSEC
  0
SECTION
  2
OBJECTS
  0
DICTIONARY
  5
7
330
0
100
AcDbDictionary
281
     1
  3
ACAD_GROUP
350
27
  3
ACAD_LAYOUT
350
B
  3
ACAD_MLINESTYLE
350
28
  3
ACAD_PLOTSETTINGS
350
29
  3
ACAD_PLOTSTYLENAME
350
6
  3
AcDbVariableDictionary
350
A1
  0
DICTIONARY
  5
27
102
{ACAD_REACTORS
330
7
102
}
330
7
100
AcDbDictionary
281
     1
  0
DICTIONARY
  5
B
102
{ACAD_REACTORS
330
7
102
}
330
7
100
AcDbDictionary
281
     1
  3
Layout1
350
F
  3
Model
350
A
  0
DICTIONARY
  5
28
102
{ACAD_REACTORS
330
7
102
}
330
7
100
AcDbDictionary
281
     1
  3
STANDARD
350
2B
  0
DICTIONARY
  5
29
102
{ACAD_REACTORS
330
7
102
}
330
7
100
AcDbDictionary
281
     1
  0
ACDBDICTIONARYWDFLT
  5
6
102
{ACAD_REACTORS
330
7
102
}
330
7
100
AcDbDictionary
281
     1
  3
Normal
350
5
100
AcDbDictionaryWithDefault
340
5
  0
DICTIONARY
  5
A1
102
{ACAD_REACTORS
330
7
102
}
330
7
100
AcDbDictionary
281
     1
  3
DIMASSOC
350
A3
  3
HIDETEXT
350
A2
  0
LAYOUT
  5
F
102
{ACAD_REACTORS
330
B
102
}
330
B
100
AcDbPlotSettings
  1

  2
ASPA2
  4

  6

 40
0.0
 41
0.0
 42
0.0
 43
0.0
 44
0.0
 45
0.0
 46
0.0
 47
0.0
 48
0.0
 49
0.0
140
0.0
141
0.0
142
1.0
143
1.0
 70
   688
 72
     0
 73
     0
 74
     5
  7
acad.ctb
 75
    16
147
1.0
148
0.0
149
0.0
100
AcDbLayout
  1
Layout1
 70
     1
 71
     1
 10
0.0
 20
0.0
 11
420.0
 21
297.0
 12
0.0
 22
0.0
 32
0.0
 14
1.000000000000000E+20
 24
1.000000000000000E+20
 34
1.000000000000000E+20
 15
-1.000000000000000E+20
 25
-1.000000000000000E+20
 35
-1.000000000000000E+20
146
0.0
 13
0.0
 23
0.0
 33
0.0
 16
1.0
 26
0.0
 36
0.0
 17
0.0
 27
1.0
 37
0.0
 76
     0
330
C
  0
LAYOUT
  5
A
102
{ACAD_REACTORS
330
B
102
}
330
B
100
AcDbPlotSettings
  1

  2
Amyuni PDF Converter
  4
A4
  6

 40
6.720416545867919
 41
6.80509614944458
 42
6.889755249023437
 43
6.720428466796875
 44
209.9733276367186
 45
296.9259948730469
 46
3.759999999999998
 47
30.73999999999999
 48
3720.281263814993
 49
1232.478800346044
140
5939.432034169917
141
3120.876358500894
142
1.0
143
10.0
 70
 11956
 72
     1
 73
     1
 74
     4
  7
acad.ctb
 75
    20
147
0.1
148
-3720.281263814993
149
-1232.478800346044
100
AcDbLayout
  1
Model
 70
     1
 71
     0
 10
0.0
 20
0.0
 11
12.0
 21
9.0
 12
0.0
 22
0.0
 32
0.0
 14
0.0
 24
0.0
 34
0.0
 15
0.0
 25
0.0
 35
0.0
146
0.0
 13
0.0
 23
0.0
 33
0.0
 16
1.0
 26
0.0
 36
0.0
 17
0.0
 27
1.0
 37
0.0
 76
     0
330
2
  0
MLINESTYLE
  5
2B
102
{ACAD_REACTORS
330
28
102
}
330
28
100
AcDbMlineStyle
  2
STANDARD
 70
     0
  3

 62
   256
 51
90.0
 52
90.0
 71
     2
 49
0.5
 62
   256
  6
BYLAYER
 49
-0.5
 62
   256
  6
BYLAYER
  0
ACDBPLACEHOLDER
  5
5
102
{ACAD_REACTORS
330
6
102
}
330
6
  0
DICTIONARYVAR
  5
A3
102
{ACAD_REACTORS
330
A1
102
}
330
A1
100
DictionaryVariables
280
     0
  1
1
  0
DICTIONARYVAR
  5
A2
102
{ACAD_REACTORS
330
A1
102
}
330
A1
100
DictionaryVariables
280
     0
  1
1
  0
ENDSEC
  0
EOF
