  0
SECTION
  2
HEADER
  9
$ACADVER
  1
AC1015
  9
$ACADMAINTVER
 70
    14
  9
$DWGCODEPAGE
  3
ANSI_1252
  9
$INSBASE
 10
0.0
 20
0.0
 30
0.0
  9
$EXTMIN
 10
-468.7112537626271
 20
1476.863647537138
 30
-0.0707296501359451
  9
$EXTMAX
 10
2842.845608025461
 20
4656.084718804244
 30
363.4815115255978
  9
$LIMMIN
 10
0.0
 20
0.0
  9
$LIMMAX
 10
420.0
 20
297.0
  9
$ORTHOMODE
 70
     1
  9
$REGENMODE
 70
     1
  9
$FILLMODE
 70
     1
  9
$QTEXTMODE
 70
     0
  9
$MIRRTEXT
 70
     1
  9
$LTSCALE
 40
1.0
  9
$ATTMODE
 70
     1
  9
$TEXTSIZE
 40
80.0
  9
$TRACEWID
 40
1.0
  9
$TEXTSTYLE
  7
KUVASTO
  9
$CLAYER
  8
MAINOS
  9
$CELTYPE
  6
BYLAYER
  9
$CECOLOR
 62
   256
  9
$CELTSCALE
 40
1.0
  9
$DISPSILH
 70
     1
  9
$DIMSCALE
 40
0.0
  9
$DIMASZ
 40
70.0
  9
$DIMEXO
 40
0.625
  9
$DIMDLI
 40
3.75
  9
$DIMRND
 40
0.0
  9
$DIMDLE
 40
0.0
  9
$DIMEXE
 40
1.25
  9
$DIMTP
 40
0.0
  9
$DIMTM
 40
0.0
  9
$DIMTXT
 40
60.0
  9
$DIMCEN
 40
2.5
  9
$DIMTSZ
 40
0.0
  9
$DIMTOL
 70
     0
  9
$DIMLIM
 70
     0
  9
$DIMTIH
 70
     0
  9
$DIMTOH
 70
     1
  9
$DIMSE1
 70
     0
  9
$DIMSE2
 70
     0
  9
$DIMTAD
 70
     1
  9
$DIMZIN
 70
     8
  9
$DIMBLK
  1

  9
$DIMASO
 70
     1
  9
$DIMSHO
 70
     1
  9
$DIMPOST
  1

  9
$DIMAPOST
  1

  9
$DIMALT
 70
     0
  9
$DIMALTD
 70
     4
  9
$DIMALTF
 40
0.0394
  9
$DIMLFAC
 40
1.0
  9
$DIMTOFL
 70
     1
  9
$DIMTVP
 40
0.0
  9
$DIMTIX
 70
     0
  9
$DIMSOXD
 70
     0
  9
$DIMSAH
 70
     1
  9
$DIMBLK1
  1
OPEN
  9
$DIMBLK2
  1
OPEN
  9
$DIMSTYLE
  2
STANDARD
  9
$DIMCLRD
 70
     3
  9
$DIMCLRE
 70
     3
  9
$DIMCLRT
 70
     5
  9
$DIMTFAC
 40
1.0
  9
$DIMGAP
 40
20.0
  9
$DIMJUST
 70
     0
  9
$DIMSD1
 70
     0
  9
$DIMSD2
 70
     0
  9
$DIMTOLJ
 70
     1
  9
$DIMTZIN
 70
     0
  9
$DIMALTZ
 70
     0
  9
$DIMALTTZ
 70
     0
  9
$DIMUPT
 70
     0
  9
$DIMDEC
 70
     4
  9
$DIMTDEC
 70
     4
  9
$DIMALTU
 70
     8
  9
$DIMALTTD
 70
     4
  9
$DIMTXSTY
  7
KUVASTO
  9
$DIMAUNIT
 70
     0
  9
$DIMADEC
 70
     0
  9
$DIMALTRND
 40
0.0
  9
$DIMAZIN
 70
     0
  9
$DIMDSEP
 70
    46
  9
$DIMATFIT
 70
     3
  9
$DIMFRAC
 70
     0
  9
$DIMLDRBLK
  1
OPEN
  9
$DIMLUNIT
 70
     6
  9
$DIMLWD
 70
    -2
  9
$DIMLWE
 70
    -2
  9
$DIMTMOVE
 70
     0
  9
$LUNITS
 70
     2
  9
$LUPREC
 70
     4
  9
$SKETCHINC
 40
1.0
  9
$FILLETRAD
 40
150.0
  9
$AUNITS
 70
     0
  9
$AUPREC
 70
     0
  9
$MENU
  1
.
  9
$ELEVATION
 40
0.0
  9
$PELEVATION
 40
0.0
  9
$THICKNESS
 40
0.0
  9
$LIMCHECK
 70
     0
  9
$CHAMFERA
 40
45.0
  9
$CHAMFERB
 40
45.0
  9
$CHAMFERC
 40
20.0
  9
$CHAMFERD
 40
0.0
  9
$SKPOLY
 70
     0
  9
$TDCREATE
 40
2452044.350563495
  9
$TDUCREATE
 40
2452044.267230162
  9
$TDUPDATE
 40
2454777.607680949
  9
$TDUUPDATE
 40
2454777.524347615
  9
$TDINDWG
 40
0.2836786690
  9
$TDUSRTIMER
 40
0.2836784838
  9
$USRTIMER
 70
     1
  9
$ANGBASE
 50
0.0
  9
$ANGDIR
 70
     0
  9
$PDMODE
 70
     0
  9
$PDSIZE
 40
0.0
  9
$PLINEWID
 40
0.0
  9
$SPLFRAME
 70
     0
  9
$SPLINETYPE
 70
     6
  9
$SPLINESEGS
 70
     8
  9
$HANDSEED
  5
393B
  9
$SURFTAB1
 70
     6
  9
$SURFTAB2
 70
     6
  9
$SURFTYPE
 70
     6
  9
$SURFU
 70
     6
  9
$SURFV
 70
     6
  9
$UCSBASE
  2

  9
$UCSNAME
  2

  9
$UCSORG
 10
0.0
 20
0.0
 30
0.0
  9
$UCSXDIR
 10
1.0
 20
0.0
 30
0.0
  9
$UCSYDIR
 10
0.0
 20
1.0
 30
0.0
  9
$UCSORTHOREF
  2

  9
$UCSORTHOVIEW
 70
     0
  9
$UCSORGTOP
 10
0.0
 20
0.0
 30
0.0
  9
$UCSORGBOTTOM
 10
0.0
 20
0.0
 30
0.0
  9
$UCSORGLEFT
 10
0.0
 20
0.0
 30
0.0
  9
$UCSORGRIGHT
 10
0.0
 20
0.0
 30
0.0
  9
$UCSORGFRONT
 10
0.0
 20
0.0
 30
0.0
  9
$UCSORGBACK
 10
0.0
 20
0.0
 30
0.0
  9
$PUCSBASE
  2

  9
$PUCSNAME
  2

  9
$PUCSORG
 10
0.0
 20
0.0
 30
0.0
  9
$PUCSXDIR
 10
1.0
 20
0.0
 30
0.0
  9
$PUCSYDIR
 10
0.0
 20
1.0
 30
0.0
  9
$PUCSORTHOREF
  2

  9
$PUCSORTHOVIEW
 70
     0
  9
$PUCSORGTOP
 10
0.0
 20
0.0
 30
0.0
  9
$PUCSORGBOTTOM
 10
0.0
 20
0.0
 30
0.0
  9
$PUCSORGLEFT
 10
0.0
 20
0.0
 30
0.0
  9
$PUCSORGRIGHT
 10
0.0
 20
0.0
 30
0.0
  9
$PUCSORGFRONT
 10
0.0
 20
0.0
 30
0.0
  9
$PUCSORGBACK
 10
0.0
 20
0.0
 30
0.0
  9
$USERI1
 70
     0
  9
$USERI2
 70
     0
  9
$USERI3
 70
     0
  9
$USERI4
 70
     0
  9
$USERI5
 70
     0
  9
$USERR1
 40
0.0
  9
$USERR2
 40
0.0
  9
$USERR3
 40
0.0
  9
$USERR4
 40
0.0
  9
$USERR5
 40
0.0
  9
$WORLDVIEW
 70
     1
  9
$SHADEDGE
 70
     3
  9
$SHADEDIF
 70
    70
  9
$TILEMODE
 70
     1
  9
$MAXACTVP
 70
    48
  9
$PINSBASE
 10
0.0
 20
0.0
 30
0.0
  9
$PLIMCHECK
 70
     0
  9
$PEXTMIN
 10
1.000000000000000E+20
 20
1.000000000000000E+20
 30
1.000000000000000E+20
  9
$PEXTMAX
 10
-1.000000000000000E+20
 20
-1.000000000000000E+20
 30
-1.000000000000000E+20
  9
$PLIMMIN
 10
0.0
 20
0.0
  9
$PLIMMAX
 10
420.0
 20
297.0
  9
$UNITMODE
 70
     0
  9
$VISRETAIN
 70
     1
  9
$PLINEGEN
 70
     0
  9
$PSLTSCALE
 70
     1
  9
$TREEDEPTH
 70
  3020
  9
$CMLSTYLE
  2
STANDARD
  9
$CMLJUST
 70
     0
  9
$CMLSCALE
 40
20.0
  9
$PROXYGRAPHICS
 70
     1
  9
$MEASUREMENT
 70
     1
  9
$CELWEIGHT
370
    -1
  9
$ENDCAPS
280
     0
  9
$JOINSTYLE
280
     0
  9
$LWDISPLAY
290
     0
  9
$INSUNITS
 70
     0
  9
$HYPERLINKBASE
  1

  9
$STYLESHEET
  1
MONOCHROME.CTB
  9
$XEDIT
290
     1
  9
$CEPSNTYPE
380
     0
  9
$PSTYLEMODE
290
     1
  9
$FINGERPRINTGUID
  2
{0A328C68-E647-11D6-B917-000103D6C2BD}
  9
$VERSIONGUID
  2
{02798C49-E967-4CA7-B5B6-90F7613B6D8D}
  9
$EXTNAMES
290
     1
  9
$PSVPSCALE
 40
0.0
  9
$OLESTARTUP
290
     0
  0
ENDSEC
  0
SECTION
  2
CLASSES
  0
CLASS
  1
LWPOLYLINE
  2
AcDbPolyline
  3
AutoCAD 2000
 90
    32768
280
     0
281
     1
  0
CLASS
  1
DICTIONARYVAR
  2
AcDbDictionaryVar
  3
AutoCAD 2000
 90
        0
280
     0
281
     0
  0
CLASS
  1
HATCH
  2
AcDbHatch
  3
AutoCAD 2000
 90
    32768
280
     0
281
     1
  0
CLASS
  1
ACDBDICTIONARYWDFLT
  2
AcDbDictionaryWithDefault
  3
AutoCAD 2000
 90
        0
280
     0
281
     0
  0
CLASS
  1
ACDBPLACEHOLDER
  2
AcDbPlaceHolder
  3
AutoCAD 2000
 90
        0
280
     0
281
     0
  0
CLASS
  1
LAYOUT
  2
AcDbLayout
  3
AutoCAD 2000
 90
        0
280
     0
281
     0
  0
ENDSEC
  0
SECTION
  2
TABLES
  0
TABLE
  2
VPORT
  5
8
330
0
100
AcDbSymbolTable
 70
     2
  0
VPORT
  5
393A
330
8
100
AcDbSymbolTableRecord
100
AcDbViewportTableRecord
  2
*Active
 70
     0
 10
0.0
 20
0.0
 11
1.0
 21
1.0
 12
2050.458159096418
 22
2139.269062699557
 13
0.0
 23
0.0
 14
10.0
 24
10.0
 15
10.0
 25
10.0
 16
0.0
 26
0.0
 36
1.0
 17
0.0
 27
0.0
 37
0.0
 40
1724.634005862342
 41
1.844
 42
50.0
 43
0.0
 44
0.0
 50
0.0
 51
0.0
 71
     0
 72
 20000
 73
     1
 74
     1
 75
     0
 76
     0
 77
     0
 78
     0
281
     0
 65
     1
110
0.0
120
0.0
130
0.0
111
1.0
121
0.0
131
0.0
112
0.0
122
1.0
132
0.0
 79
     0
146
0.0
  0
ENDTAB
  0
TABLE
  2
LTYPE
  5
5
330
0
100
AcDbSymbolTable
 70
     6
  0
LTYPE
  5
12
330
5
100
AcDbSymbolTableRecord
100
AcDbLinetypeTableRecord
  2
BYBLOCK
 70
     0
  3

 72
    65
 73
     0
 40
0.0
  0
LTYPE
  5
13
330
5
100
AcDbSymbolTableRecord
100
AcDbLinetypeTableRecord
  2
BYLAYER
 70
     0
  3

 72
    65
 73
     0
 40
0.0
  0
LTYPE
  5
14
330
5
100
AcDbSymbolTableRecord
100
AcDbLinetypeTableRecord
  2
CONTINUOUS
 70
     0
  3
Solid line
 72
    65
 73
     0
 40
0.0
  0
LTYPE
  5
33F9
330
5
100
AcDbSymbolTableRecord
100
AcDbLinetypeTableRecord
  2
HIDDEN
 70
     0
  3
Hidden __ __ __ __ __ __ __ __ __ __ __ __ __ __
 72
    65
 73
     2
 40
1.905
 49
1.27
 74
     0
 49
-0.635
 74
     0
  0
LTYPE
  5
33FA
330
5
100
AcDbSymbolTableRecord
100
AcDbLinetypeTableRecord
  2
PHANTOM
 70
     0
  3
Phantom ______  __  __  ______  __  __  ______
 72
    65
 73
     6
 40
12.69999999999999
 49
6.349999999999998
 74
     0
 49
-1.27
 74
     0
 49
1.27
 74
     0
 49
-1.27
 74
     0
 49
1.27
 74
     0
 49
-1.27
 74
     0
  0
LTYPE
  5
33FB
330
5
100
AcDbSymbolTableRecord
100
AcDbLinetypeTableRecord
  2
CENTER
 70
     0
  3
Center ____ _ ____ _ ____ _ ____ _ ____ _ ____
 72
    65
 73
     4
 40
10.15999999999999
 49
6.349999999999998
 74
     0
 49
-1.27
 74
     0
 49
1.27
 74
     0
 49
-1.27
 74
     0
  0
LTYPE
  5
33FC
330
5
100
AcDbSymbolTableRecord
100
AcDbLinetypeTableRecord
  2
CENTERX2
 70
     0
  3
Center (2x) ________  __  ________  __  _____
 72
    65
 73
     4
 40
20.31999999999999
 49
12.7
 74
     0
 49
-2.54
 74
     0
 49
2.54
 74
     0
 49
-2.54
 74
     0
  0
LTYPE
  5
33FD
330
5
100
AcDbSymbolTableRecord
100
AcDbLinetypeTableRecord
  2
DOT2
 70
     0
  3
Dot (.5x) ........................................
 72
    65
 73
     2
 40
0.635
 49
0.0
 74
     0
 49
-0.635
 74
     0
  0
ENDTAB
  0
TABLE
  2
LAYER
  5
2
330
0
100
AcDbSymbolTable
 70
     7
  0
LAYER
  5
E
330
2
100
AcDbSymbolTableRecord
100
AcDbLayerTableRecord
  2
0
 70
     0
 62
     7
  6
CONTINUOUS
370
    -3
390
32FB
  0
LAYER
  5
158B
330
2
100
AcDbSymbolTableRecord
100
AcDbLayerTableRecord
  2
HORMILIITOS
 70
     0
 62
     6
  6
CONTINUOUS
370
    -3
390
32FB
  0
LAYER
  5
1592
330
2
100
AcDbSymbolTableRecord
100
AcDbLayerTableRecord
  2
MITAT
 70
     0
 62
     5
  6
CONTINUOUS
370
    -3
390
32FB
  0
LAYER
  5
1938
330
2
100
AcDbSymbolTableRecord
100
AcDbLayerTableRecord
  2
LUUKUN-AUKKO
 70
     0
 62
     4
  6
CONTINUOUS
370
    -3
390
32FB
  0
LAYER
  5
1963
330
2
100
AcDbSymbolTableRecord
100
AcDbLayerTableRecord
  2
MAINOS
 70
     0
 62
     7
  6
CONTINUOUS
370
    -3
390
32FB
  0
LAYER
  5
1F3E
330
2
100
AcDbSymbolTableRecord
100
AcDbLayerTableRecord
  2
DEFPOINTS
 70
     0
 62
     7
  6
CONTINUOUS
290
     0
370
    -3
390
32FB
  0
LAYER
  5
33FE
330
2
100
AcDbSymbolTableRecord
100
AcDbLayerTableRecord
  2
FORMAT
 70
     0
 62
     7
  6
CONTINUOUS
370
    -3
390
32FB
  0
ENDTAB
  0
TABLE
  2
STYLE
  5
3
330
0
100
AcDbSymbolTable
 70
     4
  0
STYLE
  5
F
330
3
100
AcDbSymbolTableRecord
100
AcDbTextStyleTableRecord
  2
STANDARD
 70
     0
 40
0.0
 41
1.0
 50
0.0
 71
     0
 42
2.5
  3

  4

1001
ACAD
1000
AGaramond
1071
 33554450
  0
STYLE
  5
15F2
330
3
100
AcDbSymbolTableRecord
100
AcDbTextStyleTableRecord
  2
KUVASTO
 70
     0
 40
70.0
 41
1.0
 50
0.0
 71
     0
 42
80.0
  3
Foustbk_.ttf
  4

1001
ACAD
1000
FoundrySterling-Book
1071
        2
  0
STYLE
  5
33FF
330
3
100
AcDbSymbolTableRecord
100
AcDbTextStyleTableRecord
  2
SLDTEXTSTYLE0
 70
     0
 40
0.0
 41
0.75
 50
0.0
 71
     0
 42
0.2
  3
TXT
  4

  0
STYLE
  5
3400
330
3
100
AcDbSymbolTableRecord
100
AcDbTextStyleTableRecord
  2
SLDTEXTSTYLE1
 70
     0
 40
0.0
 41
0.6875
 50
0.0
 71
     0
 42
0.2
  3
TXT
  4

  0
ENDTAB
  0
TABLE
  2
VIEW
  5
6
330
0
100
AcDbSymbolTable
 70
     0
  0
ENDTAB
  0
TABLE
  2
UCS
  5
7
330
0
100
AcDbSymbolTable
 70
     0
  0
ENDTAB
  0
TABLE
  2
APPID
  5
9
330
0
100
AcDbSymbolTable
 70
     3
  0
APPID
  5
10
330
9
100
AcDbSymbolTableRecord
100
AcDbRegAppTableRecord
  2
ACAD
 70
     0
  0
APPID
  5
1939
330
9
100
AcDbSymbolTableRecord
100
AcDbRegAppTableRecord
  2
AME_SOL
 70
     0
  0
APPID
  5
193A
330
9
100
AcDbSymbolTableRecord
100
AcDbRegAppTableRecord
  2
TULIKIVI
 70
     0
  0
ENDTAB
  0
TABLE
  2
DIMSTYLE
  5
A
330
0
100
AcDbSymbolTable
 70
     2
100
AcDbDimStyleTable
 71
     1
340
1D
  0
DIMSTYLE
105
1D
102
{ACAD_REACTORS
330
3540
330
3556
330
35A0
330
35F1
102
}
330
A
100
AcDbSymbolTableRecord
100
AcDbDimStyleTableRecord
  2
STANDARD
 70
     0
 40
0.0
 41
70.0
 42
0.625
 43
3.75
 44
1.25
 73
     0
 77
     1
 78
     8
140
60.0
141
2.5
143
0.0394
147
20.0
171
     4
172
     1
173
     1
176
     3
177
     3
178
     5
273
     8
274
     4
277
     6
340
15F2
341
15A1
343
15A1
344
15A1
  0
DIMSTYLE
105
3401
330
A
100
AcDbSymbolTableRecord
100
AcDbDimStyleTableRecord
  2
ISO-25
 70
     0
 41
2.5
 42
0.625
 43
3.75
 44
1.25
 73
     0
 74
     0
 77
     1
 78
     8
140
2.5
141
2.5
143
0.03937007874016
147
0.625
171
     3
172
     1
271
     2
272
     2
274
     3
278
    44
283
     0
284
     8
340
F
  0
ENDTAB
  0
TABLE
  2
BLOCK_RECORD
  5
1
330
0
100
AcDbSymbolTable
 70
     8
  0
BLOCK_RECORD
  5
18
330
1
100
AcDbSymbolTableRecord
100
AcDbBlockTableRecord
  2
*MODEL_SPACE
340
32FE
  0
BLOCK_RECORD
  5
15
330
1
100
AcDbSymbolTableRecord
100
AcDbBlockTableRecord
  2
*PAPER_SPACE
340
32FF
  0
BLOCK_RECORD
  5
15A1
330
1
100
AcDbSymbolTableRecord
100
AcDbBlockTableRecord
  2
_OPEN
340
0
102
{BLKREFS
331
33C3
331
33C4
331
33CC
331
33CD
331
33D5
331
33D6
331
33DE
331
33DF
331
3528
331
3529
331
3538
331
3539
331
3583
331
3584
331
358C
331
358D
331
3598
331
35A5
331
35A2
331
3593
331
35CF
331
35D0
331
35DC
331
35DD
331
35E9
331
35EA
331
35F9
331
35F8
331
35F5
331
361A
331
361B
331
3645
331
3646
102
}
  0
BLOCK_RECORD
  5
33EA
330
1
100
AcDbSymbolTableRecord
100
AcDbBlockTableRecord
  2
SW_NOTE_0
340
0
  0
BLOCK_RECORD
  5
33F3
330
1
100
AcDbSymbolTableRecord
100
AcDbBlockTableRecord
  2
SW_NOTE_1
340
0
  0
BLOCK_RECORD
  5
3402
330
1
100
AcDbSymbolTableRecord
100
AcDbBlockTableRecord
  2
FC05-iso erkkeri-kulma
340
0
1001
ACAD
1000
DesignCenter Data
1002
{
1070
     1
1070
     4
1002
}
  0
BLOCK_RECORD
  5
3541
330
1
100
AcDbSymbolTableRecord
100
AcDbBlockTableRecord
  2
*D4
340
0
  0
BLOCK_RECORD
  5
3557
330
1
100
AcDbSymbolTableRecord
100
AcDbBlockTableRecord
  2
*D5
340
0
  0
BLOCK_RECORD
  5
35AB
330
1
100
AcDbSymbolTableRecord
100
AcDbBlockTableRecord
  2
*D6
340
0
  0
BLOCK_RECORD
  5
3602
330
1
100
AcDbSymbolTableRecord
100
AcDbBlockTableRecord
  2
*D7
340
0
  0
ENDTAB
  0
ENDSEC
  0
SECTION
  2
BLOCKS
  0
BLOCK
  5
19
330
18
100
AcDbEntity
  8
0
100
AcDbBlockBegin
  2
*MODEL_SPACE
 70
     0
 10
0.0
 20
0.0
 30
0.0
  3
*MODEL_SPACE
  1

  0
ENDBLK
  5
1A
330
18
100
AcDbEntity
  8
0
100
AcDbBlockEnd
  0
BLOCK
  5
16
330
15
100
AcDbEntity
 67
     1
  8
0
100
AcDbBlockBegin
  2
*PAPER_SPACE
 70
     0
 10
0.0
 20
0.0
 30
0.0
  3
*PAPER_SPACE
  1

  0
ENDBLK
  5
17
330
15
100
AcDbEntity
 67
     1
  8
0
100
AcDbBlockEnd
  0
BLOCK
  5
15A2
330
15A1
100
AcDbEntity
  8
0
100
AcDbBlockBegin
  2
_OPEN
 70
     0
 10
0.0
 20
0.0
 30
0.0
  3
_OPEN
  1

  0
LINE
  5
15A3
330
15A1
100
AcDbEntity
  8
0
  6
ByBlock
 62
     0
100
AcDbLine
 10
-1.0
 20
0.1666666666666666
 30
0.0
 11
0.0
 21
0.0
 31
0.0
  0
LINE
  5
15A4
330
15A1
100
AcDbEntity
  8
0
  6
ByBlock
 62
     0
100
AcDbLine
 10
0.0
 20
0.0
 30
0.0
 11
-1.0
 21
-0.1666666666666666
 31
0.0
  0
LINE
  5
15A5
330
15A1
100
AcDbEntity
  8
0
  6
ByBlock
 62
     0
100
AcDbLine
 10
0.0
 20
0.0
 30
0.0
 11
-1.0
 21
0.0
 31
0.0
  0
ENDBLK
  5
15A6
330
15A1
100
AcDbEntity
  8
0
100
AcDbBlockEnd
  0
BLOCK
  5
33F1
330
33EA
100
AcDbEntity
  8
0
100
AcDbBlockBegin
  2
SW_NOTE_0
 70
     0
 10
0.0
 20
0.0
 30
0.0
  3
SW_NOTE_0
  1

  0
MTEXT
  5
33EB
330
33EA
100
AcDbEntity
  8
0
  6
Continuous
 62
     0
370
     0
100
AcDbMText
 10
0.0
 20
1.933601609657948
 30
0.0
 40
1.5
 41
0.0
 71
     1
 72
     1
  1
UNLESS OTHERWISE SPECIFIED:
  7
SLDTEXTSTYLE0
 73
     1
 44
1.0
  0
MTEXT
  5
33EC
330
33EA
100
AcDbEntity
  8
0
  6
Continuous
 62
     0
370
     0
100
AcDbMText
 10
0.0
 20
-0.5663983344626964
 30
0.0
 40
1.5
 41
0.0
 71
     1
 72
     1
  1
DIMENSIONS ARE IN MILLIMETERS
  7
SLDTEXTSTYLE0
 73
     1
 44
1.0
  0
MTEXT
  5
33ED
330
33EA
100
AcDbEntity
  8
0
  6
Continuous
 62
     0
370
     0
100
AcDbMText
 10
0.0
 20
-3.066398278583341
 30
0.0
 40
1.5
 41
0.0
 71
     1
 72
     1
  1
SURFACE FINISH:
  7
SLDTEXTSTYLE0
 73
     1
 44
1.0
  0
MTEXT
  5
33EE
330
33EA
100
AcDbEntity
  8
0
  6
Continuous
 62
     0
370
     0
100
AcDbMText
 10
0.0
 20
-5.566398222703987
 30
0.0
 40
1.5
 41
0.0
 71
     1
 72
     1
  1
TOLERANCES:
  7
SLDTEXTSTYLE0
 73
     1
 44
1.0
  0
MTEXT
  5
33EF
330
33EA
100
AcDbEntity
  8
0
  6
Continuous
 62
     0
370
     0
100
AcDbMText
 10
0.0
 20
-8.066398166824633
 30
0.0
 40
1.5
 41
0.0
 71
     1
 72
     1
  1
   LINEAR:
  7
SLDTEXTSTYLE0
 73
     1
 44
1.0
  0
MTEXT
  5
33F0
330
33EA
100
AcDbEntity
  8
0
  6
Continuous
 62
     0
370
     0
100
AcDbMText
 10
0.0
 20
-10.56639811094526
 30
0.0
 40
1.5
 41
0.0
 71
     1
 72
     1
  1
   ANGULAR:
  7
SLDTEXTSTYLE0
 73
     1
 44
1.0
  0
ENDBLK
  5
33F2
330
33EA
100
AcDbEntity
  8
0
100
AcDbBlockEnd
  0
BLOCK
  5
33F7
330
33F3
100
AcDbEntity
  8
0
100
AcDbBlockBegin
  2
SW_NOTE_1
 70
     0
 10
0.0
 20
0.0
 30
0.0
  3
SW_NOTE_1
  1

  0
MTEXT
  5
33F4
330
33F3
100
AcDbEntity
  8
0
  6
Continuous
 62
     0
370
     0
100
AcDbMText
 10
0.0
 20
1.933601609657948
 30
0.0
 40
1.5
 41
0.0
 71
     1
 72
     1
  1
DEBUR AND 
  7
SLDTEXTSTYLE0
 73
     1
 44
1.0
  0
MTEXT
  5
33F5
330
33F3
100
AcDbEntity
  8
0
  6
Continuous
 62
     0
370
     0
100
AcDbMText
 10
0.0
 20
-0.5663983344626964
 30
0.0
 40
1.5
 41
0.0
 71
     1
 72
     1
  1
BREAK SHARP 
  7
SLDTEXTSTYLE0
 73
     1
 44
1.0
  0
MTEXT
  5
33F6
330
33F3
100
AcDbEntity
  8
0
  6
Continuous
 62
     0
370
     0
100
AcDbMText
 10
0.0
 20
-3.066398278583341
 30
0.0
 40
1.5
 41
0.0
 71
     1
 72
     1
  1
EDGES
  7
SLDTEXTSTYLE0
 73
     1
 44
1.0
  0
ENDBLK
  5
33F8
330
33F3
100
AcDbEntity
  8
0
100
AcDbBlockEnd
  0
BLOCK
  5
34B4
330
3402
100
AcDbEntity
  8
0
100
AcDbBlockBegin
  2
FC05-iso erkkeri-kulma
 70
     0
 10
0.0
 20
0.0
 30
0.0
  3
FC05-iso erkkeri-kulma
  1

  0
SPLINE
  5
3650
330
3402
100
AcDbEntity
  8
0
  6
Continuous
 62
     7
370
    15
100
AcDbSpline
210
0.0
220
0.0
230
1.0
 70
    24
 71
     1
 72
     4
 73
     2
 74
     0
 42
0.0000000001
 43
0.0000000001
 40
0.0
 40
0.0
 40
1.0
 40
1.0
 10
1512.753937428262
 20
267.4681349557999
 30
0.0
 10
1314.056936686303
 20
466.1651394230488
 30
0.0
  0
SPLINE
  5
3651
330
3402
100
AcDbEntity
  8
0
  6
Continuous
 62
     7
370
    15
100
AcDbSpline
210
0.0
220
0.0
230
1.0
 70
    24
 71
     1
 72
     4
 73
     2
 74
     0
 42
0.0000000001
 43
0.0000000001
 40
0.0
 40
0.0
 40
1.0
 40
1.0
 10
1303.450334852006
 20
455.5585375887516
 30
0.0
 10
1502.147350495126
 20
256.8615331215028
 30
0.0
  0
ARC
  5
3652
330
3402
100
AcDbEntity
  8
0
  6
Continuous
 62
     7
370
    15
100
AcDbCircle
 10
1287.540421669747
 20
439.6486239688426
 30
0.0
 40
22.50001646787585
100
AcDbArc
 50
45.00000000000009
 51
90.0
  0
ARC
  5
3653
330
3402
100
AcDbEntity
  8
0
  6
Continuous
 62
     7
370
    15
100
AcDbCircle
 10
1287.540421669747
 20
439.6486239688426
 30
0.0
 40
37.50001646787581
100
AcDbArc
 50
45.00000000000006
 51
90.0
  0
SPLINE
  5
3654
330
3402
100
AcDbEntity
  8
0
  6
Continuous
 62
     7
370
    15
100
AcDbSpline
210
0.0
220
0.0
230
1.0
 70
    24
 71
     1
 72
     4
 73
     2
 74
     0
 42
0.0000000001
 43
0.0000000001
 40
0.0
 40
0.0
 40
1.0
 40
1.0
 10
1287.540424649979
 20
477.1486400527122
 30
0.0
 10
1137.540418689515
 20
477.1486400527122
 30
0.0
  0
SPLINE
  5
3655
330
3402
100
AcDbEntity
  8
0
  6
Continuous
 62
     7
370
    15
100
AcDbSpline
210
0.0
220
0.0
230
1.0
 70
    24
 71
     1
 72
     4
 73
     2
 74
     0
 42
0.0000000001
 43
0.0000000001
 40
0.0
 40
0.0
 40
1.0
 40
1.0
 10
1137.540418689515
 20
462.1486394566658
 30
0.0
 10
1287.540424649979
 20
462.1486394566658
 30
0.0
  0
ARC
  5
3656
330
3402
100
AcDbEntity
  8
0
  6
Continuous
 62
     7
370
    15
100
AcDbCircle
 10
1137.540421669748
 20
439.6486239688426
 30
0.0
 40
22.5000164678758
100
AcDbArc
 50
90.0
 51
135.0000000000002
  0
ARC
  5
3657
330
3402
100
AcDbEntity
  8
0
  6
Continuous
 62
     7
370
    15
100
AcDbCircle
 10
1137.540421669748
 20
439.6486239688426
 30
0.0
 40
37.50001646787574
100
AcDbArc
 50
90.0
 51
135.0
  0
SPLINE
  5
3658
330
3402
100
AcDbEntity
  8
0
  6
Continuous
 62
     7
370
    15
100
AcDbSpline
210
0.0
220
0.0
230
1.0
 70
    24
 71
     1
 72
     4
 73
     2
 74
     0
 42
0.0000000001
 43
0.0000000001
 40
0.0
 40
0.0
 40
1.0
 40
1.0
 10
922.9334928443693
 20
256.8615331215028
 30
0.0
 10
1121.630508487489
 20
455.5585375887516
 30
0.0
  0
SPLINE
  5
3659
330
3402
100
AcDbEntity
  8
0
  6
Continuous
 62
     7
370
    15
100
AcDbSpline
210
0.0
220
0.0
230
1.0
 70
    24
 71
     1
 72
     4
 73
     2
 74
     0
 42
0.0000000001
 43
0.0000000001
 40
0.0
 40
0.0
 40
1.0
 40
1.0
 10
1111.023906653191
 20
466.1651394230488
 30
0.0
 10
912.3269059112336
 20
267.4681349557999
 30
0.0
  0
SPLINE
  5
365A
330
3402
100
AcDbEntity
  8
0
  6
Continuous
 62
     7
370
    15
100
AcDbSpline
210
0.0
220
0.0
230
1.0
 70
    24
 71
     1
 72
     4
 73
     2
 74
     0
 42
0.0000000001
 43
0.0000000001
 40
0.0
 40
0.0
 40
1.0
 40
1.0
 10
1354.290951078202
 20
404.57577048752
 30
0.0
 10
1354.426760261323
 20
404.4399605658894
 30
0.0
  0
SPLINE
  5
365B
330
3402
100
AcDbEntity
  8
0
  6
Continuous
 62
     7
370
    15
100
AcDbSpline
210
0.0
220
0.0
230
1.0
 70
    24
 71
     1
 72
     4
 73
     2
 74
     0
 42
0.0000000001
 43
0.0000000001
 40
0.0
 40
0.0
 40
1.0
 40
1.0
 10
1070.654083078172
 20
404.4399605658894
 30
0.0
 10
1070.789892261293
 20
404.57577048752
 30
0.0
  0
LWPOLYLINE
  5
365C
330
3402
100
AcDbEntity
  8
0
  6
Continuous
 62
     7
370
    15
100
AcDbPolyline
 90
       16
 70
   128
 43
0.0
 10
1512.753937428262
 20
267.4681349557999
 10
1512.629959767129
 20
267.3441423935059
 10
1512.263778631951
 20
266.9779761594895
 10
1511.672560160423
 20
266.3867576879624
 10
1510.883931105401
 20
265.5981137317779
 10
1509.934756939675
 20
264.6489395660523
 10
1508.869413321282
 20
263.5836108488206
 10
1507.737759535577
 20
262.4519421619538
 10
1506.592664902474
 20
261.3068475288514
 10
1505.487684195306
 20
260.201881722844
 10
1504.474494641091
 20
259.1886921686294
 10
1503.600481932427
 20
258.3146645588044
 10
1502.906475250985
 20
257.6206578773621
 10
1502.424959128167
 20
257.1391417545441
 10
1502.178434317376
 20
256.892616943753
 10
1502.147350495126
 20
256.8615331215028
  0
ARC
  5
365D
330
3402
100
AcDbEntity
  8
0
  6
Continuous
 62
     7
370
    15
100
AcDbCircle
 10
1377.308619716335
 20
410.549473480589
 30
0.0
 40
3.000000000000103
100
AcDbArc
 50
224.9999999999992
 51
314.0000000000001
  0
LINE
  5
365E
330
3402
100
AcDbEntity
  8
0
  6
Continuous
 62
     7
370
    15
100
AcDbLine
 10
1379.39259785917
 20
408.3914541074249
 30
0.0
 11
1387.381870334413
 21
416.1066115734342
 31
0.0
  0
ARC
  5
365F
330
3402
100
AcDbEntity
  8
0
  6
Continuous
 62
     7
370
    15
100
AcDbCircle
 10
1389.465849812208
 20
413.9485925708201
 30
0.0
 40
3.000000000000103
100
AcDbArc
 50
44.99999999999846
 51
133.9999999999994
  0
LINE
  5
3660
330
3402
100
AcDbEntity
  8
0
  6
Continuous
 62
     7
370
    15
100
AcDbLine
 10
1391.587171738412
 20
416.0699128073814
 30
0.0
 11
1399.726215784814
 21
407.930870390794
 31
0.0
  0
ARC
  5
3661
330
3402
100
AcDbEntity
  8
0
  6
Continuous
 62
     7
370
    15
100
AcDbCircle
 10
1397.604892259538
 20
405.8095501234886
 30
0.0
 40
3.000000000000103
100
AcDbArc
 50
316.0000000000013
 51
44.99999999999846
  0
LINE
  5
3662
330
3402
100
AcDbEntity
  8
0
  6
Continuous
 62
     7
370
    15
100
AcDbLine
 10
1399.762917344834
 20
403.7255750403914
 30
0.0
 11
1392.047751729753
 21
395.7362948817376
 31
0.0
  0
ARC
  5
3663
330
3402
100
AcDbEntity
  8
0
  6
Continuous
 62
     7
370
    15
100
AcDbCircle
 10
1394.205773169307
 20
393.6523200276156
 30
0.0
 40
3.000000000000103
100
AcDbArc
 50
136.0000000000006
 51
224.9999999999992
  0
LINE
  5
3664
330
3402
100
AcDbEntity
  8
0
  6
Continuous
 62
     7
370
    15
100
AcDbLine
 10
1392.084453289773
 20
391.5309999969963
 30
0.0
 11
1437.41269785669
 21
346.2027563614014
 31
0.0
  0
ARC
  5
3665
330
3402
100
AcDbEntity
  8
0
  6
Continuous
 62
     7
370
    15
100
AcDbCircle
 10
1439.534016460751
 20
348.3240767361728
 30
0.0
 40
3.000000000000141
100
AcDbArc
 50
225.0000000000031
 51
314.0000000000032
  0
LINE
  5
3666
330
3402
100
AcDbEntity
  8
0
  6
Continuous
 62
     7
370
    15
100
AcDbLine
 10
1441.617984359529
 20
346.1660585266713
 30
0.0
 11
1449.607271735932
 21
353.8812166911724
 31
0.0
  0
ARC
  5
3667
330
3402
100
AcDbEntity
  8
0
  6
Continuous
 62
     7
370
    15
100
AcDbCircle
 10
1451.691246556625
 20
351.7231958264038
 30
0.0
 40
2.999999999999982
100
AcDbArc
 50
45.00000000000077
 51
133.9999999999994
  0
LINE
  5
3668
330
3402
100
AcDbEntity
  8
0
  6
Continuous
 62
     7
370
    15
100
AcDbLine
 10
1453.812573139932
 20
353.844515131152
 30
0.0
 11
1461.951602285173
 21
345.7054748100403
 31
0.0
  0
ARC
  5
3669
330
3402
100
AcDbEntity
  8
0
  6
Continuous
 62
     7
370
    15
100
AcDbCircle
 10
1459.830289003956
 20
343.5841533790725
 30
0.0
 40
3.000000000000063
100
AcDbArc
 50
315.9999999999998
 51
44.99999999999769
  0
LINE
  5
366A
330
3402
100
AcDbEntity
  8
0
  6
Continuous
 62
     7
370
    15
100
AcDbLine
 10
1461.988303845193
 20
341.5001808566216
 30
0.0
 11
1454.273153131271
 21
333.5109009307983
 31
0.0
  0
ARC
  5
366B
330
3402
100
AcDbEntity
  8
0
  6
Continuous
 62
     7
370
    15
100
AcDbCircle
 10
1456.431169913725
 20
331.4269232831996
 30
0.0
 40
3.000000000000143
100
AcDbArc
 50
136.0000000000006
 51
225.0
  0
LINE
  5
366C
330
3402
100
AcDbEntity
  8
0
  6
Continuous
 62
     7
370
    15
100
AcDbLine
 10
1454.309854691293
 20
329.3055995267991
 30
0.0
 11
1499.638084357049
 21
283.9773624104623
 31
0.0
  0
ARC
  5
366D
330
3402
100
AcDbEntity
  8
0
  6
Continuous
 62
     7
370
    15
100
AcDbCircle
 10
1501.759413205168
 20
286.0986799917566
 30
0.0
 40
3.000000000000063
100
AcDbArc
 50
224.9999999999984
 51
313.9999999999978
  0
LINE
  5
366E
330
3402
100
AcDbEntity
  8
0
  6
Continuous
 62
     7
370
    15
100
AcDbLine
 10
1503.84340066221
 20
283.9406608504418
 30
0.0
 11
1511.832658236291
 21
291.655819014943
 31
0.0
  0
ARC
  5
366F
330
3402
100
AcDbEntity
  8
0
  6
Continuous
 62
     7
370
    15
100
AcDbCircle
 10
1513.91664330104
 20
289.4977990819878
 30
0.0
 40
3.000000000000103
100
AcDbArc
 50
44.99999999999846
 51
133.9999999999961
  0
LINE
  5
3670
330
3402
100
AcDbEntity
  8
0
  6
Continuous
 62
     7
370
    15
100
AcDbLine
 10
1516.037974541452
 20
291.6191174549226
 30
0.0
 11
1524.350140278604
 21
283.3069591683511
 31
0.0
  0
ARC
  5
3671
330
3402
100
AcDbEntity
  8
0
  6
Continuous
 62
     7
370
    15
100
AcDbCircle
 10
1522.228805211826
 20
281.1856371712028
 30
0.0
 40
3.000000000000103
100
AcDbArc
 50
315.0000000000031
 51
44.99999999999846
  0
LINE
  5
3672
330
3402
100
AcDbEntity
  8
0
  6
Continuous
 62
     7
370
    15
100
AcDbLine
 10
1524.350140278604
 20
279.0643229049805
 30
0.0
 11
1512.753937428262
 21
267.4681349557999
 31
0.0
  0
ARC
  5
3673
330
3402
100
AcDbEntity
  8
0
  6
Continuous
 62
     7
370
    15
100
AcDbCircle
 10
1367.160460647744
 20
412.2123511749418
 30
0.0
 40
2.999999999999943
100
AcDbArc
 50
45.00000000000153
 51
123.4528748768683
  0
LINE
  5
3674
330
3402
100
AcDbEntity
  8
0
  6
Continuous
 62
     7
370
    15
100
AcDbLine
 10
1365.163940971162
 20
414.4515312177303
 30
0.0
 11
1365.114469115997
 21
414.4064123642806
 31
0.0
  0
LINE
  5
3675
330
3402
100
AcDbEntity
  8
0
  6
Continuous
 62
     7
370
    15
100
AcDbLine
 10
1369.281787460115
 20
414.3336714145902
 30
0.0
 11
1375.187296455171
 21
408.4281531063083
 31
0.0
  0
LINE
  5
3676
330
3402
100
AcDbEntity
  8
0
  6
Continuous
 62
     7
370
    15
100
AcDbLine
 10
1498.187188093926
 20
252.9013707203035
 30
0.0
 11
1350.401852314736
 21
400.686683216429
 31
0.0
  0
LINE
  5
3677
330
3402
100
AcDbEntity
  8
0
  6
Continuous
 62
     7
370
    15
100
AcDbLine
 10
1350.401852314736
 20
400.686683216429
 30
0.0
 11
1354.500312392976
 21
404.5085578759085
 31
0.0
  0
LINE
  5
3678
330
3402
100
AcDbEntity
  8
0
  6
Continuous
 62
     7
370
    15
100
AcDbLine
 10
1502.147350495126
 20
256.8615331215028
 30
0.0
 11
1498.187188093926
 21
252.9013707203035
 31
0.0
  0
LINE
  5
3679
330
3402
100
AcDbEntity
  8
0
  6
Continuous
 62
     7
370
    15
100
AcDbLine
 10
1074.678991024758
 20
400.686683216429
 30
0.0
 11
1070.580530946519
 21
404.5085578759085
 31
0.0
  0
ARC
  5
367A
330
3402
100
AcDbEntity
  8
0
  6
Continuous
 62
     7
370
    15
100
AcDbCircle
 10
911.16420003846
 20
289.4977990819869
 30
0.0
 40
3.000000000000023
100
AcDbArc
 50
46.00000000000059
 51
135.0
  0
ARC
  5
367B
330
3402
100
AcDbEntity
  8
0
  6
Continuous
 62
     7
370
    15
100
AcDbCircle
 10
923.3214301343327
 20
286.0986799917558
 30
0.0
 40
3.000000000000021
100
AcDbArc
 50
225.999999999999
 51
315.0000000000015
  0
ARC
  5
367C
330
3402
100
AcDbEntity
  8
0
  6
Continuous
 62
     7
370
    15
100
AcDbCircle
 10
968.649673425776
 20
331.4269232831986
 30
0.0
 40
3.000000000000023
100
AcDbArc
 50
315.0000000000007
 51
43.99999999999939
  0
LINE
  5
367D
330
3402
100
AcDbEntity
  8
0
  6
Continuous
 62
     7
370
    15
100
AcDbLine
 10
963.0925394943023
 20
341.5001808566216
 30
0.0
 11
970.8076902082227
 21
333.5109009307983
 31
0.0
  0
ARC
  5
367E
330
3402
100
AcDbEntity
  8
0
  6
Continuous
 62
     7
370
    15
100
AcDbCircle
 10
965.2505543355447
 20
343.5841533790715
 30
0.0
 40
2.999999999999941
100
AcDbArc
 50
134.9999999999992
 51
224.0000000000025
  0
LINE
  5
367F
330
3402
100
AcDbEntity
  8
0
  6
Continuous
 62
     7
370
    15
100
AcDbLine
 10
971.2682701995635
 20
353.844515131152
 30
0.0
 11
963.1292410543228
 21
345.7054748100403
 31
0.0
  0
ARC
  5
3680
330
3402
100
AcDbEntity
  8
0
  6
Continuous
 62
     7
370
    15
100
AcDbCircle
 10
973.3895967828765
 20
351.7231958264029
 30
0.0
 40
2.999999999999984
100
AcDbArc
 50
45.99999999999985
 51
135.0000000000007
  0
LINE
  5
3681
330
3402
100
AcDbEntity
  8
0
  6
Continuous
 62
     7
370
    15
100
AcDbLine
 10
983.4628589799667
 20
346.1660585266713
 30
0.0
 11
975.4735716035627
 21
353.8812166911724
 31
0.0
  0
ARC
  5
3682
330
3402
100
AcDbEntity
  8
0
  6
Continuous
 62
     7
370
    15
100
AcDbCircle
 10
985.5468268787491
 20
348.3240767361717
 30
0.0
 40
3.000000000000023
100
AcDbArc
 50
226.0000000000014
 51
315.0000000000007
  0
LINE
  5
3683
330
3402
100
AcDbEntity
  8
0
  6
Continuous
 62
     7
370
    15
100
AcDbLine
 10
1032.996390049722
 20
391.5309999969963
 30
0.0
 11
987.6681454828046
 21
346.2027563614014
 31
0.0
  0
ARC
  5
3684
330
3402
100
AcDbEntity
  8
0
  6
Continuous
 62
     7
370
    15
100
AcDbCircle
 10
1030.875070170192
 20
393.6523200276146
 30
0.0
 40
3.000000000000226
100
AcDbArc
 50
315.0000000000031
 51
43.99999999999795
  0
ARC
  5
3685
330
3402
100
AcDbEntity
  8
0
  6
Continuous
 62
     7
370
    15
100
AcDbCircle
 10
1027.47595107996
 20
405.8095501234876
 30
0.0
 40
2.999999999999982
100
AcDbArc
 50
134.9999999999984
 51
224.0000000000002
  0
LINE
  5
3686
330
3402
100
AcDbEntity
  8
0
  6
Continuous
 62
     7
370
    15
100
AcDbLine
 10
1033.493671601083
 20
416.0699128073814
 30
0.0
 11
1025.35462755468
 21
407.930870390794
 31
0.0
  0
ARC
  5
3687
330
3402
100
AcDbEntity
  8
0
  6
Continuous
 62
     7
370
    15
100
AcDbCircle
 10
1035.614993527292
 20
413.948592570819
 30
0.0
 40
3.000000000000103
100
AcDbArc
 50
46.00000000000135
 51
135.0000000000015
  0
LINE
  5
3688
330
3402
100
AcDbEntity
  8
0
  6
Continuous
 62
     7
370
    15
100
AcDbLine
 10
1045.688245480325
 20
408.3914541074249
 30
0.0
 11
1037.698973005082
 21
416.1066115734342
 31
0.0
  0
ARC
  5
3689
330
3402
100
AcDbEntity
  8
0
  6
Continuous
 62
     7
370
    15
100
AcDbCircle
 10
1047.772223623165
 20
410.5494734805878
 30
0.0
 40
3.000000000000063
100
AcDbArc
 50
226.0000000000037
 51
315.0000000000031
  0
LINE
  5
368A
330
3402
100
AcDbEntity
  8
0
  6
Continuous
 62
     7
370
    15
100
AcDbLine
 10
1055.79905587938
 20
414.3336714145902
 30
0.0
 11
1049.893546884324
 21
408.4281531063083
 31
0.0
  0
ARC
  5
368B
330
3402
100
AcDbEntity
  8
0
  6
Continuous
 62
     7
370
    15
100
AcDbCircle
 10
1057.920382691756
 20
412.2123511749406
 30
0.0
 40
3.000000000000103
100
AcDbArc
 50
56.54712512321114
 51
135.0000000000015
  0
LINE
  5
368C
330
3402
100
AcDbEntity
  8
0
  6
Continuous
 62
     7
370
    15
100
AcDbLine
 10
909.0428687980438
 20
291.6191174549226
 30
0.0
 11
900.7307030608915
 21
283.3069591683511
 31
0.0
  0
ARC
  5
368D
330
3402
100
AcDbEntity
  8
0
  6
Continuous
 62
     7
370
    15
100
AcDbCircle
 10
902.8520381276747
 20
281.1856371712019
 30
0.0
 40
3.000000000000063
100
AcDbArc
 50
134.9999999999992
 51
225.0
  0
LINE
  5
368E
330
3402
100
AcDbEntity
  8
0
  6
Continuous
 62
     7
370
    15
100
AcDbLine
 10
932.8943826606536
 20
254.7430201334123
 30
0.0
 11
930.8799840858243
 21
256.887684659398
 31
0.0
  0
LINE
  5
368F
330
3402
100
AcDbEntity
  8
0
  6
Continuous
 62
     7
370
    15
100
AcDbLine
 10
1037.570450489785
 20
363.5781436127786
 30
0.0
 11
1038.834009354379
 21
362.3145772976045
 31
0.0
  0
LINE
  5
3690
330
3402
100
AcDbEntity
  8
0
  6
Continuous
 62
     7
370
    15
100
AcDbLine
 10
1038.834009354379
 20
362.3145772976045
 30
0.0
 11
1037.395063822533
 21
359.2436975700024
 31
0.0
  0
LINE
  5
3691
330
3402
100
AcDbEntity
  8
0
  6
Continuous
 62
     7
370
    15
100
AcDbLine
 10
932.8943826606536
 20
250.7853611272934
 30
0.0
 11
1011.10160726812
 21
172.5781365198258
 31
0.0
  0
LINE
  5
3692
330
3402
100
AcDbEntity
  8
0
  6
Continuous
 62
     7
370
    15
100
AcDbLine
 10
932.8943826606536
 20
254.7430201334123
 30
0.0
 11
932.8943826606536
 21
250.7853611272934
 31
0.0
  0
LINE
  5
3693
330
3402
100
AcDbEntity
  8
0
  6
Continuous
 62
     7
370
    15
100
AcDbLine
 10
1037.395063822533
 20
359.2436975700024
 30
0.0
 11
1037.395063822533
 21
172.5781365198258
 31
0.0
  0
LINE
  5
3694
330
3402
100
AcDbEntity
  8
0
  6
Continuous
 62
     7
370
    15
100
AcDbLine
 10
1011.10160726812
 20
172.5781365198258
 30
0.0
 11
1037.395063822533
 21
172.5781365198258
 31
0.0
  0
LINE
  5
3695
330
3402
100
AcDbEntity
  8
0
  6
Continuous
 62
     7
370
    15
100
AcDbLine
 10
932.8943826606536
 20
250.7853611272934
 30
0.0
 11
930.5704571655059
 21
249.6505631965761
 31
0.0
  0
LINE
  5
3696
330
3402
100
AcDbEntity
  8
0
  6
Continuous
 62
     7
370
    15
100
AcDbLine
 10
930.5704571655059
 20
249.6505631965761
 30
0.0
 11
930.5704571655059
 21
256.5781428379182
 31
0.0
  0
LINE
  5
3697
330
3402
100
AcDbEntity
  8
0
  6
Continuous
 62
     7
370
    15
100
AcDbLine
 10
1010.51134247091
 20
169.637243346608
 30
0.0
 11
1011.10160726812
 21
172.5781365198258
 31
0.0
  0
LINE
  5
3698
330
3402
100
AcDbEntity
  8
0
  6
Continuous
 62
     7
370
    15
100
AcDbLine
 10
1010.51134247091
 20
169.637243346608
 30
0.0
 11
930.5704571655059
 21
249.578143553174
 31
0.0
  0
LINE
  5
3699
330
3402
100
AcDbEntity
  8
0
  6
Continuous
 62
     7
370
    15
100
AcDbLine
 10
930.5704571655059
 20
249.578143553174
 30
0.0
 11
930.5704571655059
 21
249.6505631965761
 31
0.0
  0
LINE
  5
369A
330
3402
100
AcDbEntity
  8
0
  6
Continuous
 62
     7
370
    15
100
AcDbLine
 10
1037.570450489785
 20
169.5781453413133
 30
0.0
 11
1010.570440476205
 21
169.5781453413133
 31
0.0
  0
LINE
  5
369B
330
3402
100
AcDbEntity
  8
0
  6
Continuous
 62
     7
370
    15
100
AcDbLine
 10
1039.284203236367
 20
171.2918980878954
 30
0.0
 11
1037.395063822533
 21
172.5781365198258
 31
0.0
  0
LINE
  5
369C
330
3402
100
AcDbEntity
  8
0
  6
Continuous
 62
     7
370
    15
100
AcDbLine
 10
1039.284203236367
 20
171.2918980878954
 30
0.0
 11
1037.570450489785
 21
169.5781453413133
 31
0.0
  0
LINE
  5
369D
330
3402
100
AcDbEntity
  8
0
  6
Continuous
 62
     7
370
    15
100
AcDbLine
 10
1010.570440476205
 20
169.5781453413133
 30
0.0
 11
1010.51134247091
 21
169.637243346608
 31
0.0
  0
LINE
  5
369E
330
3402
100
AcDbEntity
  8
0
  6
Continuous
 62
     7
370
    15
100
AcDbLine
 10
1040.570441668298
 20
360.5781412583951
 30
0.0
 11
1038.834009354379
 21
362.3145772976045
 31
0.0
  0
LINE
  5
369F
330
3402
100
AcDbEntity
  8
0
  6
Continuous
 62
     7
370
    15
100
AcDbLine
 10
1040.570441668298
 20
360.5781412583951
 30
0.0
 11
1040.570441668298
 21
172.5781365198258
 31
0.0
  0
LINE
  5
36A0
330
3402
100
AcDbEntity
  8
0
  6
Continuous
 62
     7
370
    15
100
AcDbLine
 10
1040.570441668298
 20
172.5781365198258
 30
0.0
 11
1039.284203236367
 21
171.2918980878954
 31
0.0
  0
LINE
  5
36A1
330
3402
100
AcDbEntity
  8
0
  6
Continuous
 62
     7
370
    15
100
AcDbLine
 10
1494.510386173988
 20
256.5057231945161
 30
0.0
 11
1494.510386173988
 21
249.578143553174
 31
0.0
  0
LINE
  5
36A2
330
3402
100
AcDbEntity
  8
0
  6
Continuous
 62
     7
370
    15
100
AcDbLine
 10
1494.510386173988
 20
249.578143553174
 30
0.0
 11
1494.200859253671
 21
249.2686017316942
 31
0.0
  0
LINE
  5
36A3
330
3402
100
AcDbEntity
  8
0
  6
Continuous
 62
     7
370
    15
100
AcDbLine
 10
1494.200859253671
 20
249.2686017316942
 30
0.0
 11
1492.186460678841
 21
251.4132513565186
 31
0.0
  0
LINE
  5
36A4
330
3402
100
AcDbEntity
  8
0
  6
Continuous
 62
     7
370
    15
100
AcDbLine
 10
1492.186460678841
 20
251.4132513565186
 30
0.0
 11
1492.186460678841
 21
255.3709252637986
 31
0.0
  0
LINE
  5
36A5
330
3402
100
AcDbEntity
  8
0
  6
Continuous
 62
     7
370
    15
100
AcDbLine
 10
1494.510386173988
 20
256.5057231945161
 30
0.0
 11
1492.186460678841
 21
255.3709252637986
 31
0.0
  0
LINE
  5
36A6
330
3402
100
AcDbEntity
  8
0
  6
Continuous
 62
     7
370
    15
100
AcDbLine
 10
1413.351345842149
 20
172.5781365198258
 30
0.0
 11
1492.186460678841
 21
251.4132513565186
 31
0.0
  0
LINE
  5
36A7
330
3402
100
AcDbEntity
  8
0
  6
Continuous
 62
     7
370
    15
100
AcDbLine
 10
1387.685779516961
 20
172.5781365198258
 30
0.0
 11
1413.351345842149
 21
172.5781365198258
 31
0.0
  0
LINE
  5
36A8
330
3402
100
AcDbEntity
  8
0
  6
Continuous
 62
     7
370
    15
100
AcDbLine
 10
1387.685779516961
 20
172.5781365198258
 30
0.0
 11
1387.685779516961
 21
359.8715915245179
 31
0.0
  0
LINE
  5
36A9
330
3402
100
AcDbEntity
  8
0
  6
Continuous
 62
     7
370
    15
100
AcDbLine
 10
1492.186460678841
 20
255.3709252637986
 30
0.0
 11
1387.685779516961
 21
359.8715915245179
 31
0.0
  0
LINE
  5
36AA
330
3402
100
AcDbEntity
  8
0
  6
Continuous
 62
     7
370
    15
100
AcDbLine
 10
1494.200859253671
 20
249.2686017316942
 30
0.0
 11
1415.013480966354
 21
170.0812383455399
 31
0.0
  0
LINE
  5
36AB
330
3402
100
AcDbEntity
  8
0
  6
Continuous
 62
     7
370
    15
100
AcDbLine
 10
1415.013480966354
 20
170.0812383455399
 30
0.0
 11
1413.351345842149
 21
172.5781365198258
 31
0.0
  0
LINE
  5
36AC
330
3402
100
AcDbEntity
  8
0
  6
Continuous
 62
     7
370
    15
100
AcDbLine
 10
1494.510386173988
 20
256.5781428379182
 30
0.0
 11
1494.510386173988
 21
256.5057231945161
 31
0.0
  0
LINE
  5
36AD
330
3402
100
AcDbEntity
  8
0
  6
Continuous
 62
     7
370
    15
100
AcDbLine
 10
1386.308003251817
 20
362.3757428390149
 30
0.0
 11
1387.685779516961
 21
359.8715915245179
 31
0.0
  0
LINE
  5
36AE
330
3402
100
AcDbEntity
  8
0
  6
Continuous
 62
     7
370
    15
100
AcDbLine
 10
1386.308003251817
 20
362.3757428390149
 30
0.0
 11
1387.51039284971
 21
363.5781436127786
 31
0.0
  0
LINE
  5
36AF
330
3402
100
AcDbEntity
  8
0
  6
Continuous
 62
     7
370
    15
100
AcDbLine
 10
1414.51040286329
 20
169.5781453413133
 30
0.0
 11
1387.51039284971
 21
169.5781453413133
 31
0.0
  0
LINE
  5
36B0
330
3402
100
AcDbEntity
  8
0
  6
Continuous
 62
     7
370
    15
100
AcDbLine
 10
1387.51039284971
 20
169.5781453413133
 30
0.0
 11
1385.796640103128
 21
171.2918980878954
 31
0.0
  0
LINE
  5
36B1
330
3402
100
AcDbEntity
  8
0
  6
Continuous
 62
     7
370
    15
100
AcDbLine
 10
1385.796640103128
 20
171.2918980878954
 30
0.0
 11
1387.685779516961
 21
172.5781365198258
 31
0.0
  0
LINE
  5
36B2
330
3402
100
AcDbEntity
  8
0
  6
Continuous
 62
     7
370
    15
100
AcDbLine
 10
1415.013480966354
 20
170.0812383455399
 30
0.0
 11
1414.51040286329
 21
169.5781453413133
 31
0.0
  0
LINE
  5
36B3
330
3402
100
AcDbEntity
  8
0
  6
Continuous
 62
     7
370
    15
100
AcDbLine
 10
1384.510401671197
 20
172.5781365198258
 30
0.0
 11
1385.796640103128
 21
171.2918980878954
 31
0.0
  0
LINE
  5
36B4
330
3402
100
AcDbEntity
  8
0
  6
Continuous
 62
     7
370
    15
100
AcDbLine
 10
1384.510401671197
 20
172.5781365198258
 30
0.0
 11
1384.510401671197
 21
360.5781412583951
 31
0.0
  0
LINE
  5
36B5
330
3402
100
AcDbEntity
  8
0
  6
Continuous
 62
     7
370
    15
100
AcDbLine
 10
1384.510401671197
 20
360.5781412583951
 30
0.0
 11
1386.308003251817
 21
362.3757428390149
 31
0.0
  0
LINE
  5
36B6
330
3402
100
AcDbEntity
  8
0
  6
Continuous
 62
     7
370
    15
100
AcDbLine
 10
1293.838869815137
 20
456.2496720713737
 30
0.0
 11
1291.457016055848
 21
454.6909770828846
 31
0.0
  0
LINE
  5
36B7
330
3402
100
AcDbEntity
  8
0
  6
Continuous
 62
     7
370
    15
100
AcDbLine
 10
1293.838869815137
 20
456.2496720713737
 30
0.0
 11
1342.540416901376
 21
407.5481189315381
 31
0.0
  0
LINE
  5
36B8
330
3402
100
AcDbEntity
  8
0
  6
Continuous
 62
     7
370
    15
100
AcDbLine
 10
1342.540416901376
 20
407.5481189315381
 30
0.0
 11
1340.570155566003
 21
405.577846303879
 31
0.0
  0
LINE
  5
36B9
330
3402
100
AcDbEntity
  8
0
  6
Continuous
 62
     7
370
    15
100
AcDbLine
 10
1340.570155566003
 20
405.577846303879
 30
0.0
 11
1291.457016055848
 21
454.6909770828846
 31
0.0
  0
LINE
  5
36BA
330
3402
100
AcDbEntity
  8
0
  6
Continuous
 62
     7
370
    15
100
AcDbLine
 10
1291.457016055848
 20
454.6909770828846
 30
0.0
 11
1132.715892081525
 21
454.6909770828846
 31
0.0
  0
LINE
  5
36BB
330
3402
100
AcDbEntity
  8
0
  6
Continuous
 62
     7
370
    15
100
AcDbLine
 10
1340.570155566003
 20
405.577846303879
 30
0.0
 11
1339.540425722863
 21
404.5481189054611
 31
0.0
  0
LINE
  5
36BC
330
3402
100
AcDbEntity
  8
0
  6
Continuous
 62
     7
370
    15
100
AcDbLine
 10
1085.540417616631
 20
404.5481189054611
 30
0.0
 11
1084.05672389772
 21
406.0318111109721
 31
0.0
  0
LINE
  5
36BD
330
3402
100
AcDbEntity
  8
0
  6
Continuous
 62
     7
370
    15
100
AcDbLine
 10
1293.551135843064
 20
456.537402318156
 30
0.0
 11
1293.838869815137
 21
456.2496720713737
 31
0.0
  0
LINE
  5
36BE
330
3402
100
AcDbEntity
  8
0
  6
Continuous
 62
     7
370
    15
100
AcDbLine
 10
1131.792280857827
 20
456.5481199783447
 30
0.0
 11
1132.715892081525
 21
454.6909770828846
 31
0.0
  0
LINE
  5
36BF
330
3402
100
AcDbEntity
  8
0
  6
Continuous
 62
     7
370
    15
100
AcDbLine
 10
1084.05672389772
 20
406.0318111109721
 30
0.0
 11
1082.540426438119
 21
407.5481189315381
 31
0.0
  0
LINE
  5
36C0
330
3402
100
AcDbEntity
  8
0
  6
Continuous
 62
     7
370
    15
100
AcDbLine
 10
1295.419100706842
 20
455.6694394809368
 30
0.0
 11
1350.401852314736
 21
400.686683216429
 31
0.0
  0
ARC
  5
36C1
330
3402
100
AcDbEntity
  8
0
  6
Continuous
 62
     7
370
    15
100
AcDbCircle
 10
1293.297780982625
 20
453.5481189054648
 30
0.0
 40
3.000000000000113
100
AcDbArc
 50
45.00000000000307
 51
90.0
  0
LINE
  5
36C2
330
3402
100
AcDbEntity
  8
0
  6
Continuous
 62
     7
370
    15
100
AcDbLine
 10
1212.540421669743
 20
456.5481199783447
 30
0.0
 11
1293.297778849866
 21
456.5481199783447
 31
0.0
  0
LINE
  5
36C3
330
3402
100
AcDbEntity
  8
0
  6
Continuous
 62
     7
370
    15
100
AcDbLine
 10
1212.540421669743
 20
462.1486394566658
 30
0.0
 11
1212.540421669743
 21
456.5481199783447
 31
0.0
  0
LINE
  5
36C4
330
3402
100
AcDbEntity
  8
0
  6
Continuous
 62
     7
370
    15
100
AcDbLine
 10
1350.401852314736
 20
400.686683216429
 30
0.0
 11
1354.362029617097
 21
404.6468499468232
 31
0.0
  0
ARC
  5
36C5
330
3402
100
AcDbEntity
  8
0
  6
Continuous
 62
     7
370
    15
100
AcDbCircle
 10
1377.979021849757
 20
411.2932849095262
 30
0.0
 40
3.000000000000103
100
AcDbArc
 50
224.9999999999992
 51
314.999999999997
  0
LINE
  5
36C6
330
3402
100
AcDbEntity
  8
0
  6
Continuous
 62
     7
370
    15
100
AcDbLine
 10
1369.493741576936
 20
415.5359259707096
 30
0.0
 11
1375.857699697282
 21
409.1719645907346
 31
0.0
  0
ARC
  5
36C7
330
3402
100
AcDbEntity
  8
0
  6
Continuous
 62
     7
370
    15
100
AcDbCircle
 10
1367.372420131958
 20
413.4146052530857
 30
0.0
 40
3.000000000000143
100
AcDbArc
 50
44.99999999999924
 51
135.0
  0
LINE
  5
36C8
330
3402
100
AcDbEntity
  8
0
  6
Continuous
 62
     7
370
    15
100
AcDbLine
 10
1251.849543338086
 20
486.5481211704376
 30
0.0
 11
1225.54547250029
 21
486.5481211704376
 31
0.0
  0
LINE
  5
36C9
330
3402
100
AcDbEntity
  8
0
  6
Continuous
 62
     7
370
    15
100
AcDbLine
 10
1285.558495705392
 20
517.9299889964227
 30
0.0
 11
1253.933519159819
 21
487.3900963825348
 31
0.0
  0
ARC
  5
36CA
330
3402
100
AcDbEntity
  8
0
  6
Continuous
 62
     7
370
    15
100
AcDbCircle
 10
1287.642473321332
 20
515.7719690616816
 30
0.0
 40
2.999999999999943
100
AcDbArc
 50
45.00000000000153
 51
133.9999999999976
  0
LINE
  5
36CB
330
3402
100
AcDbEntity
  8
0
  6
Continuous
 62
     7
370
    15
100
AcDbLine
 10
1297.902833705212
 20
509.7542433900001
 30
0.0
 11
1289.763797109391
 21
517.8932874364022
 31
0.0
  0
ARC
  5
36CC
330
3402
100
AcDbEntity
  8
0
  6
Continuous
 62
     7
370
    15
100
AcDbCircle
 10
1352.559882374793
 20
435.2982108221167
 30
0.0
 40
3.000000000000099
100
AcDbArc
 50
225.0000000000038
 51
314.0000000000039
  0
LINE
  5
36CD
330
3402
100
AcDbEntity
  8
0
  6
Continuous
 62
     7
370
    15
100
AcDbLine
 10
1362.63314265516
 20
440.8553494972351
 30
0.0
 11
1354.643855278756
 21
433.1401913327339
 31
0.0
  0
ARC
  5
36CE
330
3402
100
AcDbEntity
  8
0
  6
Continuous
 62
     7
370
    15
100
AcDbCircle
 10
1364.717112470666
 20
438.6973299123479
 30
0.0
 40
3.000000000000058
100
AcDbArc
 50
45.00000000000153
 51
134.000000000004
  0
LINE
  5
36CF
330
3402
100
AcDbEntity
  8
0
  6
Continuous
 62
     7
370
    15
100
AcDbLine
 10
1387.171406333711
 20
420.4856726241473
 30
0.0
 11
1366.838429157998
 21
440.818651662505
 31
0.0
  0
ARC
  5
36D0
330
3402
100
AcDbEntity
  8
0
  6
Continuous
 62
     7
370
    15
100
AcDbCircle
 10
1385.050089661622
 20
418.3643527213916
 30
0.0
 40
2.999999999999903
100
AcDbArc
 50
314.9999999999954
 51
45.00000000000077
  0
LINE
  5
36D1
330
3402
100
AcDbEntity
  8
0
  6
Continuous
 62
     7
370
    15
100
AcDbLine
 10
1380.100343411233
 20
409.1719645907346
 30
0.0
 11
1387.171406333711
 21
416.2430326354865
 31
0.0
  0
LINE
  5
36D2
330
3402
100
AcDbEntity
  8
0
  6
Continuous
 62
     7
370
    15
100
AcDbLine
 10
1225.54547250029
 20
486.5481211704376
 30
0.0
 11
1216.145993943702
 21
477.1486400527122
 31
0.0
  0
LINE
  5
36D3
330
3402
100
AcDbEntity
  8
0
  6
Continuous
 62
     7
370
    15
100
AcDbLine
 10
1350.438568775918
 20
433.1768910301093
 30
0.0
 11
1290.261078660752
 21
493.3543755573396
 31
0.0
  0
ARC
  5
36D4
330
3402
100
AcDbEntity
  8
0
  6
Continuous
 62
     7
370
    15
100
AcDbCircle
 10
1292.382396678432
 20
495.4756965184769
 30
0.0
 40
3.000000000000219
100
AcDbArc
 50
135.9999999999959
 51
224.9999999999968
  0
ARC
  5
36D5
330
3402
100
AcDbEntity
  8
0
  6
Continuous
 62
     7
370
    15
100
AcDbCircle
 10
1251.849542302513
 20
489.548118905465
 30
0.0
 40
3.000000000000055
100
AcDbArc
 50
270.0000000000008
 51
314.0000000000001
  0
ARC
  5
36D6
330
3402
100
AcDbEntity
  8
0
  6
Continuous
 62
     7
370
    15
100
AcDbCircle
 10
1295.781515768664
 20
507.6329266143502
 30
0.0
 40
3.000000000000258
100
AcDbArc
 50
315.9999999999959
 51
44.99999999999693
  0
LINE
  5
36D7
330
3402
100
AcDbEntity
  8
0
  6
Continuous
 62
     7
370
    15
100
AcDbLine
 10
1364.968631451394
 20
415.2534521085384
 30
0.0
 11
1365.251097862985
 21
415.5359259707096
 31
0.0
  0
LINE
  5
36D8
330
3402
100
AcDbEntity
  8
0
  6
Continuous
 62
     7
370
    15
100
AcDbLine
 10
1290.224377100732
 20
497.5596695107582
 30
0.0
 11
1297.939535265233
 21
505.5489494365814
 31
0.0
  0
LINE
  5
36D9
330
3402
100
AcDbEntity
  8
0
  6
Continuous
 62
     7
370
    15
100
AcDbLine
 10
1212.540421669743
 20
462.1486394566658
 30
0.0
 11
1212.540421669743
 21
456.5481199783447
 31
0.0
  0
LINE
  5
36DA
330
3402
100
AcDbEntity
  8
0
  6
Continuous
 62
     7
370
    15
100
AcDbLine
 10
1212.540421669743
 20
456.5481199783447
 30
0.0
 11
1131.783064489629
 21
456.5481199783447
 31
0.0
  0
ARC
  5
36DB
330
3402
100
AcDbEntity
  8
0
  6
Continuous
 62
     7
370
    15
100
AcDbCircle
 10
1131.783062356862
 20
453.5481189054651
 30
0.0
 40
2.999999999999886
100
AcDbArc
 50
89.99999999999564
 51
135.0000000000007
  0
LINE
  5
36DC
330
3402
100
AcDbEntity
  8
0
  6
Continuous
 62
     7
370
    15
100
AcDbLine
 10
1074.678991024758
 20
400.686683216429
 30
0.0
 11
1070.718813722398
 21
404.6468499468232
 31
0.0
  0
ARC
  5
36DD
330
3402
100
AcDbEntity
  8
0
  6
Continuous
 62
     7
370
    15
100
AcDbCircle
 10
1060.363730868822
 20
438.697329912348
 30
0.0
 40
3.000000000000103
100
AcDbArc
 50
46.00000000000059
 51
135.0000000000015
  0
LINE
  5
36DE
330
3402
100
AcDbEntity
  8
0
  6
Continuous
 62
     7
370
    15
100
AcDbLine
 10
1074.642274563577
 20
433.1768910301093
 30
0.0
 11
1134.819764678743
 21
493.3543755573396
 31
0.0
  0
ARC
  5
36DF
330
3402
100
AcDbEntity
  8
0
  6
Continuous
 62
     7
370
    15
100
AcDbCircle
 10
1132.698446661055
 20
495.4756965184769
 30
0.0
 40
3.000000000000103
100
AcDbArc
 50
315.0000000000023
 51
44.00000000000019
  0
LINE
  5
36E0
330
3402
100
AcDbEntity
  8
0
  6
Continuous
 62
     7
370
    15
100
AcDbLine
 10
1134.856466238763
 20
497.5596695107582
 30
0.0
 11
1127.141308074262
 21
505.5489494365814
 31
0.0
  0
ARC
  5
36E1
330
3402
100
AcDbEntity
  8
0
  6
Continuous
 62
     7
370
    15
100
AcDbCircle
 10
1129.299327570824
 20
507.6329266143501
 30
0.0
 40
3.000000000000184
100
AcDbArc
 50
135.0
 51
224.0000000000071
  0
LINE
  5
36E2
330
3402
100
AcDbEntity
  8
0
  6
Continuous
 62
     7
370
    15
100
AcDbLine
 10
1127.178009634282
 20
509.7542433900001
 30
0.0
 11
1135.317046230104
 21
517.8932874364022
 31
0.0
  0
ARC
  5
36E3
330
3402
100
AcDbEntity
  8
0
  6
Continuous
 62
     7
370
    15
100
AcDbCircle
 10
1137.438370018155
 20
515.7719690616816
 30
0.0
 40
3.000000000000103
100
AcDbArc
 50
46.0000000000037
 51
135.0000000000015
  0
ARC
  5
36E4
330
3402
100
AcDbEntity
  8
0
  6
Continuous
 62
     7
370
    15
100
AcDbCircle
 10
1173.231301036974
 20
489.5481189054647
 30
0.0
 40
3.000000000000181
100
AcDbArc
 50
225.999999999999
 51
269.9999999999921
  0
LINE
  5
36E5
330
3402
100
AcDbEntity
  8
0
  6
Continuous
 62
     7
370
    15
100
AcDbLine
 10
1173.231300001408
 20
486.5481211704376
 30
0.0
 11
1199.535370839204
 21
486.5481211704376
 31
0.0
  0
LINE
  5
36E6
330
3402
100
AcDbEntity
  8
0
  6
Continuous
 62
     7
370
    15
100
AcDbLine
 10
1199.535370839204
 20
486.5481211704376
 30
0.0
 11
1208.934849395792
 21
477.1486400527122
 31
0.0
  0
LINE
  5
36E7
330
3402
100
AcDbEntity
  8
0
  6
Continuous
 62
     7
370
    15
100
AcDbLine
 10
1060.112211888101
 20
415.2534521085384
 30
0.0
 11
1059.82974547651
 21
415.5359259707096
 31
0.0
  0
ARC
  5
36E8
330
3402
100
AcDbEntity
  8
0
  6
Continuous
 62
     7
370
    15
100
AcDbCircle
 10
1057.708423207529
 20
413.4146052530859
 30
0.0
 40
2.999999999999984
100
AcDbArc
 50
44.99999999999615
 51
134.9999999999969
  0
LINE
  5
36E9
330
3402
100
AcDbEntity
  8
0
  6
Continuous
 62
     7
370
    15
100
AcDbLine
 10
1055.587101762559
 20
415.5359259707096
 30
0.0
 11
1049.223143642213
 21
409.1719645907346
 31
0.0
  0
LINE
  5
36EA
330
3402
100
AcDbEntity
  8
0
  6
Continuous
 62
     7
370
    15
100
AcDbLine
 10
1044.980499928262
 20
409.1719645907346
 30
0.0
 11
1037.909437005784
 21
416.2430326354865
 31
0.0
  0
LINE
  5
36EB
330
3402
100
AcDbEntity
  8
0
  6
Continuous
 62
     7
370
    15
100
AcDbLine
 10
1037.909437005784
 20
420.4856726241473
 30
0.0
 11
1058.242414181497
 21
440.818651662505
 31
0.0
  0
ARC
  5
36EC
330
3402
100
AcDbEntity
  8
0
  6
Continuous
 62
     7
370
    15
100
AcDbCircle
 10
1072.520960964695
 20
435.2982108221167
 30
0.0
 40
3.000000000000103
100
AcDbArc
 50
225.9999999999998
 51
315.0000000000023
  0
ARC
  5
36ED
330
3402
100
AcDbEntity
  8
0
  6
Continuous
 62
     7
370
    15
100
AcDbCircle
 10
1040.030753677866
 20
418.3643527213915
 30
0.0
 40
2.999999999999984
100
AcDbArc
 50
134.9999999999975
 51
224.9999999999992
  0
LINE
  5
36EE
330
3402
100
AcDbEntity
  8
0
  6
Continuous
 62
     7
370
    15
100
AcDbLine
 10
1139.522347634102
 20
517.9299889964227
 30
0.0
 11
1171.147324179675
 21
487.3900963825348
 31
0.0
  0
LINE
  5
36EF
330
3402
100
AcDbEntity
  8
0
  6
Continuous
 62
     7
370
    15
100
AcDbLine
 10
1062.447700684335
 20
440.8553494972351
 30
0.0
 11
1070.436988060738
 21
433.1401913327339
 31
0.0
  0
ARC
  5
36F0
330
3402
100
AcDbEntity
  8
0
  6
Continuous
 62
     7
370
    15
100
AcDbCircle
 10
1047.101821489731
 20
411.2932849095259
 30
0.0
 40
2.999999999999903
100
AcDbArc
 50
224.9999999999992
 51
315.0
  0
LWPOLYLINE
  5
36F1
330
3402
100
AcDbEntity
  8
0
  6
Continuous
 62
     7
370
    15
100
AcDbPolyline
 90
       16
 70
   128
 43
0.0
 10
1314.056936686303
 20
466.1651394230488
 10
1313.93295157459
 20
466.0411505860451
 10
1313.566785340573
 20
465.6749843520286
 10
1312.975559418465
 20
465.083758429921
 10
1312.186922912862
 20
464.2951219243172
 10
1311.237748747136
 20
463.3459514838818
 10
1310.172420029904
 20
462.2806227666501
 10
1309.040751343037
 20
461.1489540797832
 10
1307.895656709935
 20
460.0038594466808
 10
1306.790683453347
 20
458.8988861900928
 10
1305.777493899133
 20
457.8856966358785
 10
1304.903466289307
 20
457.0116653007629
 10
1304.209467058446
 20
456.3176660699013
 10
1303.727943485047
 20
455.8361499470833
 10
1303.481426124837
 20
455.5896251362923
 10
1303.450334852006
 20
455.5585375887516
  0
LINE
  5
36F2
330
3402
100
AcDbEntity
  8
0
  6
Continuous
 62
     7
370
    15
100
AcDbLine
 10
1287.540424649979
 20
477.1486400527122
 30
0.0
 11
1287.540424649979
 21
462.1486394566658
 31
0.0
  0
LINE
  5
36F3
330
3402
100
AcDbEntity
  8
0
  6
Continuous
 62
     7
370
    15
100
AcDbLine
 10
1137.540418689515
 20
477.1486400527122
 30
0.0
 11
1137.540418689515
 21
462.1486394566658
 31
0.0
  0
LWPOLYLINE
  5
36F4
330
3402
100
AcDbEntity
  8
0
  6
Continuous
 62
     7
370
    15
100
AcDbPolyline
 90
       16
 70
   128
 43
0.0
 10
1111.023906653191
 20
466.1651394230488
 10
1111.147891764905
 20
466.0411505860451
 10
1111.514057998922
 20
465.6749843520286
 10
1112.105283921029
 20
465.083758429921
 10
1112.893920426633
 20
464.2951219243172
 10
1113.843094592358
 20
463.3459514838818
 10
1114.90842330959
 20
462.2806227666501
 10
1116.040091996457
 20
461.1489540797832
 10
1117.185186629559
 20
460.0038594466808
 10
1118.290159886148
 20
458.8988861900928
 10
1119.303349440362
 20
457.8856966358785
 10
1120.177377050187
 20
457.0116653007629
 10
1120.871376281049
 20
456.3176660699013
 10
1121.352899854447
 20
455.8361499470833
 10
1121.599417214658
 20
455.5896251362923
 10
1121.630508487489
 20
455.5585375887516
  0
LWPOLYLINE
  5
36F5
330
3402
100
AcDbEntity
  8
0
  6
Continuous
 62
     7
370
    15
100
AcDbPolyline
 90
        2
 70
     0
 43
0.0
 10
1025.31792599466
 20
403.7255750403914
 10
1033.033091609742
 20
395.7362948817376
  0
LWPOLYLINE
  5
36F6
330
3402
100
AcDbEntity
  8
0
  6
Continuous
 62
     7
370
    15
100
AcDbPolyline
 90
       20
 70
   128
 43
0.0
 10
900.7307030608915
 20
279.0643229049805
 10
912.3269059112336
 20
267.4681349557999
 10
912.4508835723663
 20
267.3441423935059
 10
912.8170647075439
 20
266.9779761594895
 10
913.408283179071
 20
266.3867576879624
 10
914.1969122340942
 20
265.5981137317779
 10
915.1460863998199
 20
264.6489395660523
 10
916.2114300182127
 20
263.5836108488206
 10
917.3430838039182
 20
262.4519421619538
 10
918.4881784370206
 20
261.3068475288514
 10
919.5931591441892
 20
260.201881722844
 10
920.6063486984039
 20
259.1886921686294
 10
921.4803614070676
 20
258.3146645588044
 10
922.1743680885099
 20
257.6206578773621
 10
922.6558842113279
 20
257.1391417545441
 10
922.9024090221193
 20
256.892616943753
 10
922.9334928443693
 20
256.8615331215028
 10
926.8936552455686
 20
252.9013707203035
 10
1074.678991024758
 20
400.686683216429
 10
1129.661742632653
 20
455.6694394809368
  0
LWPOLYLINE
  5
36F7
330
3402
100
AcDbEntity
  8
0
  6
Continuous
 62
     7
370
    15
100
AcDbPolyline
 90
        2
 70
     0
 43
0.0
 10
921.2374426772855
 20
283.9406608504418
 10
913.2481851032043
 20
291.655819014943
  0
LWPOLYLINE
  5
36F8
330
3402
100
AcDbEntity
  8
0
  6
Continuous
 62
     7
370
    15
100
AcDbPolyline
 90
        2
 70
     0
 43
0.0
 10
970.7709886482023
 20
329.3055995267991
 10
925.4427589824462
 20
283.9773624104623
  0
LWPOLYLINE
  5
36F9
330
3402
100
AcDbEntity
  8
0
100
AcDbPolyline
 90
       87
 70
     0
 43
0.0
 10
2212.540421669748
 20
477.1486400527122
 10
2208.934849395793
 20
477.1486400527122
 10
2199.535370839205
 20
486.5481211704376
 10
2173.231300001409
 20
486.5481211704376
 42
-0.1943815895230338
 10
2171.147324179675
 20
487.3900963825348
 10
2139.522347634103
 20
517.9299889964227
 42
0.4091107284662821
 10
2135.317046230104
 20
517.8932874364022
 10
2127.178009634282
 20
509.7542433900001
 42
0.4091111589381259
 10
2127.141308074262
 20
505.5489494365814
 10
2134.856466238763
 20
497.5596695107582
 42
-0.4091104793848582
 10
2134.819764678743
 20
493.3543755573396
 10
2074.642274563577
 20
433.1768910301093
 42
-0.4091108861452837
 10
2070.436985853317
 20
433.1401914211006
 10
2062.447705980198
 20
440.855349313364
 42
0.4091108014276881
 10
2058.242410525263
 20
440.8186502559075
 10
2025.354630736401
 20
407.9308704670472
 42
0.4091118042255827
 10
2025.317925994661
 20
403.7255750403914
 10
2033.033089571208
 20
395.7362951389916
 42
-0.4091107426435253
 10
2032.996390049722
 20
391.5309999969963
 10
1987.668145482804
 20
346.2027563614014
 42
-0.4091107992029227
 10
1983.462851767372
 20
346.1660573351558
 10
1975.473571894253
 20
353.8812152274189
 42
0.4091110156717638
 10
1971.268276439317
 20
353.8445161699626
 10
1963.129241054322
 20
345.7054748100403
 42
0.4091117802731083
 10
1963.092534934529
 20
341.5001782676943
 10
1970.807692826792
 20
333.5108983945756
 42
-0.4091100468440068
 10
1970.770988648201
 20
329.3055995267991
 10
1925.442758982446
 20
283.9773624104623
 42
-0.4091115643836487
 10
1921.237442677285
 20
283.9406608504418
 10
1913.248175149837
 20
291.6558184830029
 42
0.4091102795365412
 10
1909.042868798043
 20
291.6191174549226
 10
1900.730703060891
 20
283.3069591683511
 42
0.4142135623730959
 10
1900.730703060891
 20
279.0643229049805
 10
1926.893655245568
 20
252.9013707203035
 10
1930.879977045961
 20
256.8876921545098
 10
1930.570457165505
 20
249.578143553174
 10
2010.570440476205
 20
169.5781453413133
 10
2037.570450489786
 20
169.5781453413133
 10
2040.570441668298
 20
172.5781365198258
 10
2040.570441668298
 20
360.5781412583951
 10
2037.570450489786
 20
363.5781436127786
 10
2082.04042890315
 20
408.0481179410933
 10
2085.540423709058
 20
404.5481128130116
 10
2212.540427762174
 20
404.5481128130116
 10
2339.54043181529
 20
404.5481128130116
 10
2343.040426621198
 20
408.0481179410933
 10
2387.510405034563
 20
363.5781436127786
 10
2384.510413856051
 20
360.5781412583951
 10
2384.510413856051
 20
172.5781365198258
 10
2387.510405034563
 20
169.5781453413133
 10
2414.510415048144
 20
169.5781453413133
 10
2494.510398358843
 20
249.578143553174
 10
2494.200878478387
 20
256.8876921545098
 10
2498.18720027878
 20
252.9013707203035
 10
2524.350152463457
 20
279.0643229049805
 42
0.4142135623730959
 10
2524.350152463457
 20
283.3069591683511
 10
2516.037986726304
 20
291.6191174549226
 42
0.4091102795365412
 10
2511.832680374512
 20
291.6558184830029
 10
2503.843412847063
 20
283.9406608504418
 42
-0.4091115643836487
 10
2499.638096541903
 20
283.9773624104623
 10
2454.309866876147
 20
329.3055995267991
 42
-0.4091100468440068
 10
2454.273162697557
 20
333.5108983945756
 10
2461.98832058982
 20
341.5001782676943
 42
0.4091117802731083
 10
2461.951614470025
 20
345.7054748100403
 10
2453.812579085032
 20
353.8445161699626
 42
0.4091110156717638
 10
2449.607283630096
 20
353.8812152274189
 10
2441.618003756977
 20
346.1660573351558
 42
-0.4091107992029227
 10
2437.412710041543
 20
346.2027563614014
 10
2392.084465474627
 20
391.5309999969963
 42
-0.4091107426435253
 10
2392.04776595314
 20
395.7362951389916
 10
2399.762929529688
 20
403.7255750403914
 42
0.4091118042255827
 10
2399.726224787948
 20
407.9308704670472
 10
2366.838444999086
 20
440.8186502559075
 42
0.4091108014276881
 10
2362.63314954415
 20
440.855349313364
 10
2354.643869671031
 20
433.1401914211006
 42
-0.4091108861452837
 10
2350.438580960772
 20
433.1768910301093
 10
2290.261090845606
 20
493.3543755573396
 42
-0.4091104793848582
 10
2290.224389285586
 20
497.5596695107582
 10
2297.939547450087
 20
505.5489494365814
 42
0.4091111589381259
 10
2297.902845890065
 20
509.7542433900001
 10
2289.763809294245
 20
517.8932874364022
 42
0.4091107284662821
 10
2285.558507890246
 20
517.9299889964227
 10
2253.933531344674
 20
487.3900963825348
 42
-0.1943815895230338
 10
2251.849555522939
 20
486.5481211704376
 10
2225.545484685143
 20
486.5481211704376
 10
2216.146006128556
 20
477.1486400527122
 10
2212.540433854601
 20
477.1486400527122
  0
ENDBLK
  5
34B5
330
3402
100
AcDbEntity
  8
0
100
AcDbBlockEnd
  0
BLOCK
  5
354B
330
3541
100
AcDbEntity
  8
0
100
AcDbBlockBegin
  2
*D4
 70
     1
 10
0.0
 20
0.0
 30
0.0
  3
*D4
  1

  0
LINE
  5
3589
330
3541
100
AcDbEntity
  8
MAINOS
 62
     3
370
    -2
100
AcDbLine
 10
1381.536735443217
 20
1701.269972337278
 30
0.0
 11
1345.214815564107
 21
1701.269972337278
 31
0.0
  0
LINE
  5
358A
330
3541
100
AcDbEntity
  8
MAINOS
 62
     3
370
    -2
100
AcDbLine
 10
1381.536736396894
 20
2539.650923503526
 30
0.0
 11
1345.214815564107
 21
2539.650923503526
 31
0.0
  0
LINE
  5
358B
330
3541
100
AcDbEntity
  8
MAINOS
 62
     3
370
    -2
100
AcDbLine
 10
1346.464815564107
 20
1771.269972337278
 30
0.0
 11
1346.464815564107
 21
2469.650923503525
 31
0.0
  0
INSERT
  5
358C
330
3541
100
AcDbEntity
  8
MAINOS
 62
     3
370
    -2
100
AcDbBlockReference
  2
_OPEN
 10
1346.464815564107
 20
1701.269972337278
 30
0.0
 41
70.0
 42
70.0
 43
70.0
 50
270.0
  0
INSERT
  5
358D
330
3541
100
AcDbEntity
  8
MAINOS
 62
     3
370
    -2
100
AcDbBlockReference
  2
_OPEN
 10
1346.464815564107
 20
2539.650923503526
 30
0.0
 41
70.0
 42
70.0
 43
70.0
 50
90.0
  0
MTEXT
  5
358E
330
3541
100
AcDbEntity
  8
MAINOS
 62
     5
100
AcDbMText
 10
1290.152971486146
 20
2120.460447920402
 30
0.0
 40
70.0
 41
0.0
 71
     5
 72
     1
  1
\A1;838
  7
KUVASTO
 11
0.0000000000000001
 21
1.0
 31
0.0
 73
     1
 44
1.0
  0
POINT
  5
358F
330
3541
100
AcDbEntity
  8
DEFPOINTS
 62
     0
100
AcDbPoint
 10
1382.161735443216
 20
1701.269972337278
 30
363.4334507219168
  0
POINT
  5
3590
330
3541
100
AcDbEntity
  8
DEFPOINTS
 62
     0
100
AcDbPoint
 10
1382.161736396894
 20
2539.650923503526
 30
363.4334507219168
  0
POINT
  5
3591
330
3541
100
AcDbEntity
  8
DEFPOINTS
 62
     0
100
AcDbPoint
 10
1346.464815564107
 20
2539.650923503526
 30
0.0
  0
ENDBLK
  5
354C
330
3541
100
AcDbEntity
  8
0
100
AcDbBlockEnd
  0
BLOCK
  5
3561
330
3557
100
AcDbEntity
  8
0
100
AcDbBlockBegin
  2
*D5
 70
     1
 10
0.0
 20
0.0
 30
0.0
  3
*D5
  1

  0
LINE
  5
3580
330
3557
100
AcDbEntity
  8
MAINOS
 62
     3
370
    -2
100
AcDbLine
 10
1427.924426442123
 20
1536.213104323296
 30
0.0
 11
1427.924426442123
 21
1487.438066058557
 31
0.0
  0
LINE
  5
3581
330
3557
100
AcDbEntity
  8
MAINOS
 62
     3
370
    -2
100
AcDbLine
 10
2449.381496054117
 20
1536.213104323296
 30
0.0
 11
2449.381496054117
 21
1487.438066058557
 31
0.0
  0
LINE
  5
3582
330
3557
100
AcDbEntity
  8
MAINOS
 62
     3
370
    -2
100
AcDbLine
 10
1497.924426442123
 20
1488.688066058558
 30
0.0
 11
2379.381496054117
 21
1488.688066058558
 31
0.0
  0
INSERT
  5
3583
330
3557
100
AcDbEntity
  8
MAINOS
 62
     3
370
    -2
100
AcDbBlockReference
  2
_OPEN
 10
1427.924426442123
 20
1488.688066058558
 30
0.0
 41
70.0
 42
70.0
 43
70.0
 50
180.0
  0
INSERT
  5
3584
330
3557
100
AcDbEntity
  8
MAINOS
 62
     3
370
    -2
100
AcDbBlockReference
  2
_OPEN
 10
2449.381496054117
 20
1488.688066058558
 30
0.0
 41
70.0
 42
70.0
 43
70.0
  0
MTEXT
  5
3585
330
3557
100
AcDbEntity
  8
MAINOS
 62
     5
100
AcDbMText
 10
1938.652961248119
 20
1544.999910136518
 30
0.0
 40
70.0
 41
0.0
 71
     5
 72
     1
  1
\A1;1020
  7
KUVASTO
 73
     1
 44
1.0
  0
POINT
  5
3586
330
3557
100
AcDbEntity
  8
DEFPOINTS
 62
     0
100
AcDbPoint
 10
1427.924426442123
 20
1536.838104323296
 30
363.4334507219168
  0
POINT
  5
3587
330
3557
100
AcDbEntity
  8
DEFPOINTS
 62
     0
100
AcDbPoint
 10
2449.381496054117
 20
1536.838104323296
 30
363.4334507219168
  0
POINT
  5
3588
330
3557
100
AcDbEntity
  8
DEFPOINTS
 62
     0
100
AcDbPoint
 10
2449.381496054117
 20
1488.688066058558
 30
0.0
  0
ENDBLK
  5
3562
330
3557
100
AcDbEntity
  8
0
100
AcDbBlockEnd
  0
BLOCK
  5
35B5
330
35AB
100
AcDbEntity
  8
0
100
AcDbBlockBegin
  2
*D6
 70
     1
 10
0.0
 20
0.0
 30
0.0
  3
*D6
  1

  0
LINE
  5
35CC
330
35AB
100
AcDbEntity
  8
MITAT
 62
     3
370
    -2
100
AcDbLine
 10
2051.831138137216
 20
2690.108321006224
 30
0.0
 11
2030.175992963438
 21
2668.453175832452
 31
0.0
  0
LINE
  5
35CD
330
35AB
100
AcDbEntity
  8
MITAT
 62
     3
370
    -2
100
AcDbLine
 10
2603.374427462723
 20
2138.565031680719
 30
0.0
 11
2581.719282288881
 21
2116.909886506882
 31
0.0
  0
LINE
  5
35CE
330
35AB
100
AcDbEntity
  8
MITAT
 62
     3
370
    -2
100
AcDbLine
 10
2080.557351122974
 20
2619.839584625871
 30
0.0
 11
2533.105691082312
 21
2167.291244666429
 31
0.0
  0
INSERT
  5
35CF
330
35AB
100
AcDbEntity
  8
MITAT
 62
     3
370
    -2
100
AcDbBlockReference
  2
_OPEN
 10
2031.059876439921
 20
2669.337059308935
 30
0.0
 41
70.0
 42
70.0
 43
70.0
 50
134.9999999999933
  0
INSERT
  5
35D0
330
35AB
100
AcDbEntity
  8
MITAT
 62
     3
370
    -2
100
AcDbBlockReference
  2
_OPEN
 10
2582.603165765364
 20
2117.793769983364
 30
0.0
 41
70.0
 42
70.0
 43
70.0
 50
314.9999999999933
  0
MTEXT
  5
35D1
330
35AB
100
AcDbEntity
  8
MITAT
 62
     5
100
AcDbMText
 10
2346.167648712733
 20
2432.901542256231
 30
0.0
 40
70.0
 41
0.0
 71
     5
 72
     1
  1
\A1;775
  7
KUVASTO
 11
0.7071067811864653
 21
-0.7071067811866297
 31
0.0
 73
     1
 44
1.0
  0
POINT
  5
35D2
330
35AB
100
AcDbEntity
  8
DEFPOINTS
 62
     0
100
AcDbPoint
 10
2052.273079875458
 20
2690.550262744466
 30
363.4334507219177
  0
POINT
  5
35D3
330
35AB
100
AcDbEntity
  8
DEFPOINTS
 62
     0
100
AcDbPoint
 10
2603.816369200965
 20
2139.00697341896
 30
363.4334507219177
  0
POINT
  5
35D4
330
35AB
100
AcDbEntity
  8
DEFPOINTS
 62
     0
100
AcDbPoint
 10
2582.603165765364
 20
2117.793769983364
 30
0.0
  0
ENDBLK
  5
35B6
330
35AB
100
AcDbEntity
  8
0
100
AcDbBlockEnd
  0
BLOCK
  5
360C
330
3602
100
AcDbEntity
  8
0
100
AcDbBlockBegin
  2
*D7
 70
     1
 10
0.0
 20
0.0
 30
0.0
  3
*D7
  1

  0
LINE
  5
3617
330
3602
100
AcDbEntity
  8
MITAT
 62
     3
370
    -2
100
AcDbLine
 10
2611.059168104871
 20
1904.523937260346
 30
0.0
 11
2632.714313278674
 21
1882.868792086548
 31
0.0
  0
LINE
  5
3618
330
3602
100
AcDbEntity
  8
MITAT
 62
     3
370
    -2
100
AcDbLine
 10
2287.204262321433
 20
1580.669031476908
 30
0.0
 11
2308.859407495273
 21
1559.013886303073
 31
0.0
  0
LINE
  5
3619
330
3602
100
AcDbEntity
  8
MITAT
 62
     3
370
    -2
100
AcDbLine
 10
2582.332955119138
 20
1834.255200879967
 30
0.0
 11
2357.472998701843
 21
1609.39524446262
 31
0.0
  0
INSERT
  5
361A
330
3602
100
AcDbEntity
  8
MITAT
 62
     3
370
    -2
100
AcDbBlockReference
  2
_OPEN
 10
2631.830429802191
 20
1883.752675563031
 30
0.0
 41
70.0
 42
70.0
 43
70.0
 50
45.00000000000663
  0
INSERT
  5
361B
330
3602
100
AcDbEntity
  8
MITAT
 62
     3
370
    -2
100
AcDbBlockReference
  2
_OPEN
 10
2307.975524018791
 20
1559.897769779556
 30
0.0
 41
70.0
 42
70.0
 43
70.0
 50
225.0000000000067
  0
MTEXT
  5
361C
330
3602
100
AcDbEntity
  8
MITAT
 62
     5
100
AcDbMText
 10
2430.08449010184
 20
1761.643709479935
 30
0.0
 40
70.0
 41
0.0
 71
     5
 72
     1
  1
\A1;460
  7
KUVASTO
 11
0.7071067811864653
 21
0.7071067811866298
 31
0.0
 73
     1
 44
1.0
  0
POINT
  5
361D
330
3602
100
AcDbEntity
  8
DEFPOINTS
 62
     0
100
AcDbPoint
 10
2610.617226366629
 20
1904.965878998586
 30
363.4334507219177
  0
POINT
  5
361E
330
3602
100
AcDbEntity
  8
DEFPOINTS
 62
     0
100
AcDbPoint
 10
2286.762320583191
 20
1581.11097321515
 30
363.4334507219177
  0
POINT
  5
361F
330
3602
100
AcDbEntity
  8
DEFPOINTS
 62
     0
100
AcDbPoint
 10
2307.975524018791
 20
1559.897769779556
 30
0.0
  0
ENDBLK
  5
360D
330
3602
100
AcDbEntity
  8
0
100
AcDbBlockEnd
  0
ENDSEC
  0
SECTION
  2
ENTITIES
  0
LWPOLYLINE
  5
3517
330
18
100
AcDbEntity
  8
MAINOS
100
AcDbPolyline
 90
       21
 70
     1
 43
0.0
 38
363.4334507219168
 10
2384.130233395648
 20
2004.173651355997
 10
2373.965219862701
 20
1994.008637823051
 10
2331.538812991512
 20
2036.435044694241
 10
2267.899202684721
 20
1972.79543438745
 10
2087.586973482153
 20
2153.107663590021
 10
2151.226583788942
 20
2216.74727389681
 10
2108.800176917749
 20
2259.173680768003
 10
2036.152958105835
 20
2186.526461956089
 10
2036.152958105835
 20
2201.526461956089
 10
1841.152958105834
 20
2201.526461956089
 10
1841.152958105834
 20
2186.526464730619
 10
1768.505741541752
 20
2259.173684373893
 10
1726.079333771426
 20
2216.747278401832
 10
1789.718942729516
 20
2153.107666746344
 10
1609.406711269758
 20
1972.795442929212
 10
1545.76710950473
 20
2036.435044694241
 10
1503.340702633536
 20
1994.008637823048
 10
1493.037849711432
 20
2004.035811966838
 10
1875.013350941331
 20
2386.011313196735
 10
2002.29257155491
 20
2386.011313196735
 10
2384.130233395648
 20
2004.173651355997
  0
LWPOLYLINE
  5
3519
330
18
100
AcDbEntity
  8
LUUKUN-AUKKO
100
AcDbPolyline
 90
        6
 70
     0
 43
0.0
 38
363.4334507219125
 10
2222.909887285111
 20
1842.953305245466
 10
2153.652961248111
 20
1773.696379208477
 10
2153.652961248117
 20
1761.269972337276
 10
1723.652961248117
 20
1761.269972337275
 10
1723.652961248117
 20
1773.696379208471
 10
1654.396035211123
 20
1842.953305245464
  0
DIMENSION
  5
3540
330
18
100
AcDbEntity
  8
MAINOS
100
AcDbDimension
  2
*D4
 10
1346.464815564107
 20
2539.650923503526
 30
0.0
 11
1290.152971486146
 21
2120.460447920402
 31
0.0
 70
    32
  1
838
 71
     5
 42
838.3809511662477
  3
STANDARD
100
AcDbAlignedDimension
 13
1382.161735443216
 23
1701.269972337278
 33
363.4334507219168
 14
1382.161736396894
 24
2539.650923503526
 34
363.4334507219168
 50
90.0
100
AcDbRotatedDimension
1001
ACAD
1000
DSTYLE
1002
{
1070
    40
1040
1.0
1002
}
  0
DIMENSION
  5
3556
330
18
100
AcDbEntity
  8
MAINOS
100
AcDbDimension
  2
*D5
 10
2449.381496054117
 20
1488.688066058558
 30
0.0
 11
1938.652961248119
 21
1544.999910136518
 31
0.0
 70
    32
  1
1020
 71
     5
 42
1021.457069611993
  3
STANDARD
100
AcDbAlignedDimension
 13
1427.924426442123
 23
1536.838104323296
 33
363.4334507219168
 14
2449.381496054117
 24
1536.838104323296
 34
363.4334507219168
100
AcDbRotatedDimension
1001
ACAD
1000
DSTYLE
1002
{
1070
    40
1040
1.0
1002
}
  0
MTEXT
  5
3592
330
18
100
AcDbEntity
  8
MITAT
 62
     5
100
AcDbMText
 10
1904.110196197578
 20
2878.181353681508
 30
0.0
 40
70.0
 41
0.0
 71
     5
 72
     1
  1
\A1;30
  7
KUVASTO
 11
0.7071067811865472
 21
-0.7071067811865479
 31
0.0
 73
     1
 44
1.0
  0
INSERT
  5
3593
330
18
100
AcDbEntity
  8
MITAT
 62
     3
100
AcDbBlockReference
  2
_OPEN
 10
2009.846673004262
 20
2690.550262744466
 30
0.0
 41
70.0
 42
70.0
 43
70.0
 50
314.9999999999954
  0
MTEXT
  5
3594
330
18
100
AcDbEntity
  8
0
  6
ByBlock
 62
     5
100
AcDbMText
 10
1733.817860257198
 20
2648.559400550321
 30
0.0
 40
70.0
 41
0.0
 71
     5
 72
     1
  1
200
  7
KUVASTO
 11
0.7071067811865474
 21
0.7071067811865479
 31
0.0
 73
     1
 44
1.0
  0
LINE
  5
3595
330
18
100
AcDbEntity
  8
MITAT
 62
     3
100
AcDbLine
 10
1910.851723638153
 20
2789.545212110593
 30
0.0
 11
1829.616190250392
 21
2870.780745498354
 31
0.0
  0
LINE
  5
3596
330
18
100
AcDbEntity
  8
0
  6
ByBlock
 62
     3
100
AcDbLine
 10
1841.779376421203
 20
2673.803728944021
 30
0.0
 11
1700.358020660733
 21
2532.382373183549
 31
363.4334507219168
  0
LINE
  5
3597
330
18
100
AcDbEntity
  8
0
  6
ByBlock
 62
     3
100
AcDbLine
 10
1841.779376421203
 20
2673.803728944021
 30
0.0
 11
1862.9925798568
 21
2695.016932379617
 31
0.0
  0
INSERT
  5
3598
330
18
100
AcDbEntity
  8
0
  6
ByBlock
 62
     3
100
AcDbBlockReference
  2
_OPEN
 10
1841.779376421204
 20
2673.803728944021
 30
0.0
 41
70.0
 42
70.0
 43
70.0
 50
225.0
  0
LINE
  5
3599
330
18
100
AcDbEntity
  8
0
  6
ByBlock
 62
     3
100
AcDbLine
 10
1862.550638118558
 20
2653.032467246667
 30
0.0
 11
1840.895492944719
 21
2674.687612420504
 31
0.0
  0
LINE
  5
359A
330
18
100
AcDbEntity
  8
0
  6
ByBlock
 62
     3
100
AcDbLine
 10
1862.550638118558
 20
2653.032467246667
 30
0.0
 11
1840.895492944719
 21
2674.687612420504
 31
0.0
  0
POINT
  5
359B
330
18
100
AcDbEntity
  8
DEFPOINTS
  6
ByBlock
 62
     0
100
AcDbPoint
 10
1862.9925798568
 20
2652.590525508424
 30
0.0
  0
LINE
  5
359C
330
18
100
AcDbEntity
  8
0
  6
ByBlock
 62
     3
100
AcDbLine
 10
1891.276851104262
 20
2723.301203627078
 30
0.0
 11
1940.77432578732
 21
2772.798678310138
 31
0.0
  0
POINT
  5
359D
330
18
100
AcDbEntity
  8
DEFPOINTS
  6
ByBlock
 62
     0
100
AcDbPoint
 10
1862.9925798568
 20
2695.016932379617
 30
0.0
  0
LINE
  5
359E
330
18
100
AcDbEntity
  8
MITAT
 62
     3
100
AcDbLine
 10
1960.349198321208
 20
2740.047737427531
 30
0.0
 11
1910.851723638153
 21
2789.545212110593
 31
0.0
  0
POINT
  5
359F
330
18
100
AcDbEntity
  8
DEFPOINTS
  6
ByBlock
 62
     0
100
AcDbPoint
 10
1862.9925798568
 20
2652.590525508424
 30
363.4334507219168
  0
DIMENSION
  5
35A0
330
18
100
AcDbEntity
  8
MITAT
100
AcDbDimension
  2
*D6
 10
2582.603165765364
 20
2117.793769983364
 30
0.0
 11
2346.167648712733
 21
2432.901542256231
 31
0.0
 70
    32
  1
775
 71
     5
 42
779.999999999999
  3
STANDARD
100
AcDbAlignedDimension
 13
2052.273079875458
 23
2690.550262744466
 33
363.4334507219177
 14
2603.816369200964
 24
2139.00697341896
 34
363.4334507219177
 50
314.9999999999933
100
AcDbRotatedDimension
1001
ACAD
1000
DSTYLE
1002
{
1070
    40
1040
1.0
1002
}
  0
LINE
  5
35A1
330
18
100
AcDbEntity
  8
MITAT
 62
     3
100
AcDbLine
 10
2030.617934701619
 20
2711.321524441821
 30
0.0
 11
2008.962789527779
 21
2689.666379267985
 31
0.0
  0
INSERT
  5
35A2
330
18
100
AcDbEntity
  8
MITAT
 62
     3
100
AcDbBlockReference
  2
_OPEN
 10
2031.059876439857
 20
2669.337059308869
 30
0.0
 41
70.0
 42
70.0
 43
70.0
 50
134.9999999999952
  0
LINE
  5
35A3
330
18
100
AcDbEntity
  8
MITAT
 62
     3
100
AcDbLine
 10
2051.831138137216
 20
2690.108321006225
 30
0.0
 11
2030.175992963374
 21
2668.453175832387
 31
0.0
  0
LINE
  5
35A4
330
18
100
AcDbEntity
  8
MITAT
 62
     3
100
AcDbLine
 10
2031.059876439857
 20
2669.337059308869
 30
0.0
 11
2009.846673004262
 21
2690.550262744466
 31
0.0
  0
INSERT
  5
35A5
330
18
100
AcDbEntity
  8
0
  6
ByBlock
 62
     3
100
AcDbBlockReference
  2
_OPEN
 10
1700.358020660733
 20
2532.382373183549
 30
363.4334507219168
 41
70.0
 42
70.0
 43
70.0
 50
44.99999999999999
  0
LINE
  5
35A6
330
18
100
AcDbEntity
  8
0
  6
ByBlock
 62
     3
100
AcDbLine
 10
1682.68035065423
 20
2514.704703177048
 30
0.0
 11
1633.18287597117
 21
2465.207228493989
 31
0.0
  0
LINE
  5
35A7
330
18
100
AcDbEntity
  8
0
  6
ByBlock
 62
     3
100
AcDbLine
 10
1792.281901738145
 20
2624.306254260963
 30
0.0
 11
1742.784427055086
 21
2574.808779577904
 31
0.0
  0
LINE
  5
35A8
330
18
100
AcDbEntity
  8
0
  6
ByBlock
 62
     3
100
AcDbLine
 10
1721.129282358088
 20
2511.611111486192
 30
363.4334507219168
 11
1699.47413718425
 21
2533.266256660033
 31
363.4334507219168
  0
POINT
  5
35A9
330
18
100
AcDbEntity
  8
DEFPOINTS
  6
ByBlock
 62
     0
100
AcDbPoint
 10
1732.177825337288
 20
2564.202177860106
 30
0.0
  0
POINT
  5
35AA
330
18
100
AcDbEntity
  8
DEFPOINTS
  6
ByBlock
 62
     0
100
AcDbPoint
 10
1753.391028772885
 20
2542.98897442451
 30
363.4334507219168
  0
CIRCLE
  5
35C0
330
18
100
AcDbEntity
  8
HORMILIITOS
100
AcDbCircle
 10
1938.652961248119
 20
2294.08743259616
 30
363.4334507219168
 40
87.5
  0
LWPOLYLINE
  5
35C1
330
18
100
AcDbEntity
  8
MAINOS
 62
     4
100
AcDbPolyline
 90
        6
 70
     0
 43
0.0
 38
363.4334507219168
 10
1938.652961248119
 20
2294.08743259616
 10
1920.975291718457
 20
2276.409763066495
 10
1956.330630777783
 20
2311.765102125823
 10
1938.652961248119
 20
2294.08743259616
 10
1920.975291718457
 20
2311.765102125824
 10
1956.330630777784
 20
2276.409763066495
  0
LWPOLYLINE
  5
35C2
330
18
100
AcDbEntity
  8
HORMILIITOS
100
AcDbPolyline
 90
        3
 70
     0
 43
0.0
 38
363.4334507219168
 10
2405.343436831242
 20
2152.666075405174
 10
1938.652961248118
 20
2619.356550988298
 10
1471.962485664997
 20
2152.666075405174
  0
DIMENSION
  5
35F1
330
18
100
AcDbEntity
  8
MITAT
100
AcDbDimension
  2
*D7
 10
2307.975524018791
 20
1559.897769779556
 30
0.0
 11
2430.08449010184
 21
1761.643709479935
 31
0.0
 70
    32
  1
460
 71
     5
 42
457.9999999999986
  3
STANDARD
100
AcDbAlignedDimension
 13
2610.617226366629
 23
1904.965878998588
 33
363.4334507219177
 14
2286.762320583191
 24
1581.11097321515
 34
363.4334507219177
 50
45.00000000000667
100
AcDbRotatedDimension
1001
ACAD
1000
DSTYLE
1002
{
1070
    40
1040
1.0
1002
}
  0
MTEXT
  5
35F2
330
18
100
AcDbEntity
  8
0
  6
ByBlock
 62
     5
100
AcDbMText
 10
2758.45823340279
 20
2092.275093293895
 30
0.0
 40
70.0
 41
0.0
 71
     5
 72
     1
  1
\A1;30
  7
KUVASTO
 11
0.7071067811865479
 21
0.7071067811865472
 31
0.0
 73
     1
 44
1.0
  0
LINE
  5
35F3
330
18
100
AcDbEntity
  8
0
  6
ByBlock
 62
     3
100
AcDbLine
 10
2752.038582603939
 20
2003.960828364705
 30
0.0
 11
2832.63036270825
 21
2084.552608469016
 31
0.0
  0
LINE
  5
35F4
330
18
100
AcDbEntity
  8
0
  6
ByBlock
 62
     3
100
AcDbLine
 10
2702.541107920881
 20
1954.463353681646
 30
0.0
 11
2752.038582603939
 21
2003.960828364705
 31
0.0
  0
INSERT
  5
35F5
330
18
100
AcDbEntity
  8
0
  6
ByBlock
 62
     3
100
AcDbBlockReference
  2
_OPEN
 10
2653.043633237823
 20
1904.965878998588
 30
0.0
 41
70.0
 42
70.0
 43
70.0
 50
225.0
  0
LINE
  5
35F6
330
18
100
AcDbEntity
  8
0
  6
ByBlock
 62
     3
100
AcDbLine
 10
2631.830429802227
 20
1883.752675562989
 30
0.0
 11
2653.043633237823
 21
1904.965878998588
 31
0.0
  0
LINE
  5
35F7
330
18
100
AcDbEntity
  8
0
  6
ByBlock
 62
     3
100
AcDbLine
 10
2632.272371540468
 20
1925.737140695943
 30
0.0
 11
2653.927516714306
 21
1904.081995522105
 31
0.0
  0
INSERT
  5
35F8
330
18
100
AcDbEntity
  8
0
  6
ByBlock
 62
     3
100
AcDbBlockReference
  2
_OPEN
 10
2631.830429802227
 20
1883.752675562989
 30
0.0
 41
70.0
 42
70.0
 43
70.0
 50
44.99999999999999
  0
INSERT
  5
35F9
330
18
100
AcDbEntity
  8
0
  6
ByBlock
 62
     3
100
AcDbBlockReference
  2
_OPEN
 10
2631.830429802227
 20
1883.752675562989
 30
0.0
 41
70.0
 42
70.0
 43
70.0
 50
44.99999999999999
  0
LINE
  5
35FA
330
18
100
AcDbEntity
  8
0
  6
ByBlock
 62
     3
100
AcDbLine
 10
2582.332955119166
 20
1834.255200879931
 30
0.0
 11
2532.83548043611
 21
1784.757726196875
 31
0.0
  0
LINE
  5
35FB
330
18
100
AcDbEntity
  8
0
  6
ByBlock
 62
     3
100
AcDbLine
 10
2581.891013380925
 20
1834.697142618175
 30
0.0
 11
2532.393538697869
 21
1785.199667935117
 31
0.0
  0
LINE
  5
35FC
330
18
100
AcDbEntity
  8
0
  6
ByBlock
 62
     3
100
AcDbLine
 10
2611.059168104871
 20
1904.523937260346
 30
0.0
 11
2632.714313278709
 21
1882.868792086507
 31
0.0
  0
LINE
  5
35FD
330
18
100
AcDbEntity
  8
0
  6
ByBlock
 62
     3
100
AcDbLine
 10
2610.617226366629
 20
1904.965878998588
 30
0.0
 11
2632.272371540469
 21
1883.310733824751
 31
0.0
  0
POINT
  5
35FE
330
18
100
AcDbEntity
  8
DEFPOINTS
  6
ByBlock
 62
     0
100
AcDbPoint
 10
2610.617226366629
 20
1904.965878998588
 30
0.0
  0
POINT
  5
35FF
330
18
100
AcDbEntity
  8
DEFPOINTS
  6
ByBlock
 62
     0
100
AcDbPoint
 10
2631.830429802227
 20
1926.179082434185
 30
0.0
  0
POINT
  5
3600
330
18
100
AcDbEntity
  8
DEFPOINTS
  6
ByBlock
 62
     0
100
AcDbPoint
 10
2653.043633237823
 20
1904.965878998588
 30
0.0
  0
POINT
  5
3601
330
18
100
AcDbEntity
  8
DEFPOINTS
  6
ByBlock
 62
     0
100
AcDbPoint
 10
2610.175284628389
 20
1905.40782073683
 30
363.4334507219177
  0
LWPOLYLINE
  5
362B
330
18
100
AcDbEntity
  8
MAINOS
100
AcDbPolyline
 90
        8
 70
     1
 43
0.0
 38
363.4334507219168
 10
1928.046359503051
 20
2439.044321758454
 10
1938.652961248121
 20
2449.650923503525
 10
1949.259562993191
 20
2439.044321758456
 10
1970.472766428786
 20
2460.257525194052
 10
1959.866165160553
 20
2470.864126462283
 10
1938.652961248121
 20
2449.650923503525
 10
1917.439757812524
 20
2470.864126939121
 10
1906.833156067455
 20
2460.257525194052
  0
LWPOLYLINE
  5
37A4
330
18
100
AcDbEntity
  8
0
100
AcDbPolyline
 90
       18
 70
     0
 43
0.0
 38
363.4334507219168
 10
1861.436172803993
 20
2139.958928155914
 10
1874.578343504809
 20
2153.101098299693
 10
1886.159545138741
 20
2141.519895307703
 10
1991.159545138741
 20
2141.519895307703
 10
2002.740746772672
 20
2153.101096941635
 10
2015.876348872617
 20
2139.965494841689
 42
0.4091107284662633
 10
2011.671047468619
 20
2140.002196401709
 10
1980.046070923047
 20
2109.462303787823
 42
-0.1943815895230338
 10
1977.962095101313
 20
2108.620328575725
 10
1951.658024263517
 20
2108.620328575725
 10
1942.258545706929
 20
2099.220847457999
 10
1938.652973432974
 20
2099.220847457999
 10
1935.047401159019
 20
2099.220847457999
 10
1925.647922602431
 20
2108.620328575725
 10
1899.343851764636
 20
2108.620328575725
 42
-0.1943815895230338
 10
1897.259875942902
 20
2109.462303787823
 10
1865.634899397329
 20
2140.002196401709
 42
0.4091107284662821
 10
1861.42959799333
 20
2139.965494841689
  0
LWPOLYLINE
  5
37A6
330
18
100
AcDbEntity
  8
MAINOS
100
AcDbPolyline
 90
       28
 70
     0
 43
0.0
 38
363.4334507219168
 10
2423.021105884592
 20
1965.282778867054
 10
2423.021106360906
 20
1965.282778390739
 42
0.4142135623730952
 10
2423.021106360906
 20
2092.561999004317
 10
2002.29257155491
 20
2513.290533810314
 42
0.4142135561658766
 10
1875.013351336355
 20
2513.290535159014
 10
1454.284808090795
 20
2092.562009746258
 42
0.4142134642110043
 10
1454.284816135333
 20
1965.282778390739
 10
1577.801324411296
 20
1841.575031006856
 10
1599.469934712249
 20
1819.856077099269
 10
1583.913585526143
 20
1804.299727913163
 10
1700.586204421923
 20
1687.627109017383
 10
1900.224258828558
 20
1686.771419794164
 10
1900.224258828558
 20
1664.771419794166
 10
1810.224258828559
 20
1664.771419794166
 10
1818.224258828558
 20
1652.771419794166
 10
1920.224258828558
 20
1652.771419794166
 10
1920.224258828558
 20
1686.771419794164
 10
1957.161353450885
 20
1686.771419794164
 10
1957.161353450885
 20
1652.771419794166
 10
2059.161353450886
 20
1652.771419794166
 10
2067.161353450886
 20
1664.771419794166
 10
1977.161353450886
 20
1664.771419794166
 10
1977.161353450886
 20
1686.771419794164
 10
2176.092301076333
 20
1686.920002236195
 10
2293.472026753301
 20
1804.299727913163
 10
2277.915677567194
 20
1819.856077099266
 10
2299.584287868146
 20
1841.575031006853
 10
2423.021106360907
 20
1965.282779344414
  0
LWPOLYLINE
  5
380A
330
18
100
AcDbEntity
  8
MAINOS
100
AcDbPolyline
 90
       40
 70
     0
 43
0.0
 38
363.4334507219168
 10
2265.3362941563
 20
1800.526898374275
 10
2174.866164683714
 20
1710.056768901686
 42
-0.1989123673796718
 10
2153.652961248118
 20
1701.269972337277
 10
1723.652961248117
 20
1701.269972337279
 42
-0.1118029078675949
 10
1710.406009575319
 20
1701.585816668886
 10
1611.831788950772
 20
1800.389058985113
 10
1654.258195821964
 20
1842.815465856306
 10
1566.980312940326
 20
1930.369027516258
 10
1577.586913094
 20
1940.975627669931
 10
1620.013309849949
 20
1898.549229115716
 10
1626.840002063941
 20
1905.375921040357
 42
0.4137658602248047
 10
1626.843242639287
 20
1901.136530310291
 10
1653.006194823963
 20
1874.973578125614
 10
1656.992516624358
 20
1878.959899559819
 10
1656.682996743902
 20
1871.650350958484
 10
1736.682980054601
 20
1791.650352746624
 10
1763.682990068181
 20
1791.650352746624
 10
1766.682981246693
 20
1794.650343925136
 10
1766.682981246693
 20
1982.650348663705
 10
1763.682990068181
 20
1985.650351018088
 10
1808.152968481546
 20
2030.120325346403
 10
1811.652963287454
 20
2026.620320218321
 10
1938.65296734057
 20
2026.620320218321
 10
2065.652971393686
 20
2026.620320218321
 10
2069.152966199593
 20
2030.120325346403
 10
2113.622944612959
 20
1985.650351018088
 10
2110.622953434446
 20
1982.650348663705
 10
2110.622953434446
 20
1794.650343925136
 10
2113.622944612959
 20
1791.650352746624
 10
2140.622954626539
 20
1791.650352746624
 10
2220.622937937239
 20
1871.650350958484
 10
2220.313418056783
 20
1878.959899559819
 10
2224.299739857176
 20
1874.973578125614
 10
2250.462692041853
 20
1901.136530310291
 42
0.4130195117416586
 10
2250.471326095092
 20
1905.370497234693
 10
2257.292600966924
 20
1898.549222362863
 10
2299.719007838117
 20
1940.975629234056
 10
2310.325609555916
 20
1930.369027516258
 10
2223.047726674277
 20
1842.815465856306
 10
2265.47413354547
 20
1800.389058985113
  0
LWPOLYLINE
  5
381A
330
18
100
AcDbEntity
  8
MAINOS
100
AcDbPolyline
 90
       10
 70
     0
 43
0.0
 38
363.4334507219168
 10
1853.290549316995
 20
2131.826450899628
 10
1853.290549212656
 20
2131.826450795288
 42
0.4091111589381259
 10
1853.253847652635
 20
2127.621156841868
 10
1860.969005817135
 20
2119.631876916046
 42
-0.4091104793848582
 10
1860.932304257116
 20
2115.426582962626
 10
1800.75481414195
 20
2055.249098435397
 42
-0.4091108861452837
 10
1796.54952543169
 20
2055.212398826387
 10
1788.560245558572
 20
2062.927556718651
 42
0.4091108014276881
 10
1784.354950103636
 20
2062.890857661196
 10
1853.288909842394
 20
2131.824812690964
  0
LWPOLYLINE
  5
382D
330
18
100
AcDbEntity
  8
MAINOS
100
AcDbPolyline
 90
        9
 70
     0
 43
0.0
 38
363.4334507219168
 10
1751.467170314774
 20
2030.003077872335
 42
0.4091118042255838
 10
1751.430465573034
 20
2025.797782445679
 10
1759.145629149581
 20
2017.808502544278
 42
-0.4091107426435378
 10
1759.108929628095
 20
2013.603207402284
 10
1713.780685061178
 20
1968.274963766689
 42
-0.4091107992029153
 10
1709.575391345745
 20
1968.238264740443
 10
1701.586111472626
 20
1975.953422632707
 42
0.4091110156717412
 10
1697.38081601769
 20
1975.91672357525
 10
1751.467170314774
 20
2030.00307417761
  0
LWPOLYLINE
  5
382F
330
18
100
AcDbEntity
  8
0
100
AcDbPolyline
 90
        9
 70
     0
 43
0.0
 38
363.4334507219168
 10
1689.241780632696
 20
1967.777682215328
 42
0.4091117802731185
 10
1689.205074512901
 20
1963.572385672981
 10
1696.920232405165
 20
1955.583105799863
 42
-0.4091100468440086
 10
1696.883528226575
 20
1951.377806932087
 10
1651.555298560818
 20
1906.04956981575
 42
-0.4091115643836379
 10
1647.349982255659
 20
1906.01286825573
 10
1639.360714728209
 20
1913.728025888291
 42
0.4091102795365468
 10
1635.155408376417
 20
1913.69132486021
 10
1689.241780632696
 20
1967.777693421762
  0
LWPOLYLINE
  5
3831
330
18
100
AcDbEntity
  8
MAINOS
100
AcDbPolyline
 90
       10
 70
     0
 43
0.0
 38
363.4334507219168
 10
2024.015373179245
 20
2131.826450899628
 10
2024.015373283585
 20
2131.826450795288
 42
-0.4091111589381259
 10
2024.052074843605
 20
2127.621156841868
 10
2016.336916679104
 20
2119.631876916046
 42
0.4091104793848582
 10
2016.373618239124
 20
2115.426582962626
 10
2076.551108354291
 20
2055.249098435397
 42
0.4091108861452837
 10
2080.756397064549
 20
2055.212398826387
 10
2088.745676937669
 20
2062.927556718651
 42
-0.4091108014276881
 10
2092.950972392605
 20
2062.890857661196
 10
2024.017012653847
 20
2131.824812690964
  0
LWPOLYLINE
  5
3832
330
18
100
AcDbEntity
  8
MAINOS
100
AcDbPolyline
 90
        9
 70
     0
 43
0.0
 38
363.4334507219168
 10
2125.838752181466
 20
2030.003077872335
 42
-0.4091118042255838
 10
2125.875456923207
 20
2025.797782445679
 10
2118.16029334666
 20
2017.808502544278
 42
0.4091107426435378
 10
2118.196992868146
 20
2013.603207402284
 10
2163.525237435063
 20
1968.274963766689
 42
0.4091107992029153
 10
2167.730531150496
 20
1968.238264740443
 10
2175.719811023614
 20
1975.953422632707
 42
-0.4091110156717412
 10
2179.925106478552
 20
1975.91672357525
 10
2125.838752181466
 20
2030.00307417761
  0
LWPOLYLINE
  5
3833
330
18
100
AcDbEntity
  8
0
100
AcDbPolyline
 90
        9
 70
     0
 43
0.0
 38
363.4334507219168
 10
2188.064141863545
 20
1967.777682215328
 42
-0.4091117802731185
 10
2188.100847983339
 20
1963.572385672981
 10
2180.385690091076
 20
1955.583105799863
 42
0.4091100468440086
 10
2180.422394269664
 20
1951.377806932087
 10
2225.750623935422
 20
1906.04956981575
 42
0.4091115643836379
 10
2229.955940240582
 20
1906.01286825573
 10
2237.945207768031
 20
1913.728025888291
 42
-0.4091102795365468
 10
2242.150514119824
 20
1913.69132486021
 10
2188.064141863545
 20
1967.777693421762
  0
LWPOLYLINE
  5
3931
330
18
100
AcDbEntity
  8
MAINOS
100
AcDbPolyline
 90
        8
 70
     0
 43
0.0
 38
363.4334507219168
 10
2423.021099323855
 20
2092.56202578152
 10
2486.660727358472
 20
2028.922397746903
 42
-0.2360679732214853
 10
2444.234320143416
 20
1901.643179540369
 10
2183.861113807997
 20
1641.269972337276
 10
1693.444809641919
 20
1641.269972337276
 10
1433.071603306499
 20
1901.643179540369
 42
-0.2360679732214853
 10
1390.645196091442
 20
2028.922397746903
 10
1454.28482412606
 20
2092.56202578152
  0
ENDSEC
  0
SECTION
  2
OBJECTS
  0
DICTIONARY
  5
C
330
0
100
AcDbDictionary
281
     1
  3
ACAD_GROUP
350
D
  3
ACAD_LAYOUT
350
32FC
  3
ACAD_MLINESTYLE
350
1B
  3
ACAD_PLOTSETTINGS
350
32FD
  3
ACAD_PLOTSTYLENAME
350
32FA
  3
ACDBVARIABLEDICTIONARY
350
1C6
  0
DICTIONARY
  5
D
102
{ACAD_REACTORS
330
C
102
}
330
C
100
AcDbDictionary
281
     1
  0
DICTIONARY
  5
32FC
102
{ACAD_REACTORS
330
C
102
}
330
C
100
AcDbDictionary
281
     1
  3
Layout1
350
32FF
  3
Model
350
32FE
  0
DICTIONARY
  5
1B
102
{ACAD_REACTORS
330
C
102
}
330
C
100
AcDbDictionary
281
     1
  3
STANDARD
350
1C
  0
DICTIONARY
  5
32FD
102
{ACAD_REACTORS
330
C
102
}
330
C
100
AcDbDictionary
281
     1
  0
ACDBDICTIONARYWDFLT
  5
32FA
102
{ACAD_REACTORS
330
C
102
}
330
C
100
AcDbDictionary
281
     1
  3
Normal
350
32FB
100
AcDbDictionaryWithDefault
340
32FB
  0
DICTIONARY
  5
1C6
102
{ACAD_REACTORS
330
C
102
}
330
C
100
AcDbDictionary
281
     1
  3
DIMASSOC
350
3303
  3
SORTENTS
350
1C7
  0
LAYOUT
  5
32FF
102
{ACAD_REACTORS
330
32FC
102
}
330
32FC
100
AcDbPlotSettings
  1

  2
\\NUUTJARI\MKASPLA1
  4

  6

 40
0.0
 41
0.0
 42
0.0
 43
0.0
 44
0.0
 45
0.0
 46
0.0
 47
0.0
 48
0.0
 49
0.0
140
0.0
141
0.0
142
1.0
143
1.0
 70
   688
 72
     0
 73
     0
 74
     5
  7

 75
    16
147
1.0
148
0.0
149
0.0
100
AcDbLayout
  1
Layout1
 70
     1
 71
     1
 10
0.0
 20
0.0
 11
420.0
 21
297.0
 12
0.0
 22
0.0
 32
0.0
 14
1.000000000000000E+20
 24
1.000000000000000E+20
 34
1.000000000000000E+20
 15
-1.000000000000000E+20
 25
-1.000000000000000E+20
 35
-1.000000000000000E+20
146
0.0
 13
0.0
 23
0.0
 33
0.0
 16
1.0
 26
0.0
 36
0.0
 17
0.0
 27
1.0
 37
0.0
 76
     0
330
15
  0
LAYOUT
  5
32FE
102
{ACAD_REACTORS
330
32FC
102
}
330
32FC
100
AcDbPlotSettings
  1

  2
Amyuni PDF Converter
  4
A4
  6
OLE1
 40
6.720416999999999
 41
6.805095999999998
 42
6.889755
 43
6.720428
 44
209.9733279999999
 45
296.925995
 46
4.0
 47
45.77
 48
1084.228743342419
 49
1140.327456087364
140
2967.929818517498
141
3059.008079821431
142
1.0
143
10.0
 70
 11956
 72
     1
 73
     0
 74
     4
  7
monochrome.ctb
 75
    20
147
0.1
148
-1084.228743342419
149
-1140.327456087364
100
AcDbLayout
  1
Model
 70
     1
 71
     0
 10
0.0
 20
0.0
 11
12.0
 21
9.0
 12
0.0
 22
0.0
 32
0.0
 14
0.0
 24
0.0
 34
0.0
 15
0.0
 25
0.0
 35
0.0
146
0.0
 13
0.0
 23
0.0
 33
0.0
 16
1.0
 26
0.0
 36
0.0
 17
0.0
 27
1.0
 37
0.0
 76
     0
330
18
  0
MLINESTYLE
  5
1C
102
{ACAD_REACTORS
330
1B
102
}
330
1B
100
AcDbMlineStyle
  2
STANDARD
 70
     0
  3

 62
   256
 51
90.0
 52
90.0
 71
     2
 49
0.5
 62
   256
  6
BYLAYER
 49
-0.5
 62
   256
  6
BYLAYER
  0
ACDBPLACEHOLDER
  5
32FB
102
{ACAD_REACTORS
330
32FA
102
}
330
32FA
  0
DICTIONARYVAR
  5
3303
102
{ACAD_REACTORS
330
1C6
102
}
330
1C6
100
DictionaryVariables
280
     0
  1
1
  0
DICTIONARYVAR
  5
1C7
102
{ACAD_REACTORS
330
1C6
102
}
330
1C6
100
DictionaryVariables
280
     0
  1
96
  0
ENDSEC
  0
EOF
