  0
SECTION
  2
HEADER
  9
$ACADVER
  1
AC1015
  9
$ACADMAINTVER
 70
    14
  9
$DWGCODEPAGE
  3
ANSI_1252
  9
$INSBASE
 10
0.0
 20
0.0
 30
0.0
  9
$EXTMIN
 10
-468.7735616664686
 20
1584.146746761249
 30
-1211.350873079222
  9
$EXTMAX
 10
5032.041090294897
 20
4789.699760909807
 30
363.4815115255978
  9
$LIMMIN
 10
0.0
 20
0.0
  9
$LIMMAX
 10
420.0
 20
297.0
  9
$ORTHOMODE
 70
     1
  9
$REGENMODE
 70
     1
  9
$FILLMODE
 70
     1
  9
$QTEXTMODE
 70
     0
  9
$MIRRTEXT
 70
     1
  9
$LTSCALE
 40
1.0
  9
$ATTMODE
 70
     1
  9
$TEXTSIZE
 40
80.0
  9
$TRACEWID
 40
1.0
  9
$TEXTSTYLE
  7
KUVASTO
  9
$CLAYER
  8
MAINOS
  9
$CELTYPE
  6
BYLAYER
  9
$CECOLOR
 62
   256
  9
$CELTSCALE
 40
1.0
  9
$DISPSILH
 70
     1
  9
$DIMSCALE
 40
0.0
  9
$DIMASZ
 40
70.0
  9
$DIMEXO
 40
0.625
  9
$DIMDLI
 40
3.75
  9
$DIMRND
 40
0.0
  9
$DIMDLE
 40
0.0
  9
$DIMEXE
 40
1.25
  9
$DIMTP
 40
0.0
  9
$DIMTM
 40
0.0
  9
$DIMTXT
 40
60.0
  9
$DIMCEN
 40
2.5
  9
$DIMTSZ
 40
0.0
  9
$DIMTOL
 70
     0
  9
$DIMLIM
 70
     0
  9
$DIMTIH
 70
     0
  9
$DIMTOH
 70
     1
  9
$DIMSE1
 70
     0
  9
$DIMSE2
 70
     0
  9
$DIMTAD
 70
     1
  9
$DIMZIN
 70
     8
  9
$DIMBLK
  1

  9
$DIMASO
 70
     1
  9
$DIMSHO
 70
     1
  9
$DIMPOST
  1

  9
$DIMAPOST
  1

  9
$DIMALT
 70
     0
  9
$DIMALTD
 70
     4
  9
$DIMALTF
 40
0.0394
  9
$DIMLFAC
 40
1.0
  9
$DIMTOFL
 70
     1
  9
$DIMTVP
 40
0.0
  9
$DIMTIX
 70
     0
  9
$DIMSOXD
 70
     0
  9
$DIMSAH
 70
     1
  9
$DIMBLK1
  1
OPEN
  9
$DIMBLK2
  1
OPEN
  9
$DIMSTYLE
  2
STANDARD
  9
$DIMCLRD
 70
     3
  9
$DIMCLRE
 70
     3
  9
$DIMCLRT
 70
     5
  9
$DIMTFAC
 40
1.0
  9
$DIMGAP
 40
20.0
  9
$DIMJUST
 70
     0
  9
$DIMSD1
 70
     0
  9
$DIMSD2
 70
     0
  9
$DIMTOLJ
 70
     1
  9
$DIMTZIN
 70
     0
  9
$DIMALTZ
 70
     0
  9
$DIMALTTZ
 70
     0
  9
$DIMUPT
 70
     0
  9
$DIMDEC
 70
     4
  9
$DIMTDEC
 70
     4
  9
$DIMALTU
 70
     8
  9
$DIMALTTD
 70
     4
  9
$DIMTXSTY
  7
KUVASTO
  9
$DIMAUNIT
 70
     0
  9
$DIMADEC
 70
     0
  9
$DIMALTRND
 40
0.0
  9
$DIMAZIN
 70
     0
  9
$DIMDSEP
 70
    46
  9
$DIMATFIT
 70
     3
  9
$DIMFRAC
 70
     0
  9
$DIMLDRBLK
  1
OPEN
  9
$DIMLUNIT
 70
     6
  9
$DIMLWD
 70
    -2
  9
$DIMLWE
 70
    -2
  9
$DIMTMOVE
 70
     0
  9
$LUNITS
 70
     2
  9
$LUPREC
 70
     4
  9
$SKETCHINC
 40
1.0
  9
$FILLETRAD
 40
150.0
  9
$AUNITS
 70
     0
  9
$AUPREC
 70
     0
  9
$MENU
  1
.
  9
$ELEVATION
 40
0.0
  9
$PELEVATION
 40
0.0
  9
$THICKNESS
 40
0.0
  9
$LIMCHECK
 70
     0
  9
$CHAMFERA
 40
45.0
  9
$CHAMFERB
 40
45.0
  9
$CHAMFERC
 40
20.0
  9
$CHAMFERD
 40
0.0
  9
$SKPOLY
 70
     0
  9
$TDCREATE
 40
2452044.350563495
  9
$TDUCREATE
 40
2452044.267230162
  9
$TDUPDATE
 40
2454777.607405810
  9
$TDUUPDATE
 40
2454777.524072476
  9
$TDINDWG
 40
0.3071507755
  9
$TDUSRTIMER
 40
0.3071505903
  9
$USRTIMER
 70
     1
  9
$ANGBASE
 50
0.0
  9
$ANGDIR
 70
     0
  9
$PDMODE
 70
     0
  9
$PDSIZE
 40
0.0
  9
$PLINEWID
 40
0.0
  9
$SPLFRAME
 70
     0
  9
$SPLINETYPE
 70
     6
  9
$SPLINESEGS
 70
     8
  9
$HANDSEED
  5
3C7F
  9
$SURFTAB1
 70
     6
  9
$SURFTAB2
 70
     6
  9
$SURFTYPE
 70
     6
  9
$SURFU
 70
     6
  9
$SURFV
 70
     6
  9
$UCSBASE
  2

  9
$UCSNAME
  2

  9
$UCSORG
 10
0.0
 20
0.0
 30
0.0
  9
$UCSXDIR
 10
1.0
 20
0.0
 30
0.0
  9
$UCSYDIR
 10
0.0
 20
1.0
 30
0.0
  9
$UCSORTHOREF
  2

  9
$UCSORTHOVIEW
 70
     0
  9
$UCSORGTOP
 10
0.0
 20
0.0
 30
0.0
  9
$UCSORGBOTTOM
 10
0.0
 20
0.0
 30
0.0
  9
$UCSORGLEFT
 10
0.0
 20
0.0
 30
0.0
  9
$UCSORGRIGHT
 10
0.0
 20
0.0
 30
0.0
  9
$UCSORGFRONT
 10
0.0
 20
0.0
 30
0.0
  9
$UCSORGBACK
 10
0.0
 20
0.0
 30
0.0
  9
$PUCSBASE
  2

  9
$PUCSNAME
  2

  9
$PUCSORG
 10
0.0
 20
0.0
 30
0.0
  9
$PUCSXDIR
 10
1.0
 20
0.0
 30
0.0
  9
$PUCSYDIR
 10
0.0
 20
1.0
 30
0.0
  9
$PUCSORTHOREF
  2

  9
$PUCSORTHOVIEW
 70
     0
  9
$PUCSORGTOP
 10
0.0
 20
0.0
 30
0.0
  9
$PUCSORGBOTTOM
 10
0.0
 20
0.0
 30
0.0
  9
$PUCSORGLEFT
 10
0.0
 20
0.0
 30
0.0
  9
$PUCSORGRIGHT
 10
0.0
 20
0.0
 30
0.0
  9
$PUCSORGFRONT
 10
0.0
 20
0.0
 30
0.0
  9
$PUCSORGBACK
 10
0.0
 20
0.0
 30
0.0
  9
$USERI1
 70
     0
  9
$USERI2
 70
     0
  9
$USERI3
 70
     0
  9
$USERI4
 70
     0
  9
$USERI5
 70
     0
  9
$USERR1
 40
0.0
  9
$USERR2
 40
0.0
  9
$USERR3
 40
0.0
  9
$USERR4
 40
0.0
  9
$USERR5
 40
0.0
  9
$WORLDVIEW
 70
     1
  9
$SHADEDGE
 70
     3
  9
$SHADEDIF
 70
    70
  9
$TILEMODE
 70
     1
  9
$MAXACTVP
 70
    48
  9
$PINSBASE
 10
0.0
 20
0.0
 30
0.0
  9
$PLIMCHECK
 70
     0
  9
$PEXTMIN
 10
1.000000000000000E+20
 20
1.000000000000000E+20
 30
1.000000000000000E+20
  9
$PEXTMAX
 10
-1.000000000000000E+20
 20
-1.000000000000000E+20
 30
-1.000000000000000E+20
  9
$PLIMMIN
 10
0.0
 20
0.0
  9
$PLIMMAX
 10
420.0
 20
297.0
  9
$UNITMODE
 70
     0
  9
$VISRETAIN
 70
     1
  9
$PLINEGEN
 70
     0
  9
$PSLTSCALE
 70
     1
  9
$TREEDEPTH
 70
  3020
  9
$CMLSTYLE
  2
STANDARD
  9
$CMLJUST
 70
     0
  9
$CMLSCALE
 40
20.0
  9
$PROXYGRAPHICS
 70
     1
  9
$MEASUREMENT
 70
     1
  9
$CELWEIGHT
370
    -1
  9
$ENDCAPS
280
     0
  9
$JOINSTYLE
280
     0
  9
$LWDISPLAY
290
     0
  9
$INSUNITS
 70
     0
  9
$HYPERLINKBASE
  1

  9
$STYLESHEET
  1
MONOCHROME.CTB
  9
$XEDIT
290
     1
  9
$CEPSNTYPE
380
     0
  9
$PSTYLEMODE
290
     1
  9
$FINGERPRINTGUID
  2
{0A328C68-E647-11D6-B917-000103D6C2BD}
  9
$VERSIONGUID
  2
{EFD61889-A740-4701-8CD8-56DDAEF137BE}
  9
$EXTNAMES
290
     1
  9
$PSVPSCALE
 40
0.0
  9
$OLESTARTUP
290
     0
  0
ENDSEC
  0
SECTION
  2
CLASSES
  0
CLASS
  1
LWPOLYLINE
  2
AcDbPolyline
  3
AutoCAD 2000
 90
    32768
280
     0
281
     1
  0
CLASS
  1
DICTIONARYVAR
  2
AcDbDictionaryVar
  3
AutoCAD 2000
 90
        0
280
     0
281
     0
  0
CLASS
  1
HATCH
  2
AcDbHatch
  3
AutoCAD 2000
 90
    32768
280
     0
281
     1
  0
CLASS
  1
ACDBDICTIONARYWDFLT
  2
AcDbDictionaryWithDefault
  3
AutoCAD 2000
 90
        0
280
     0
281
     0
  0
CLASS
  1
ACDBPLACEHOLDER
  2
AcDbPlaceHolder
  3
AutoCAD 2000
 90
        0
280
     0
281
     0
  0
CLASS
  1
LAYOUT
  2
AcDbLayout
  3
AutoCAD 2000
 90
        0
280
     0
281
     0
  0
ENDSEC
  0
SECTION
  2
TABLES
  0
TABLE
  2
VPORT
  5
8
330
0
100
AcDbSymbolTable
 70
     2
  0
VPORT
  5
3C7E
330
8
100
AcDbSymbolTableRecord
100
AcDbViewportTableRecord
  2
*Active
 70
     0
 10
0.0
 20
0.0
 11
1.0
 21
1.0
 12
4314.642330721724
 22
2227.011028687705
 13
0.0
 23
0.0
 14
10.0
 24
10.0
 15
10.0
 25
10.0
 16
0.0
 26
0.0
 36
1.0
 17
0.0
 27
0.0
 37
0.0
 40
1591.341102528726
 41
1.844
 42
50.0
 43
0.0
 44
0.0
 50
0.0
 51
0.0
 71
     0
 72
 20000
 73
     1
 74
     1
 75
     0
 76
     0
 77
     0
 78
     0
281
     0
 65
     1
110
0.0
120
0.0
130
0.0
111
1.0
121
0.0
131
0.0
112
0.0
122
1.0
132
0.0
 79
     0
146
0.0
  0
ENDTAB
  0
TABLE
  2
LTYPE
  5
5
330
0
100
AcDbSymbolTable
 70
     1
  0
LTYPE
  5
12
330
5
100
AcDbSymbolTableRecord
100
AcDbLinetypeTableRecord
  2
BYBLOCK
 70
     0
  3

 72
    65
 73
     0
 40
0.0
  0
LTYPE
  5
13
330
5
100
AcDbSymbolTableRecord
100
AcDbLinetypeTableRecord
  2
BYLAYER
 70
     0
  3

 72
    65
 73
     0
 40
0.0
  0
LTYPE
  5
14
330
5
100
AcDbSymbolTableRecord
100
AcDbLinetypeTableRecord
  2
CONTINUOUS
 70
     0
  3
Solid line
 72
    65
 73
     0
 40
0.0
  0
ENDTAB
  0
TABLE
  2
LAYER
  5
2
330
0
100
AcDbSymbolTable
 70
     6
  0
LAYER
  5
E
330
2
100
AcDbSymbolTableRecord
100
AcDbLayerTableRecord
  2
0
 70
     0
 62
     7
  6
CONTINUOUS
370
    -3
390
32FB
  0
LAYER
  5
158B
330
2
100
AcDbSymbolTableRecord
100
AcDbLayerTableRecord
  2
HORMILIITOS
 70
     0
 62
     6
  6
CONTINUOUS
370
    -3
390
32FB
  0
LAYER
  5
1592
330
2
100
AcDbSymbolTableRecord
100
AcDbLayerTableRecord
  2
MITAT
 70
     0
 62
     5
  6
CONTINUOUS
370
    -3
390
32FB
  0
LAYER
  5
1938
330
2
100
AcDbSymbolTableRecord
100
AcDbLayerTableRecord
  2
LUUKUN-AUKKO
 70
     0
 62
     4
  6
CONTINUOUS
370
    -3
390
32FB
  0
LAYER
  5
1963
330
2
100
AcDbSymbolTableRecord
100
AcDbLayerTableRecord
  2
MAINOS
 70
     0
 62
     7
  6
CONTINUOUS
370
    -3
390
32FB
  0
LAYER
  5
1F3E
330
2
100
AcDbSymbolTableRecord
100
AcDbLayerTableRecord
  2
DEFPOINTS
 70
     0
 62
     7
  6
CONTINUOUS
290
     0
370
    -3
390
32FB
  0
ENDTAB
  0
TABLE
  2
STYLE
  5
3
330
0
100
AcDbSymbolTable
 70
     2
  0
STYLE
  5
F
330
3
100
AcDbSymbolTableRecord
100
AcDbTextStyleTableRecord
  2
STANDARD
 70
     0
 40
0.0
 41
1.0
 50
0.0
 71
     0
 42
2.5
  3

  4

1001
ACAD
1000
AGaramond
1071
 33554450
  0
STYLE
  5
15F2
330
3
100
AcDbSymbolTableRecord
100
AcDbTextStyleTableRecord
  2
KUVASTO
 70
     0
 40
70.0
 41
1.0
 50
0.0
 71
     0
 42
80.0
  3
Foustbk_.ttf
  4

1001
ACAD
1000
FoundrySterling-Book
1071
        2
  0
ENDTAB
  0
TABLE
  2
VIEW
  5
6
330
0
100
AcDbSymbolTable
 70
     0
  0
ENDTAB
  0
TABLE
  2
UCS
  5
7
330
0
100
AcDbSymbolTable
 70
     0
  0
ENDTAB
  0
TABLE
  2
APPID
  5
9
330
0
100
AcDbSymbolTable
 70
     4
  0
APPID
  5
10
330
9
100
AcDbSymbolTableRecord
100
AcDbRegAppTableRecord
  2
ACAD
 70
     0
  0
APPID
  5
1939
330
9
100
AcDbSymbolTableRecord
100
AcDbRegAppTableRecord
  2
AME_SOL
 70
     0
  0
APPID
  5
193A
330
9
100
AcDbSymbolTableRecord
100
AcDbRegAppTableRecord
  2
TULIKIVI
 70
     0
  0
APPID
  5
3A0B
330
9
100
AcDbSymbolTableRecord
100
AcDbRegAppTableRecord
  2
AVE_INVOKE
 70
     0
  0
ENDTAB
  0
TABLE
  2
DIMSTYLE
  5
A
330
0
100
AcDbSymbolTable
 70
     1
100
AcDbDimStyleTable
 71
     1
340
1D
  0
DIMSTYLE
105
1D
102
{ACAD_REACTORS
330
3B77
330
3B78
330
3B79
330
3B83
102
}
330
A
100
AcDbSymbolTableRecord
100
AcDbDimStyleTableRecord
  2
STANDARD
 70
     0
 40
0.0
 41
70.0
 42
0.625
 43
3.75
 44
1.25
 73
     0
 77
     1
 78
     8
140
60.0
141
2.5
143
0.0394
147
20.0
171
     4
172
     1
173
     1
176
     3
177
     3
178
     5
273
     8
274
     4
277
     6
340
15F2
341
15A1
343
15A1
344
15A1
  0
ENDTAB
  0
TABLE
  2
BLOCK_RECORD
  5
1
330
0
100
AcDbSymbolTable
 70
     5
  0
BLOCK_RECORD
  5
18
330
1
100
AcDbSymbolTableRecord
100
AcDbBlockTableRecord
  2
*MODEL_SPACE
340
32FE
  0
BLOCK_RECORD
  5
15
330
1
100
AcDbSymbolTableRecord
100
AcDbBlockTableRecord
  2
*PAPER_SPACE
340
32FF
  0
BLOCK_RECORD
  5
15A1
330
1
100
AcDbSymbolTableRecord
100
AcDbBlockTableRecord
  2
_OPEN
340
0
102
{BLKREFS
331
3583
331
3584
331
358C
331
358D
331
3598
331
35A5
331
35A2
331
3593
331
35CF
331
35D0
331
35F9
331
35F8
331
35F5
331
361A
331
361B
331
3A29
331
3A2E
331
3949
331
394A
331
3957
331
3958
331
396F
331
3970
331
393D
331
393E
331
3963
331
3964
331
3987
331
3988
331
39BA
331
39BB
331
3993
331
3994
331
39A1
331
39A2
331
397B
331
397C
331
39CE
331
39CF
331
39DA
331
39DB
331
39E9
331
39EA
331
3A25
331
3A26
331
39F5
331
39F6
331
3A03
331
3A04
331
3A3B
331
3A3C
331
3B9E
331
3B9F
331
3BAA
331
3BAB
331
3BB6
331
3BB7
331
3B80
331
3B81
331
3BC2
331
3BC3
331
3B84
331
3B89
331
3B96
331
3B97
331
3BCD
331
3BCE
331
3BD6
331
3BD7
331
3BDF
331
3BE0
331
3BE8
331
3BE9
331
3BF9
331
3BFA
331
3C06
331
3C07
102
}
  0
BLOCK_RECORD
  5
3B9A
330
1
100
AcDbSymbolTableRecord
100
AcDbBlockTableRecord
  2
*D1
340
0
  0
BLOCK_RECORD
  5
3BA6
330
1
100
AcDbSymbolTableRecord
100
AcDbBlockTableRecord
  2
*D2
340
0
  0
BLOCK_RECORD
  5
3BB2
330
1
100
AcDbSymbolTableRecord
100
AcDbBlockTableRecord
  2
*D3
340
0
  0
BLOCK_RECORD
  5
3BBE
330
1
100
AcDbSymbolTableRecord
100
AcDbBlockTableRecord
  2
*D4
340
0
  0
ENDTAB
  0
ENDSEC
  0
SECTION
  2
BLOCKS
  0
BLOCK
  5
19
330
18
100
AcDbEntity
  8
0
100
AcDbBlockBegin
  2
*MODEL_SPACE
 70
     0
 10
0.0
 20
0.0
 30
0.0
  3
*MODEL_SPACE
  1

  0
ENDBLK
  5
1A
330
18
100
AcDbEntity
  8
0
100
AcDbBlockEnd
  0
BLOCK
  5
16
330
15
100
AcDbEntity
 67
     1
  8
0
100
AcDbBlockBegin
  2
*PAPER_SPACE
 70
     0
 10
0.0
 20
0.0
 30
0.0
  3
*PAPER_SPACE
  1

  0
ENDBLK
  5
17
330
15
100
AcDbEntity
 67
     1
  8
0
100
AcDbBlockEnd
  0
BLOCK
  5
15A2
330
15A1
100
AcDbEntity
  8
0
100
AcDbBlockBegin
  2
_OPEN
 70
     0
 10
0.0
 20
0.0
 30
0.0
  3
_OPEN
  1

  0
LINE
  5
15A3
330
15A1
100
AcDbEntity
  8
0
  6
ByBlock
 62
     0
100
AcDbLine
 10
-1.0
 20
0.1666666666666666
 30
0.0
 11
0.0
 21
0.0
 31
0.0
  0
LINE
  5
15A4
330
15A1
100
AcDbEntity
  8
0
  6
ByBlock
 62
     0
100
AcDbLine
 10
0.0
 20
0.0
 30
0.0
 11
-1.0
 21
-0.1666666666666666
 31
0.0
  0
LINE
  5
15A5
330
15A1
100
AcDbEntity
  8
0
  6
ByBlock
 62
     0
100
AcDbLine
 10
0.0
 20
0.0
 30
0.0
 11
-1.0
 21
0.0
 31
0.0
  0
ENDBLK
  5
15A6
330
15A1
100
AcDbEntity
  8
0
100
AcDbBlockEnd
  0
BLOCK
  5
3BA4
330
3B9A
100
AcDbEntity
  8
0
100
AcDbBlockBegin
  2
*D1
 70
     1
 10
0.0
 20
0.0
 30
0.0
  3
*D1
  1

  0
LINE
  5
3BCA
330
3B9A
100
AcDbEntity
  8
MAINOS
 62
     3
370
    -2
100
AcDbLine
 10
3619.673126826075
 20
1794.328130791754
 30
0.0
 11
3581.046545982361
 21
1794.33143903201
 31
0.0
  0
LINE
  5
3BCB
330
3B9A
100
AcDbEntity
  8
MAINOS
 62
     3
370
    -2
100
AcDbLine
 10
3619.742035498385
 20
2598.896782554211
 30
0.0
 11
3581.115454654671
 21
2598.900090794467
 31
0.0
  0
LINE
  5
3BCC
330
3B9A
100
AcDbEntity
  8
MAINOS
 62
     3
370
    -2
100
AcDbLine
 10
3582.302541248698
 20
1864.331331716863
 30
0.0
 11
3582.359459379162
 21
2528.899983992795
 31
0.0
  0
INSERT
  5
3BCD
330
3B9A
100
AcDbEntity
  8
MAINOS
 62
     3
370
    -2
100
AcDbBlockReference
  2
_OPEN
 10
3582.296545977776
 20
1794.3313319736
 30
0.0
 41
70.0
 42
70.0
 43
70.0
 50
269.9950928039801
  0
INSERT
  5
3BCE
330
3B9A
100
AcDbEntity
  8
MAINOS
 62
     3
370
    -2
100
AcDbBlockReference
  2
_OPEN
 10
3582.365454650086
 20
2598.899983736057
 30
0.0
 41
70.0
 42
70.0
 43
70.0
 50
89.99509280398021
  0
MTEXT
  5
3BCF
330
3B9A
100
AcDbEntity
  8
MAINOS
 62
     5
100
AcDbMText
 10
3526.019156442504
 20
2196.620480779993
 30
0.0
 40
70.0
 41
0.0
 71
     5
 72
     1
  1
\A1;783
  7
KUVASTO
 11
0.0000856467274812
 21
0.999999996332319
 31
0.0
 73
     1
 44
1.0
  0
POINT
  5
3BD0
330
3B9A
100
AcDbEntity
  8
DEFPOINTS
 62
     0
100
AcDbPoint
 10
3620.298126823783
 20
1794.32807726255
 30
0.0
  0
POINT
  5
3BD1
330
3B9A
100
AcDbEntity
  8
DEFPOINTS
 62
     0
100
AcDbPoint
 10
3620.367035496093
 20
2598.896729025007
 30
0.0
  0
POINT
  5
3BD2
330
3B9A
100
AcDbEntity
  8
DEFPOINTS
 62
     0
100
AcDbPoint
 10
3582.365454650086
 20
2598.899983736057
 30
0.0
  0
ENDBLK
  5
3BA5
330
3B9A
100
AcDbEntity
  8
0
100
AcDbBlockEnd
  0
BLOCK
  5
3BB0
330
3BA6
100
AcDbEntity
  8
0
100
AcDbBlockBegin
  2
*D2
 70
     1
 10
0.0
 20
0.0
 30
0.0
  3
*D2
  1

  0
LINE
  5
3BD3
330
3BA6
100
AcDbEntity
  8
MAINOS
 62
     3
370
    -2
100
AcDbLine
 10
3732.046864273701
 20
1670.291253925375
 30
0.0
 11
3732.046864273701
 21
1594.713662960105
 31
0.0
  0
LINE
  5
3BD4
330
3BA6
100
AcDbEntity
  8
MAINOS
 62
     3
370
    -2
100
AcDbLine
 10
4679.569951063675
 20
1670.291253925372
 30
0.0
 11
4679.569951063675
 21
1594.713662960105
 31
0.0
  0
LINE
  5
3BD5
330
3BA6
100
AcDbEntity
  8
MAINOS
 62
     3
370
    -2
100
AcDbLine
 10
3802.0468642737
 20
1595.963662960105
 30
0.0
 11
4609.569951063675
 21
1595.963662960105
 31
0.0
  0
INSERT
  5
3BD6
330
3BA6
100
AcDbEntity
  8
MAINOS
 62
     3
370
    -2
100
AcDbBlockReference
  2
_OPEN
 10
3732.046864273701
 20
1595.963662960105
 30
0.0
 41
70.0
 42
70.0
 43
70.0
 50
180.0
  0
INSERT
  5
3BD7
330
3BA6
100
AcDbEntity
  8
MAINOS
 62
     3
370
    -2
100
AcDbBlockReference
  2
_OPEN
 10
4679.569951063675
 20
1595.963662960105
 30
0.0
 41
70.0
 42
70.0
 43
70.0
  0
MTEXT
  5
3BD8
330
3BA6
100
AcDbEntity
  8
MAINOS
 62
     5
100
AcDbMText
 10
4205.808407668687
 20
1652.275507038066
 30
0.0
 40
70.0
 41
0.0
 71
     5
 72
     1
  1
\A1;943
  7
KUVASTO
 73
     1
 44
1.0
  0
POINT
  5
3BD9
330
3BA6
100
AcDbEntity
  8
DEFPOINTS
 62
     0
100
AcDbPoint
 10
3732.046864273701
 20
1670.916253925375
 30
-1211.302819608479
  0
POINT
  5
3BDA
330
3BA6
100
AcDbEntity
  8
DEFPOINTS
 62
     0
100
AcDbPoint
 10
4679.569951063675
 20
1670.916253925372
 30
-1211.302819608479
  0
POINT
  5
3BDB
330
3BA6
100
AcDbEntity
  8
DEFPOINTS
 62
     0
100
AcDbPoint
 10
4679.569951063675
 20
1595.963662960105
 30
0.0
  0
ENDBLK
  5
3BB1
330
3BA6
100
AcDbEntity
  8
0
100
AcDbBlockEnd
  0
BLOCK
  5
3BBC
330
3BB2
100
AcDbEntity
  8
0
100
AcDbBlockBegin
  2
*D3
 70
     1
 10
0.0
 20
0.0
 30
0.0
  3
*D3
  1

  0
LINE
  5
3BDC
330
3BB2
100
AcDbEntity
  8
MITAT
 62
     3
370
    -2
100
AcDbLine
 10
4323.376825257489
 20
2716.40586179925
 30
0.0
 11
4301.721680083597
 21
2694.750716625351
 31
0.0
  0
LINE
  5
3BDD
330
3BB2
100
AcDbEntity
  8
MITAT
 62
     3
370
    -2
100
AcDbLine
 10
4797.138368652475
 20
2242.644318404265
 30
0.0
 11
4775.483223478641
 21
2220.989173230426
 31
0.0
  0
LINE
  5
3BDE
330
3BB2
100
AcDbEntity
  8
MITAT
 62
     3
370
    -2
100
AcDbLine
 10
4352.103038243142
 20
2646.137125418784
 30
0.0
 11
4726.869632272058
 21
2271.370531389961
 31
0.0
  0
INSERT
  5
3BDF
330
3BB2
100
AcDbEntity
  8
MITAT
 62
     3
370
    -2
100
AcDbBlockReference
  2
_OPEN
 10
4302.60556356008
 20
2695.634600101836
 30
0.0
 41
70.0
 42
70.0
 43
70.0
 50
135.0000000000071
  0
INSERT
  5
3BE0
330
3BB2
100
AcDbEntity
  8
MITAT
 62
     3
370
    -2
100
AcDbBlockReference
  2
_OPEN
 10
4776.367106955123
 20
2221.873056706908
 30
0.0
 41
70.0
 42
70.0
 43
70.0
 50
315.000000000007
  0
MTEXT
  5
3BE1
330
3BB2
100
AcDbEntity
  8
MITAT
 62
     5
100
AcDbMText
 10
4579.304822066241
 20
2498.572315213024
 30
0.0
 40
70.0
 41
0.0
 71
     5
 72
     1
  1
\A1;670
  7
KUVASTO
 11
0.7071067811866355
 21
-0.7071067811864597
 31
0.0
 73
     1
 44
1.0
  0
POINT
  5
3BE2
330
3BB2
100
AcDbEntity
  8
DEFPOINTS
 62
     0
100
AcDbPoint
 10
4323.818766995731
 20
2716.847803537492
 30
-1211.302819608479
  0
POINT
  5
3BE3
330
3BB2
100
AcDbEntity
  8
DEFPOINTS
 62
     0
100
AcDbPoint
 10
4797.580310390715
 20
2243.086260142507
 30
-1211.302819608479
  0
POINT
  5
3BE4
330
3BB2
100
AcDbEntity
  8
DEFPOINTS
 62
     0
100
AcDbPoint
 10
4776.367106955123
 20
2221.873056706908
 30
0.0
  0
ENDBLK
  5
3BBD
330
3BB2
100
AcDbEntity
  8
0
100
AcDbBlockEnd
  0
BLOCK
  5
3BC8
330
3BBE
100
AcDbEntity
  8
0
100
AcDbBlockBegin
  2
*D4
 70
     1
 10
0.0
 20
0.0
 30
0.0
  3
*D4
  1

  0
LINE
  5
3BE5
330
3BBE
100
AcDbEntity
  8
MITAT
 62
     3
370
    -2
100
AcDbLine
 10
4799.773472309642
 20
2004.872379569496
 30
0.0
 11
4821.428617483519
 21
1983.217234395614
 31
0.0
  0
LINE
  5
3BE6
330
3BBE
100
AcDbEntity
  8
MITAT
 62
     3
370
    -2
100
AcDbLine
 10
4481.575420775697
 20
1686.674328035547
 30
0.0
 11
4503.230565949531
 21
1665.019182861706
 31
0.0
  0
LINE
  5
3BE7
330
3BBE
100
AcDbEntity
  8
MITAT
 62
     3
370
    -2
100
AcDbLine
 10
4771.047259323971
 20
1934.603643189045
 30
0.0
 11
4551.844157156113
 21
1715.400541021242
 31
0.0
  0
INSERT
  5
3BE8
330
3BBE
100
AcDbEntity
  8
MITAT
 62
     3
370
    -2
100
AcDbBlockReference
  2
_OPEN
 10
4820.544734007035
 20
1984.101117872096
 30
0.0
 41
70.0
 42
70.0
 43
70.0
 50
44.99999999999288
  0
INSERT
  5
3BE9
330
3BBE
100
AcDbEntity
  8
MITAT
 62
     3
370
    -2
100
AcDbBlockReference
  2
_OPEN
 10
4502.346682473048
 20
1665.90306633819
 30
0.0
 41
70.0
 42
70.0
 43
70.0
 50
224.9999999999928
  0
MTEXT
  5
3BEA
330
3BBE
100
AcDbEntity
  8
MITAT
 62
     5
100
AcDbMText
 10
4621.6272214314
 20
1864.820578913794
 30
0.0
 40
70.0
 41
0.0
 71
     5
 72
     1
  1
\A1;450
  7
KUVASTO
 11
0.7071067811866355
 21
0.7071067811864597
 31
0.0
 73
     1
 44
1.0
  0
POINT
  5
3BEB
330
3BBE
100
AcDbEntity
  8
DEFPOINTS
 62
     0
100
AcDbPoint
 10
4799.3315305714
 20
2005.314321307737
 30
-1211.302819608479
  0
POINT
  5
3BEC
330
3BBE
100
AcDbEntity
  8
DEFPOINTS
 62
     0
100
AcDbPoint
 10
4481.133479037455
 20
1687.116269773789
 30
-1211.302819608479
  0
POINT
  5
3BED
330
3BBE
100
AcDbEntity
  8
DEFPOINTS
 62
     0
100
AcDbPoint
 10
4502.346682473048
 20
1665.90306633819
 30
0.0
  0
ENDBLK
  5
3BC9
330
3BBE
100
AcDbEntity
  8
0
100
AcDbBlockEnd
  0
ENDSEC
  0
SECTION
  2
ENTITIES
  0
LWPOLYLINE
  5
3B67
330
18
100
AcDbEntity
  8
0
100
AcDbPolyline
 90
        9
 70
     0
 43
0.0
 38
-1211.302819608479
 10
3987.617266045074
 20
2062.396575210689
 42
-0.4091101727769756
 10
3991.822560905954
 20
2062.433277741661
 10
3999.811839924316
 20
2054.718126056789
 42
0.4091097354256758
 10
4004.017136234009
 20
2054.754818906853
 10
4064.194621930369
 20
2114.932304603215
 42
0.4091108014276978
 10
4064.231320987826
 20
2119.13760005815
 10
4056.516167388418
 20
2127.126876710056
 42
-0.331641852503201
 10
4056.060307268009
 20
2130.683140063811
 10
3988.266306303525
 20
2062.889139099328
  0
LWPOLYLINE
  5
3B68
330
18
100
AcDbEntity
  8
MAINOS
100
AcDbPolyline
 90
       22
 70
     1
 43
0.0
 38
-1211.302819608479
 10
4227.021611104283
 20
2492.771427032467
 10
4205.808407668685
 20
2471.558223596871
 10
4184.595204233089
 20
2492.771427032467
 10
4173.988602515292
 20
2482.164825314669
 10
4195.201805950888
 20
2460.951621879072
 10
3880.539288322875
 20
2146.289104251059
 10
3919.430161288135
 20
2107.398231285798
 10
3898.216957852538
 20
2086.185027850202
 10
4023.37485812255
 20
1961.02712758018
 10
3980.948451251357
 20
1918.600720708985
 10
4065.801264993742
 20
1833.747906966601
 42
0.1989123673797274
 10
4087.014468429347
 20
1824.961110402196
 10
4324.602346908029
 20
1824.961110402196
 42
0.1989123673796894
 10
4345.815550343628
 20
1833.747906966601
 10
4430.668364086015
 20
1918.600720708985
 10
4388.241957214822
 20
1961.027127580178
 10
4513.399857484835
 20
2086.185027850202
 10
4492.186654049239
 20
2107.398231285798
 10
4531.077527014498
 20
2146.289104251059
 10
4216.415009386484
 20
2460.951621879072
 10
4237.628212822082
 20
2482.164825314669
 10
4227.021611104283
 20
2492.771427032467
  0
LWPOLYLINE
  5
3B69
330
18
100
AcDbEntity
  8
MAINOS
100
AcDbPolyline
 90
        5
 70
     0
 43
0.0
 38
-1211.302819608479
 10
4520.470925296704
 20
1965.976875048488
 10
4679.569951063675
 20
2125.075900815459
 10
4205.808407668687
 20
2598.837444210449
 10
3732.046864273701
 20
2125.075900815462
 10
3891.145890040673
 20
1965.976875048486
  0
LWPOLYLINE
  5
3B6A
330
18
100
AcDbEntity
  8
LUUKUN-AUKKO
100
AcDbPolyline
 90
        4
 70
     0
 43
0.0
 38
-1211.302819608479
 10
4023.37485812255
 20
1961.02712758018
 10
4108.227671864935
 20
1876.174313837793
 10
4303.389143472437
 20
1876.174313837793
 10
4388.241957214822
 20
1961.027127580178
  0
LWPOLYLINE
  5
3B6B
330
18
100
AcDbEntity
  8
HORMILIITOS
100
AcDbPolyline
 90
        3
 70
     0
 43
0.0
 38
-1211.302819608479
 10
4615.930340756884
 20
2231.141917993443
 10
4205.808407668687
 20
2641.263851081643
 10
3795.686474580488
 20
2231.141917993443
  0
LWPOLYLINE
  5
3B6F
330
18
100
AcDbEntity
  8
MAINOS
100
AcDbPolyline
 90
        2
 70
     0
 43
0.0
 38
-1211.302819608479
 10
3912.359093476268
 20
1965.976875048487
 10
3891.145890040673
 20
1965.976875048486
  0
LWPOLYLINE
  5
3B70
330
18
100
AcDbEntity
  8
MAINOS
100
AcDbPolyline
 90
        2
 70
     0
 43
0.0
 38
-1211.302819608479
 10
4499.257721861102
 20
1965.976875048488
 10
4520.470925296704
 20
1965.976875048488
  0
LWPOLYLINE
  5
3B71
330
18
100
AcDbEntity
  8
MAINOS
100
AcDbPolyline
 90
       14
 70
     0
 43
0.0
 38
-1211.302819608479
 10
3912.359093476268
 20
1965.976875048487
 10
3922.965695194066
 20
1976.583476766283
 10
3959.699892476702
 20
1938.081512530668
 10
3941.699892476707
 20
1938.081512530668
 10
3940.815558510387
 20
1854.081512530669
 10
3960.730007124126
 20
1854.081512530669
 10
3959.699892476707
 20
1897.308398967658
 10
4062.739498996378
 20
1794.268792447992
 10
4348.739498996374
 20
1794.26879244799
 10
4447.407378979024
 20
1892.936672430642
 10
4466.15436281341
 20
1903.198431954829
 10
4451.779105516057
 20
1938.081512530671
 10
4488.651120143305
 20
1976.583476766283
 10
4499.257721861102
 20
1965.976875048488
  0
LWPOLYLINE
  5
3B72
330
18
100
AcDbEntity
  8
MAINOS
100
AcDbPolyline
 90
        2
 70
     0
 43
0.0
 38
-1211.302819608479
 10
3891.145890040673
 20
1965.976875048486
 10
3941.463832370277
 20
1915.658932718881
  0
LWPOLYLINE
  5
3B73
330
18
100
AcDbEntity
  8
MAINOS
100
AcDbPolyline
 90
        2
 70
     0
 43
0.0
 38
-1211.302819608479
 10
4520.470925296704
 20
1965.976875048488
 10
4463.684898429399
 20
1909.190848181182
  0
LWPOLYLINE
  5
3B74
330
18
100
AcDbEntity
  8
MAINOS
100
AcDbPolyline
 90
        4
 70
     0
 43
0.0
 38
-1211.302819608479
 10
3689.613116076713
 20
2082.656836540604
 10
4037.880602756252
 20
1734.268792447992
 10
4373.591072695236
 20
1734.268792447989
 10
4721.994861032579
 20
2082.647997094793
  0
LWPOLYLINE
  5
3B75
330
18
100
AcDbEntity
  8
MAINOS
100
AcDbPolyline
 90
        2
 70
     0
 43
0.0
 38
-1211.302819608479
 10
4721.994861032579
 20
2082.647997094793
 10
4679.569951063675
 20
2125.075900815459
  0
LWPOLYLINE
  5
3B76
330
18
100
AcDbEntity
  8
MAINOS
100
AcDbPolyline
 90
        2
 70
     0
 43
0.0
 38
-1211.302819608479
 10
3689.613116076713
 20
2082.656836540604
 10
3732.046864273701
 20
2125.075900815462
  0
DIMENSION
  5
3B77
330
18
100
AcDbEntity
  8
MAINOS
100
AcDbDimension
  2
*D1
 10
3582.365454650086
 20
2598.899983736057
 30
0.0
 11
3526.019156442504
 21
2196.620480779993
 31
0.0
 70
    33
  1
783
 71
     5
 42
804.5686547133582
  3
STANDARD
100
AcDbAlignedDimension
 13
3620.298126823783
 23
1794.32807726255
 33
0.0
 14
3620.367035496093
 24
2598.896729025007
 34
0.0
1001
ACAD
1000
DSTYLE
1002
{
1070
    40
1040
1.0
1002
}
  0
DIMENSION
  5
3B78
330
18
100
AcDbEntity
  8
MAINOS
100
AcDbDimension
  2
*D2
 10
4679.569951063675
 20
1595.963662960105
 30
0.0
 11
4205.808407668687
 21
1652.275507038066
 31
0.0
 70
    33
  1
943
 71
     5
 42
947.5230867899735
  3
STANDARD
100
AcDbAlignedDimension
 13
3732.046864273701
 23
1670.916253925375
 33
-1211.302819608479
 14
4679.569951063675
 24
1670.916253925372
 34
-1211.302819608479
1001
ACAD
1000
DSTYLE
1002
{
1070
    40
1040
1.0
1002
}
  0
DIMENSION
  5
3B79
330
18
100
AcDbEntity
  8
MITAT
100
AcDbDimension
  2
*D3
 10
4776.367106955123
 20
2221.873056706908
 30
0.0
 11
4579.304822066241
 21
2498.572315213024
 31
0.0
 70
    32
 71
     5
 42
669.9999999999978
  3
STANDARD
100
AcDbAlignedDimension
 13
4323.818766995731
 23
2716.847803537492
 33
-1211.302819608479
 14
4797.580310390715
 24
2243.086260142507
 34
-1211.302819608479
 50
315.000000000007
100
AcDbRotatedDimension
1001
ACAD
1000
DSTYLE
1002
{
1070
    40
1040
1.0
1002
}
  0
LINE
  5
3B7A
330
18
100
AcDbEntity
  8
MITAT
 62
     3
100
AcDbLine
 10
4323.376825257488
 20
2716.405861799252
 30
0.0
 11
4301.721680083654
 21
2694.750716625414
 31
0.0
  0
LINE
  5
3B7B
330
18
100
AcDbEntity
  8
MITAT
 62
     3
100
AcDbLine
 10
4302.163621821892
 20
2737.619065234849
 30
0.0
 11
4280.508476648058
 21
2715.963920061009
 31
0.0
  0
LINE
  5
3B7C
330
18
100
AcDbEntity
  8
MITAT
 62
     3
100
AcDbLine
 10
4352.1030382432
 20
2646.137125418844
 30
0.0
 11
4401.600512926262
 21
2596.63965073579
 31
0.0
  0
LINE
  5
3B7D
330
18
100
AcDbEntity
  8
MITAT
 62
     3
100
AcDbLine
 10
4231.894885441476
 20
2766.345278220546
 30
0.0
 11
4182.397410758413
 21
2815.842752903602
 31
0.0
  0
LINE
  5
3B7E
330
18
100
AcDbEntity
  8
MITAT
 62
     3
100
AcDbLine
 10
4182.397410758414
 20
2815.842752903602
 30
0.0
 11
4101.161877370654
 21
2897.078286291361
 31
0.0
  0
LINE
  5
3B7F
330
18
100
AcDbEntity
  8
MITAT
 62
     3
100
AcDbLine
 10
4302.605563560137
 20
2695.634600101897
 30
0.0
 11
4281.39236012454
 21
2716.847803537492
 31
0.0
  0
INSERT
  5
3B80
330
18
100
AcDbEntity
  8
MITAT
 62
     3
100
AcDbBlockReference
  2
_OPEN
 10
4302.605563560137
 20
2695.634600101897
 30
0.0
 41
69.9999999999999
 42
70.0
 43
70.0
 50
135.0000000000044
  0
INSERT
  5
3B81
330
18
100
AcDbEntity
  8
MITAT
 62
     3
100
AcDbBlockReference
  2
_OPEN
 10
4281.39236012454
 20
2716.847803537492
 30
0.0
 41
69.99999999999987
 42
70.0
 43
70.0
 50
315.0000000000044
  0
MTEXT
  5
3B82
330
18
100
AcDbEntity
  8
MITAT
 62
     5
100
AcDbMText
 10
4175.65588331784
 20
2904.478894474518
 30
0.0
 40
70.0
 41
0.0
 71
     5
 72
     1
  1
\A1;30
  7
KUVASTO
 11
0.7071067811865472
 21
-0.7071067811865479
 31
0.0
 73
     1
 44
1.0
  0
DIMENSION
  5
3B83
330
18
100
AcDbEntity
  8
MITAT
100
AcDbDimension
  2
*D4
 10
4502.346682473048
 20
1665.90306633819
 30
0.0
 11
4621.6272214314
 21
1864.820578913794
 31
0.0
 70
    32
 71
     5
 42
450.0
  3
STANDARD
100
AcDbAlignedDimension
 13
4799.3315305714
 23
2005.314321307737
 33
-1211.302819608479
 14
4481.133479037455
 24
1687.116269773789
 34
-1211.302819608479
 50
44.99999999999286
100
AcDbRotatedDimension
1001
ACAD
1000
DSTYLE
1002
{
1070
    40
1040
1.0
1002
}
  0
INSERT
  5
3B84
330
18
100
AcDbEntity
  8
0
  6
ByBlock
 62
     3
100
AcDbBlockReference
  2
_OPEN
 10
4820.986675745237
 20
1983.659176133912
 30
0.0
 41
70.00000000000015
 42
69.99999999999996
 43
70.0
 50
44.99999999999992
  0
LINE
  5
3B85
330
18
100
AcDbEntity
  8
0
  6
ByBlock
 62
     3
100
AcDbLine
 10
4800.21541404788
 20
2004.430437831266
 30
0.0
 11
4821.870559221718
 21
1982.775292657429
 31
0.0
  0
POINT
  5
3B86
330
18
100
AcDbEntity
  8
DEFPOINTS
  6
ByBlock
 62
     0
100
AcDbPoint
 10
4799.773472309642
 20
2004.872379569501
 30
0.0
 50
359.9999999999998
  0
MTEXT
  5
3B87
330
18
100
AcDbEntity
  8
0
  6
ByBlock
 62
     5
100
AcDbMText
 10
4947.6144793458
 20
2192.181593864816
 30
0.0
 40
70.0
 41
0.0
 71
     5
 72
     1
  1
\A1;30
  7
KUVASTO
 11
0.7071067811865463
 21
0.7071067811865488
 31
0.0
 73
     1
 44
1.0
  0
LINE
  5
3B88
330
18
100
AcDbEntity
  8
0
  6
ByBlock
 62
     3
100
AcDbLine
 10
4941.19482854695
 20
2103.867328935624
 30
0.0
 11
5021.786608651261
 21
2184.459109039936
 31
0.0
  0
INSERT
  5
3B89
330
18
100
AcDbEntity
  8
0
  6
ByBlock
 62
     3
100
AcDbBlockReference
  2
_OPEN
 10
4842.199879180832
 20
2004.872379569507
 30
0.0
 41
70.00000000000007
 42
69.99999999999996
 43
70.0
 50
224.9999999999998
  0
LINE
  5
3B8A
330
18
100
AcDbEntity
  8
0
  6
ByBlock
 62
     3
100
AcDbLine
 10
4821.428617483478
 20
2025.643641266863
 30
0.0
 11
4843.083762657315
 21
2003.988496093024
 31
0.0
  0
LINE
  5
3B8B
330
18
100
AcDbEntity
  8
0
  6
ByBlock
 62
     3
100
AcDbLine
 10
4820.986675745237
 20
1983.659176133912
 30
0.0
 11
4842.199879180832
 21
2004.872379569507
 31
0.0
  0
POINT
  5
3B8C
330
18
100
AcDbEntity
  8
DEFPOINTS
  6
ByBlock
 62
     0
100
AcDbPoint
 10
4842.199879180832
 20
2004.872379569501
 30
0.0
 50
359.9999999999998
  0
POINT
  5
3B8D
330
18
100
AcDbEntity
  8
DEFPOINTS
  6
ByBlock
 62
     0
100
AcDbPoint
 10
4820.986675745237
 20
2026.085583005098
 30
0.0
 50
359.9999999999998
  0
LINE
  5
3B8E
330
18
100
AcDbEntity
  8
0
  6
ByBlock
 62
     3
100
AcDbLine
 10
4891.697353863889
 20
2054.369854252565
 30
0.0
 11
4941.19482854695
 21
2103.867328935624
 31
0.0
  0
CIRCLE
  5
3B8F
330
18
100
AcDbEntity
  8
MAINOS
 62
     6
100
AcDbCircle
 10
4205.808407668687
 20
2358.421138607023
 30
-1211.302819608479
 40
72.5
  0
LINE
  5
3B90
330
18
100
AcDbEntity
  8
MAINOS
 62
     4
100
AcDbLine
 10
4188.130738139022
 20
2340.743469077357
 30
-1211.302819608479
 11
4223.486077198351
 21
2376.098808136684
 31
-1211.302819608479
  0
LINE
  5
3B91
330
18
100
AcDbEntity
  8
MAINOS
 62
     4
100
AcDbLine
 10
4223.486077198351
 20
2340.743469077357
 30
-1211.302819608479
 11
4188.130738139022
 21
2376.098808136684
 31
-1211.302819608479
  0
LINE
  5
3B92
330
18
100
AcDbEntity
  8
MAINOS
 62
     3
100
AcDbLine
 10
4145.272455951825
 20
2659.373395927312
 30
0.0
 11
4115.918650688075
 21
2688.727201191059
 31
0.0
  0
LINE
  5
3B93
330
18
100
AcDbEntity
  8
MAINOS
 62
     3
100
AcDbLine
 10
4025.064303150112
 20
2539.165243125598
 30
0.0
 11
3995.710497886363
 21
2568.519048389346
 31
0.0
  0
LINE
  5
3B94
330
18
100
AcDbEntity
  8
MAINOS
 62
     3
100
AcDbLine
 10
4166.300008847617
 20
2737.340792397633
 30
0.0
 11
4215.797483530676
 21
2786.838267080693
 31
0.0
  0
LINE
  5
3B95
330
18
100
AcDbEntity
  8
MAINOS
 62
     3
100
AcDbLine
 10
4116.802534164558
 20
2687.843317714575
 30
0.0
 11
3996.594381362847
 21
2567.635164912863
 31
0.0
  0
INSERT
  5
3B96
330
18
100
AcDbEntity
  8
MAINOS
 62
     3
100
AcDbBlockReference
  2
_OPEN
 10
4116.802534164558
 20
2687.843317714575
 30
0.0
 41
70.0000000000001
 42
70.0
 43
70.0
 50
224.9999999999998
  0
INSERT
  5
3B97
330
18
100
AcDbEntity
  8
MAINOS
 62
     3
100
AcDbBlockReference
  2
_OPEN
 10
3996.594381362847
 20
2567.635164912863
 30
0.0
 41
70.0000000000001
 42
70.0
 43
70.0
 50
44.99999999999989
  0
MTEXT
  5
3B98
330
18
100
AcDbEntity
  8
MAINOS
 62
     5
100
AcDbMText
 10
4019.315065868513
 20
2675.326173680911
 30
0.0
 40
70.0
 41
0.0
 71
     5
 72
     1
  1
170
  7
KUVASTO
 11
0.7071067811865474
 21
0.7071067811865479
 31
0.0
 73
     1
 44
1.0
  0
LINE
  5
3B99
330
18
100
AcDbEntity
  8
MAINOS
 62
     3
100
AcDbLine
 10
3947.096906679788
 20
2518.137690229805
 30
0.0
 11
3897.599431996729
 21
2468.640215546747
 31
0.0
  0
LWPOLYLINE
  5
3C65
330
18
100
AcDbEntity
  8
0
100
AcDbPolyline
 90
        9
 70
     0
 43
0.0
 38
-1211.302819608479
 10
4089.440640674093
 20
2164.219955427645
 42
-0.4091107934411366
 10
4093.645934627512
 20
2164.256655125019
 10
4101.635214553336
 20
2156.541496960519
 42
0.4091107204211328
 10
4105.840512724872
 20
2156.578195397717
 10
4164.250231468267
 20
2214.98791414111
 42
0.4091107733996169
 10
4164.286930726031
 20
2219.193209407924
 10
4156.571772561529
 20
2227.182489333747
 42
-0.3316400631548849
 10
4156.115902666484
 20
2230.738735462288
 10
4090.089694178272
 20
2164.712526974074
  0
LWPOLYLINE
  5
3C66
330
18
100
AcDbEntity
  8
0
100
AcDbPolyline
 90
       13
 70
     1
 43
0.0
 38
-1211.302819608479
 10
4177.628202515289
 20
2252.251035311093
 10
4165.112684994823
 20
2239.735517790625
 42
-0.331640197094096
 10
4168.668930099467
 20
2239.279646871684
 10
4183.653928951482
 20
2224.808801410793
 42
0.1943807312353768
 10
4185.737904773215
 20
2223.966822473405
 10
4205.756050215224
 20
2223.966822473405
 10
4225.774195657233
 20
2223.966822473405
 42
0.1943807312353768
 10
4227.858171478967
 20
2224.808801410793
 10
4242.843170330981
 20
2239.279646871684
 42
-0.3641708062690974
 10
4246.69221739671
 20
2239.547430736459
 10
4233.988612822076
 20
2252.251035311093
 10
4230.808407668685
 20
2249.0708301577
 10
4180.808407668684
 20
2249.0708301577
  0
LWPOLYLINE
  5
3C68
330
18
100
AcDbEntity
  8
0
100
AcDbPolyline
 90
        9
 70
     0
 43
0.0
 38
-1211.302819608479
 10
4321.715205678234
 20
2164.524442454934
 10
4255.208110638695
 20
2231.031537494475
 42
-0.3641706601079356
 10
4254.940327868919
 20
2227.182489333747
 10
4247.225169704417
 20
2219.193209407924
 42
0.4091107733996169
 10
4247.261868962183
 20
2214.98791414111
 10
4305.671587705576
 20
2156.578195397717
 42
0.4091107204211328
 10
4309.876885877113
 20
2156.541496960519
 10
4317.866165802936
 20
2164.256655125019
 42
-0.4091107934411339
 10
4322.071459756354
 20
2164.219955427645
  0
LWPOLYLINE
  5
3C6A
330
18
100
AcDbEntity
  8
0
100
AcDbPolyline
 90
        9
 70
     0
 43
0.0
 38
-1211.302819608479
 10
4423.538601436738
 20
2062.701046696426
 10
4355.263695729983
 20
2130.975952403181
 42
-0.3641738294792199
 10
4354.99593304203
 20
2127.126876710056
 10
4347.280779442622
 20
2119.13760005815
 42
0.4091108014276978
 10
4347.317478500078
 20
2114.932304603215
 10
4407.494964196439
 20
2054.754818906853
 42
0.4091097354256758
 10
4411.700260506132
 20
2054.718126056789
 10
4419.689539524496
 20
2062.433277741661
 42
-0.4091101727769192
 10
4423.894834385374
 20
2062.396575210689
  0
LWPOLYLINE
  5
3C6E
330
18
100
AcDbEntity
  8
MAINOS
100
AcDbPolyline
 90
       44
 70
     0
 43
0.0
 38
-1211.302819608479
 10
4275.808407668764
 20
2294.07083015778
 10
4275.808407668764
 20
2294.07083015778
 10
4275.808407668764
 20
2309.07083015778
 10
4135.808407668764
 20
2309.07083015778
 10
4135.808407668764
 20
2294.07083015778
 10
4135.201795644098
 20
2294.677442182286
 10
4092.775388772905
 20
2337.10384905348
 10
4050.348981901712
 20
2294.677442182286
 10
4092.775388772905
 20
2252.251035311094
 10
3923.069761288134
 20
2082.545407826322
 10
3965.496168159327
 20
2040.119000955129
 10
3978.985650568719
 20
2053.60848336452
 42
0.3316399107382399
 10
3979.441520438651
 20
2050.052244661449
 10
4009.981412904477
 20
2018.427259985873
 42
-0.1943807798896037
 10
4010.823395715217
 20
2016.343284843562
 10
4010.823395715217
 20
1990.03921866238
 10
4020.293962822417
 20
1980.568651555179
 10
4020.293962822417
 20
1977.034170625804
 10
4040.82339690731
 20
1977.034170625804
 10
4040.82339690731
 20
2057.791520355342
 42
-0.1989137603186583
 10
4041.702073679426
 20
2059.912849662898
 10
4172.877371923187
 20
2191.088141270986
 42
-0.1989125644460182
 10
4174.998690054875
 20
2191.966820953487
 10
4201.756050025235
 20
2191.966820953487
 10
4205.756050215224
 20
2195.966821143477
 10
4209.756050405214
 20
2191.966820953487
 10
4236.513410375575
 20
2191.966820953487
 42
-0.1989125644460182
 10
4238.63472850726
 20
2191.088141270986
 10
4369.810026751022
 20
2059.912849662898
 42
-0.1989137603186583
 10
4370.688703523139
 20
2057.791520355342
 10
4370.688703523139
 20
1977.034170625804
 10
4391.218137608031
 20
1977.034170625804
 10
4391.218137608031
 20
1980.568651555179
 10
4400.688704715232
 20
1990.03921866238
 10
4400.688704715232
 20
2016.343284843562
 42
-0.1943807798896037
 10
4401.530687525972
 20
2018.427259985873
 10
4432.070579991798
 20
2050.052244661449
 42
0.3641704708360552
 10
4432.338363419542
 20
2053.901284713622
 10
4446.120647178037
 20
2040.119000955125
 10
4488.54705404923
 20
2082.545407826317
 10
4318.841426564467
 20
2252.251035311088
 10
4361.267833435656
 20
2294.677442182269
 10
4318.841426564468
 20
2337.103849053467
 10
4276.41501969327
 20
2294.677442182279
  0
LWPOLYLINE
  5
3C6F
330
18
100
AcDbEntity
  8
MAINOS
100
AcDbPolyline
 90
        2
 70
     0
 43
0.0
 38
-1211.302819608479
 10
4275.808407668685
 20
2294.070830157698
 10
4276.41501969327
 20
2294.677442182286
  0
ENDSEC
  0
SECTION
  2
OBJECTS
  0
DICTIONARY
  5
C
330
0
100
AcDbDictionary
281
     1
  3
ACAD_GROUP
350
D
  3
ACAD_LAYOUT
350
32FC
  3
ACAD_MLINESTYLE
350
1B
  3
ACAD_PLOTSETTINGS
350
32FD
  3
ACAD_PLOTSTYLENAME
350
32FA
  3
ACDBVARIABLEDICTIONARY
350
1C6
  0
DICTIONARY
  5
D
102
{ACAD_REACTORS
330
C
102
}
330
C
100
AcDbDictionary
281
     1
  0
DICTIONARY
  5
32FC
102
{ACAD_REACTORS
330
C
102
}
330
C
100
AcDbDictionary
281
     1
  3
Layout1
350
32FF
  3
Model
350
32FE
  0
DICTIONARY
  5
1B
102
{ACAD_REACTORS
330
C
102
}
330
C
100
AcDbDictionary
281
     1
  3
STANDARD
350
1C
  0
DICTIONARY
  5
32FD
102
{ACAD_REACTORS
330
C
102
}
330
C
100
AcDbDictionary
281
     1
  0
ACDBDICTIONARYWDFLT
  5
32FA
102
{ACAD_REACTORS
330
C
102
}
330
C
100
AcDbDictionary
281
     1
  3
Normal
350
32FB
100
AcDbDictionaryWithDefault
340
32FB
  0
DICTIONARY
  5
1C6
102
{ACAD_REACTORS
330
C
102
}
330
C
100
AcDbDictionary
281
     1
  3
DIMASSOC
350
3303
  3
SORTENTS
350
1C7
  0
LAYOUT
  5
32FF
102
{ACAD_REACTORS
330
32FC
102
}
330
32FC
100
AcDbPlotSettings
  1

  2
\\NUUTJARI\MKASPLA1
  4

  6

 40
0.0
 41
0.0
 42
0.0
 43
0.0
 44
0.0
 45
0.0
 46
0.0
 47
0.0
 48
0.0
 49
0.0
140
0.0
141
0.0
142
1.0
143
1.0
 70
   688
 72
     0
 73
     0
 74
     5
  7

 75
    16
147
1.0
148
0.0
149
0.0
100
AcDbLayout
  1
Layout1
 70
     1
 71
     1
 10
0.0
 20
0.0
 11
420.0
 21
297.0
 12
0.0
 22
0.0
 32
0.0
 14
1.000000000000000E+20
 24
1.000000000000000E+20
 34
1.000000000000000E+20
 15
-1.000000000000000E+20
 25
-1.000000000000000E+20
 35
-1.000000000000000E+20
146
0.0
 13
0.0
 23
0.0
 33
0.0
 16
1.0
 26
0.0
 36
0.0
 17
0.0
 27
1.0
 37
0.0
 76
     0
330
15
  0
LAYOUT
  5
32FE
102
{ACAD_REACTORS
330
32FC
102
}
330
32FC
100
AcDbPlotSettings
  1

  2
Amyuni PDF Converter
  4
A4
  6
OLE1
 40
6.720416999999999
 41
6.805095999999998
 42
6.889755
 43
6.720428
 44
209.9733279999999
 45
296.925995
 46
4.0
 47
45.77
 48
1084.228743342419
 49
1140.327456087364
140
2967.929818517498
141
3059.008079821431
142
1.0
143
10.0
 70
 11956
 72
     1
 73
     0
 74
     4
  7
monochrome.ctb
 75
    20
147
0.1
148
-1084.228743342419
149
-1140.327456087364
100
AcDbLayout
  1
Model
 70
     1
 71
     0
 10
0.0
 20
0.0
 11
12.0
 21
9.0
 12
0.0
 22
0.0
 32
0.0
 14
0.0
 24
0.0
 34
0.0
 15
0.0
 25
0.0
 35
0.0
146
0.0
 13
0.0
 23
0.0
 33
0.0
 16
1.0
 26
0.0
 36
0.0
 17
0.0
 27
1.0
 37
0.0
 76
     0
330
18
  0
MLINESTYLE
  5
1C
102
{ACAD_REACTORS
330
1B
102
}
330
1B
100
AcDbMlineStyle
  2
STANDARD
 70
     0
  3

 62
   256
 51
90.0
 52
90.0
 71
     2
 49
0.5
 62
   256
  6
BYLAYER
 49
-0.5
 62
   256
  6
BYLAYER
  0
ACDBPLACEHOLDER
  5
32FB
102
{ACAD_REACTORS
330
32FA
102
}
330
32FA
  0
DICTIONARYVAR
  5
3303
102
{ACAD_REACTORS
330
1C6
102
}
330
1C6
100
DictionaryVariables
280
     0
  1
1
  0
DICTIONARYVAR
  5
1C7
102
{ACAD_REACTORS
330
1C6
102
}
330
1C6
100
DictionaryVariables
280
     0
  1
96
  0
ENDSEC
  0
EOF
