  0
SECTION
  2
HEADER
  9
$ACADVER
  1
AC1015
  9
$ACADMAINTVER
 70
    14
  9
$DWGCODEPAGE
  3
ANSI_1252
  9
$INSBASE
 10
0.0
 20
0.0
 30
0.0
  9
$EXTMIN
 10
3872.659694980276
 20
1583.10181741473
 30
-3176.685057321366
  9
$EXTMAX
 10
5662.0850154248
 20
2738.552527742879
 30
0.0
  9
$LIMMIN
 10
0.0
 20
0.0
  9
$LIMMAX
 10
420.0
 20
297.0
  9
$ORTHOMODE
 70
     1
  9
$REGENMODE
 70
     1
  9
$FILLMODE
 70
     1
  9
$QTEXTMODE
 70
     0
  9
$MIRRTEXT
 70
     1
  9
$LTSCALE
 40
1.0
  9
$ATTMODE
 70
     1
  9
$TEXTSIZE
 40
80.0
  9
$TRACEWID
 40
1.0
  9
$TEXTSTYLE
  7
KUVASTO
  9
$CLAYER
  8
MAINOS
  9
$CELTYPE
  6
BYLAYER
  9
$CECOLOR
 62
   256
  9
$CELTSCALE
 40
1.0
  9
$DISPSILH
 70
     1
  9
$DIMSCALE
 40
0.0
  9
$DIMASZ
 40
70.0
  9
$DIMEXO
 40
0.625
  9
$DIMDLI
 40
3.75
  9
$DIMRND
 40
0.0
  9
$DIMDLE
 40
0.0
  9
$DIMEXE
 40
1.25
  9
$DIMTP
 40
0.0
  9
$DIMTM
 40
0.0
  9
$DIMTXT
 40
60.0
  9
$DIMCEN
 40
2.5
  9
$DIMTSZ
 40
0.0
  9
$DIMTOL
 70
     0
  9
$DIMLIM
 70
     0
  9
$DIMTIH
 70
     0
  9
$DIMTOH
 70
     1
  9
$DIMSE1
 70
     0
  9
$DIMSE2
 70
     0
  9
$DIMTAD
 70
     1
  9
$DIMZIN
 70
     8
  9
$DIMBLK
  1

  9
$DIMASO
 70
     1
  9
$DIMSHO
 70
     1
  9
$DIMPOST
  1

  9
$DIMAPOST
  1

  9
$DIMALT
 70
     0
  9
$DIMALTD
 70
     4
  9
$DIMALTF
 40
0.0394
  9
$DIMLFAC
 40
1.0
  9
$DIMTOFL
 70
     1
  9
$DIMTVP
 40
0.0
  9
$DIMTIX
 70
     0
  9
$DIMSOXD
 70
     0
  9
$DIMSAH
 70
     1
  9
$DIMBLK1
  1
OPEN
  9
$DIMBLK2
  1
OPEN
  9
$DIMSTYLE
  2
STANDARD
  9
$DIMCLRD
 70
     3
  9
$DIMCLRE
 70
     3
  9
$DIMCLRT
 70
     5
  9
$DIMTFAC
 40
1.0
  9
$DIMGAP
 40
20.0
  9
$DIMJUST
 70
     0
  9
$DIMSD1
 70
     0
  9
$DIMSD2
 70
     0
  9
$DIMTOLJ
 70
     1
  9
$DIMTZIN
 70
     0
  9
$DIMALTZ
 70
     0
  9
$DIMALTTZ
 70
     0
  9
$DIMUPT
 70
     0
  9
$DIMDEC
 70
     4
  9
$DIMTDEC
 70
     4
  9
$DIMALTU
 70
     8
  9
$DIMALTTD
 70
     4
  9
$DIMTXSTY
  7
KUVASTO
  9
$DIMAUNIT
 70
     0
  9
$DIMADEC
 70
     0
  9
$DIMALTRND
 40
0.0
  9
$DIMAZIN
 70
     0
  9
$DIMDSEP
 70
    46
  9
$DIMATFIT
 70
     3
  9
$DIMFRAC
 70
     0
  9
$DIMLDRBLK
  1
OPEN
  9
$DIMLUNIT
 70
     6
  9
$DIMLWD
 70
    -2
  9
$DIMLWE
 70
    -2
  9
$DIMTMOVE
 70
     0
  9
$LUNITS
 70
     2
  9
$LUPREC
 70
     4
  9
$SKETCHINC
 40
1.0
  9
$FILLETRAD
 40
150.0
  9
$AUNITS
 70
     0
  9
$AUPREC
 70
     0
  9
$MENU
  1
.
  9
$ELEVATION
 40
0.0
  9
$PELEVATION
 40
0.0
  9
$THICKNESS
 40
0.0
  9
$LIMCHECK
 70
     0
  9
$CHAMFERA
 40
45.0
  9
$CHAMFERB
 40
45.0
  9
$CHAMFERC
 40
20.0
  9
$CHAMFERD
 40
0.0
  9
$SKPOLY
 70
     0
  9
$TDCREATE
 40
2452044.350563495
  9
$TDUCREATE
 40
2452044.267230162
  9
$TDUPDATE
 40
2455887.485511377
  9
$TDUUPDATE
 40
2455887.402178043
  9
$TDINDWG
 40
0.3147636921
  9
$TDUSRTIMER
 40
0.3147635069
  9
$USRTIMER
 70
     1
  9
$ANGBASE
 50
0.0
  9
$ANGDIR
 70
     0
  9
$PDMODE
 70
     0
  9
$PDSIZE
 40
0.0
  9
$PLINEWID
 40
0.0
  9
$SPLFRAME
 70
     0
  9
$SPLINETYPE
 70
     6
  9
$SPLINESEGS
 70
     8
  9
$HANDSEED
  5
3F06
  9
$SURFTAB1
 70
     6
  9
$SURFTAB2
 70
     6
  9
$SURFTYPE
 70
     6
  9
$SURFU
 70
     6
  9
$SURFV
 70
     6
  9
$UCSBASE
  2

  9
$UCSNAME
  2

  9
$UCSORG
 10
0.0
 20
0.0
 30
0.0
  9
$UCSXDIR
 10
1.0
 20
0.0
 30
0.0
  9
$UCSYDIR
 10
0.0
 20
1.0
 30
0.0
  9
$UCSORTHOREF
  2

  9
$UCSORTHOVIEW
 70
     0
  9
$UCSORGTOP
 10
0.0
 20
0.0
 30
0.0
  9
$UCSORGBOTTOM
 10
0.0
 20
0.0
 30
0.0
  9
$UCSORGLEFT
 10
0.0
 20
0.0
 30
0.0
  9
$UCSORGRIGHT
 10
0.0
 20
0.0
 30
0.0
  9
$UCSORGFRONT
 10
0.0
 20
0.0
 30
0.0
  9
$UCSORGBACK
 10
0.0
 20
0.0
 30
0.0
  9
$PUCSBASE
  2

  9
$PUCSNAME
  2

  9
$PUCSORG
 10
0.0
 20
0.0
 30
0.0
  9
$PUCSXDIR
 10
1.0
 20
0.0
 30
0.0
  9
$PUCSYDIR
 10
0.0
 20
1.0
 30
0.0
  9
$PUCSORTHOREF
  2

  9
$PUCSORTHOVIEW
 70
     0
  9
$PUCSORGTOP
 10
0.0
 20
0.0
 30
0.0
  9
$PUCSORGBOTTOM
 10
0.0
 20
0.0
 30
0.0
  9
$PUCSORGLEFT
 10
0.0
 20
0.0
 30
0.0
  9
$PUCSORGRIGHT
 10
0.0
 20
0.0
 30
0.0
  9
$PUCSORGFRONT
 10
0.0
 20
0.0
 30
0.0
  9
$PUCSORGBACK
 10
0.0
 20
0.0
 30
0.0
  9
$USERI1
 70
     0
  9
$USERI2
 70
     0
  9
$USERI3
 70
     0
  9
$USERI4
 70
     0
  9
$USERI5
 70
     0
  9
$USERR1
 40
0.0
  9
$USERR2
 40
0.0
  9
$USERR3
 40
0.0
  9
$USERR4
 40
0.0
  9
$USERR5
 40
0.0
  9
$WORLDVIEW
 70
     1
  9
$SHADEDGE
 70
     3
  9
$SHADEDIF
 70
    70
  9
$TILEMODE
 70
     1
  9
$MAXACTVP
 70
    48
  9
$PINSBASE
 10
0.0
 20
0.0
 30
0.0
  9
$PLIMCHECK
 70
     0
  9
$PEXTMIN
 10
1.000000000000000E+20
 20
1.000000000000000E+20
 30
1.000000000000000E+20
  9
$PEXTMAX
 10
-1.000000000000000E+20
 20
-1.000000000000000E+20
 30
-1.000000000000000E+20
  9
$PLIMMIN
 10
0.0
 20
0.0
  9
$PLIMMAX
 10
420.0
 20
297.0
  9
$UNITMODE
 70
     0
  9
$VISRETAIN
 70
     1
  9
$PLINEGEN
 70
     0
  9
$PSLTSCALE
 70
     1
  9
$TREEDEPTH
 70
  3020
  9
$CMLSTYLE
  2
STANDARD
  9
$CMLJUST
 70
     0
  9
$CMLSCALE
 40
20.0
  9
$PROXYGRAPHICS
 70
     1
  9
$MEASUREMENT
 70
     1
  9
$CELWEIGHT
370
    -1
  9
$ENDCAPS
280
     0
  9
$JOINSTYLE
280
     0
  9
$LWDISPLAY
290
     0
  9
$INSUNITS
 70
     0
  9
$HYPERLINKBASE
  1

  9
$STYLESHEET
  1
monochrome.ctb
  9
$XEDIT
290
     1
  9
$CEPSNTYPE
380
     0
  9
$PSTYLEMODE
290
     1
  9
$FINGERPRINTGUID
  2
{0A328C68-E647-11D6-B917-000103D6C2BD}
  9
$VERSIONGUID
  2
{50E1AC7D-1C74-496F-AE62-08C88A39D76B}
  9
$EXTNAMES
290
     1
  9
$PSVPSCALE
 40
0.0
  9
$OLESTARTUP
290
     0
  0
ENDSEC
  0
SECTION
  2
CLASSES
  0
CLASS
  1
LWPOLYLINE
  2
AcDbPolyline
  3
AutoCAD 2000
 90
    32768
280
     0
281
     1
  0
CLASS
  1
DICTIONARYVAR
  2
AcDbDictionaryVar
  3
AutoCAD 2000
 90
        0
280
     0
281
     0
  0
CLASS
  1
HATCH
  2
AcDbHatch
  3
AutoCAD 2000
 90
    32768
280
     0
281
     1
  0
CLASS
  1
ACDBDICTIONARYWDFLT
  2
AcDbDictionaryWithDefault
  3
AutoCAD 2000
 90
        0
280
     0
281
     0
  0
CLASS
  1
ACDBPLACEHOLDER
  2
AcDbPlaceHolder
  3
AutoCAD 2000
 90
        0
280
     0
281
     0
  0
CLASS
  1
LAYOUT
  2
AcDbLayout
  3
AutoCAD 2000
 90
        0
280
     0
281
     0
  0
ENDSEC
  0
SECTION
  2
TABLES
  0
TABLE
  2
VPORT
  5
8
330
0
100
AcDbSymbolTable
 70
     5
  0
VPORT
  5
3F05
330
8
100
AcDbSymbolTableRecord
100
AcDbViewportTableRecord
  2
*Active
 70
     0
 10
0.0
 20
0.0
 11
1.0
 21
1.0
 12
5373.074602474645
 22
2071.90217993939
 13
0.0
 23
0.0
 14
10.0
 24
10.0
 15
10.0
 25
10.0
 16
0.0
 26
0.0
 36
1.0
 17
0.0
 27
0.0
 37
0.0
 40
2521.937770427433
 41
1.933962264150943
 42
50.0
 43
0.0
 44
0.0
 50
0.0
 51
0.0
 71
     0
 72
 20000
 73
     1
 74
     1
 75
     0
 76
     0
 77
     0
 78
     0
281
     0
 65
     1
110
0.0
120
0.0
130
0.0
111
1.0
121
0.0
131
0.0
112
0.0
122
1.0
132
0.0
 79
     0
146
0.0
  0
ENDTAB
  0
TABLE
  2
LTYPE
  5
5
330
0
100
AcDbSymbolTable
 70
     1
  0
LTYPE
  5
12
330
5
100
AcDbSymbolTableRecord
100
AcDbLinetypeTableRecord
  2
BYBLOCK
 70
     0
  3

 72
    65
 73
     0
 40
0.0
  0
LTYPE
  5
13
330
5
100
AcDbSymbolTableRecord
100
AcDbLinetypeTableRecord
  2
BYLAYER
 70
     0
  3

 72
    65
 73
     0
 40
0.0
  0
LTYPE
  5
14
330
5
100
AcDbSymbolTableRecord
100
AcDbLinetypeTableRecord
  2
CONTINUOUS
 70
     0
  3
Solid line
 72
    65
 73
     0
 40
0.0
  0
ENDTAB
  0
TABLE
  2
LAYER
  5
2
330
0
100
AcDbSymbolTable
 70
     6
  0
LAYER
  5
E
330
2
100
AcDbSymbolTableRecord
100
AcDbLayerTableRecord
  2
0
 70
     0
 62
     7
  6
CONTINUOUS
370
    -3
390
32FB
  0
LAYER
  5
158B
330
2
100
AcDbSymbolTableRecord
100
AcDbLayerTableRecord
  2
HORMILIITOS
 70
     0
 62
     6
  6
CONTINUOUS
370
    -3
390
32FB
  0
LAYER
  5
1592
330
2
100
AcDbSymbolTableRecord
100
AcDbLayerTableRecord
  2
MITAT
 70
     0
 62
     5
  6
CONTINUOUS
370
    -3
390
32FB
  0
LAYER
  5
1938
330
2
100
AcDbSymbolTableRecord
100
AcDbLayerTableRecord
  2
LUUKUN-AUKKO
 70
     0
 62
     4
  6
CONTINUOUS
370
    -3
390
32FB
  0
LAYER
  5
1963
330
2
100
AcDbSymbolTableRecord
100
AcDbLayerTableRecord
  2
MAINOS
 70
     0
 62
     7
  6
CONTINUOUS
370
    -3
390
32FB
  0
LAYER
  5
1F3E
330
2
100
AcDbSymbolTableRecord
100
AcDbLayerTableRecord
  2
DEFPOINTS
 70
     0
 62
     7
  6
CONTINUOUS
290
     0
370
    -3
390
32FB
  0
ENDTAB
  0
TABLE
  2
STYLE
  5
3
330
0
100
AcDbSymbolTable
 70
     2
  0
STYLE
  5
F
330
3
100
AcDbSymbolTableRecord
100
AcDbTextStyleTableRecord
  2
STANDARD
 70
     0
 40
0.0
 41
1.0
 50
0.0
 71
     0
 42
2.5
  3

  4

1001
ACAD
1000
AGaramond
1071
 33554450
  0
STYLE
  5
15F2
330
3
100
AcDbSymbolTableRecord
100
AcDbTextStyleTableRecord
  2
KUVASTO
 70
     0
 40
70.0
 41
1.0
 50
0.0
 71
     0
 42
80.0
  3
Foustbk_.ttf
  4

1001
ACAD
1000
FoundrySterling-Book
1071
        2
  0
ENDTAB
  0
TABLE
  2
VIEW
  5
6
330
0
100
AcDbSymbolTable
 70
     0
  0
ENDTAB
  0
TABLE
  2
UCS
  5
7
330
0
100
AcDbSymbolTable
 70
     0
  0
ENDTAB
  0
TABLE
  2
APPID
  5
9
330
0
100
AcDbSymbolTable
 70
     3
  0
APPID
  5
10
330
9
100
AcDbSymbolTableRecord
100
AcDbRegAppTableRecord
  2
ACAD
 70
     0
  0
APPID
  5
1939
330
9
100
AcDbSymbolTableRecord
100
AcDbRegAppTableRecord
  2
AME_SOL
 70
     0
  0
APPID
  5
193A
330
9
100
AcDbSymbolTableRecord
100
AcDbRegAppTableRecord
  2
TULIKIVI
 70
     0
  0
ENDTAB
  0
TABLE
  2
DIMSTYLE
  5
A
330
0
100
AcDbSymbolTable
 70
     1
100
AcDbDimStyleTable
 71
     1
340
1D
  0
DIMSTYLE
105
1D
102
{ACAD_REACTORS
330
3A8C
330
3A8D
330
3A8E
330
3A8F
330
3A90
330
3A96
102
}
330
A
100
AcDbSymbolTableRecord
100
AcDbDimStyleTableRecord
  2
STANDARD
 70
     0
 40
0.0
 41
70.0
 42
0.625
 43
3.75
 44
1.25
 73
     0
 77
     1
 78
     8
140
60.0
141
2.5
143
0.0394
147
20.0
171
     4
172
     1
173
     1
176
     3
177
     3
178
     5
273
     8
274
     4
277
     6
340
15F2
341
15A1
343
15A1
344
15A1
  0
ENDTAB
  0
TABLE
  2
BLOCK_RECORD
  5
1
330
0
100
AcDbSymbolTable
 70
     7
  0
BLOCK_RECORD
  5
18
330
1
100
AcDbSymbolTableRecord
100
AcDbBlockTableRecord
  2
*MODEL_SPACE
340
32FE
  0
BLOCK_RECORD
  5
15
330
1
100
AcDbSymbolTableRecord
100
AcDbBlockTableRecord
  2
*PAPER_SPACE
340
32FF
  0
BLOCK_RECORD
  5
15A1
330
1
100
AcDbSymbolTableRecord
100
AcDbBlockTableRecord
  2
_OPEN
340
0
102
{BLKREFS
331
3A93
331
3A9D
331
3A9E
331
3AF2
331
3AF3
331
3AFD
331
3AFE
331
3B08
331
3B09
331
3B11
331
3B12
331
3B1A
331
3B1B
331
3EEF
331
3EF0
331
3EFC
331
3EFD
102
}
  0
BLOCK_RECORD
  5
3AA3
330
1
100
AcDbSymbolTableRecord
100
AcDbBlockTableRecord
  2
*D1
340
0
  0
BLOCK_RECORD
  5
3AAF
330
1
100
AcDbSymbolTableRecord
100
AcDbBlockTableRecord
  2
*D2
340
0
  0
BLOCK_RECORD
  5
3ABD
330
1
100
AcDbSymbolTableRecord
100
AcDbBlockTableRecord
  2
*D3
340
0
  0
BLOCK_RECORD
  5
3ACB
330
1
100
AcDbSymbolTableRecord
100
AcDbBlockTableRecord
  2
*D4
340
0
  0
BLOCK_RECORD
  5
3AD7
330
1
100
AcDbSymbolTableRecord
100
AcDbBlockTableRecord
  2
*D5
340
0
  0
BLOCK_RECORD
  5
3AE3
330
1
100
AcDbSymbolTableRecord
100
AcDbBlockTableRecord
  2
*D6
340
0
  0
ENDTAB
  0
ENDSEC
  0
SECTION
  2
BLOCKS
  0
BLOCK
  5
19
330
18
100
AcDbEntity
  8
0
100
AcDbBlockBegin
  2
*MODEL_SPACE
 70
     0
 10
0.0
 20
0.0
 30
0.0
  3
*MODEL_SPACE
  1

  0
ENDBLK
  5
1A
330
18
100
AcDbEntity
  8
0
100
AcDbBlockEnd
  0
BLOCK
  5
16
330
15
100
AcDbEntity
 67
     1
  8
0
100
AcDbBlockBegin
  2
*PAPER_SPACE
 70
     0
 10
0.0
 20
0.0
 30
0.0
  3
*PAPER_SPACE
  1

  0
ENDBLK
  5
17
330
15
100
AcDbEntity
 67
     1
  8
0
100
AcDbBlockEnd
  0
BLOCK
  5
15A2
330
15A1
100
AcDbEntity
  8
0
100
AcDbBlockBegin
  2
_OPEN
 70
     0
 10
0.0
 20
0.0
 30
0.0
  3
_OPEN
  1

  0
LINE
  5
15A3
330
15A1
100
AcDbEntity
  8
0
  6
ByBlock
 62
     0
100
AcDbLine
 10
-1.0
 20
0.1666666666666666
 30
0.0
 11
0.0
 21
0.0
 31
0.0
  0
LINE
  5
15A4
330
15A1
100
AcDbEntity
  8
0
  6
ByBlock
 62
     0
100
AcDbLine
 10
0.0
 20
0.0
 30
0.0
 11
-1.0
 21
-0.1666666666666666
 31
0.0
  0
LINE
  5
15A5
330
15A1
100
AcDbEntity
  8
0
  6
ByBlock
 62
     0
100
AcDbLine
 10
0.0
 20
0.0
 30
0.0
 11
-1.0
 21
0.0
 31
0.0
  0
ENDBLK
  5
15A6
330
15A1
100
AcDbEntity
  8
0
100
AcDbBlockEnd
  0
BLOCK
  5
3AAD
330
3AA3
100
AcDbEntity
  8
0
100
AcDbBlockBegin
  2
*D1
 70
     1
 10
0.0
 20
0.0
 30
0.0
  3
*D1
  1

  0
LINE
  5
3AEF
330
3AA3
100
AcDbEntity
  8
MITAT
 62
     3
370
    -2
100
AcDbLine
 10
4280.418315669938
 20
1624.768484081396
 30
0.0
 11
4280.418315669938
 21
1594.143484081397
 31
0.0
  0
LINE
  5
3AF0
330
3AA3
100
AcDbEntity
  8
MITAT
 62
     3
370
    -2
100
AcDbLine
 10
5180.418315669938
 20
1624.768484081396
 30
0.0
 11
5180.418315669938
 21
1594.143484081397
 31
0.0
  0
LINE
  5
3AF1
330
3AA3
100
AcDbEntity
  8
MITAT
 62
     3
370
    -2
100
AcDbLine
 10
4350.418315669938
 20
1595.393484081396
 30
0.0
 11
5110.418315669939
 21
1595.393484081396
 31
0.0
  0
INSERT
  5
3AF2
330
3AA3
100
AcDbEntity
  8
MITAT
 62
     3
370
    -2
100
AcDbBlockReference
  2
_OPEN
 10
4280.418315669938
 20
1595.393484081396
 30
0.0
 41
70.0
 42
70.0
 43
70.0
 50
180.0
  0
INSERT
  5
3AF3
330
3AA3
100
AcDbEntity
  8
MITAT
 62
     3
370
    -2
100
AcDbBlockReference
  2
_OPEN
 10
5180.418315669938
 20
1595.393484081396
 30
0.0
 41
70.0
 42
70.0
 43
70.0
  0
MTEXT
  5
3AF4
330
3AA3
100
AcDbEntity
  8
MITAT
 62
     5
100
AcDbMText
 10
4730.418315669938
 20
1651.705328159358
 30
0.0
 40
70.0
 41
0.0
 71
     5
 72
     1
  1
\A1;900
  7
KUVASTO
 73
     1
 44
1.0
  0
POINT
  5
3AF5
330
3AA3
100
AcDbEntity
  8
DEFPOINTS
 62
     0
100
AcDbPoint
 10
4280.418315669938
 20
1625.393484081397
 30
-3176.685057321364
  0
POINT
  5
3AF6
330
3AA3
100
AcDbEntity
  8
DEFPOINTS
 62
     0
100
AcDbPoint
 10
5180.418315669938
 20
1625.393484081397
 30
-3176.685057321364
  0
POINT
  5
3AF7
330
3AA3
100
AcDbEntity
  8
DEFPOINTS
 62
     0
100
AcDbPoint
 10
5180.418315669938
 20
1595.393484081396
 30
0.0
  0
ENDBLK
  5
3AAE
330
3AA3
100
AcDbEntity
  8
0
100
AcDbBlockEnd
  0
BLOCK
  5
3ABB
330
3AAF
100
AcDbEntity
  8
0
100
AcDbBlockBegin
  2
*D2
 70
     1
 10
0.0
 20
0.0
 30
0.0
  3
*D2
  1

  0
LINE
  5
3AF8
330
3AAF
100
AcDbEntity
  8
MITAT
 62
     3
370
    -2
100
AcDbLine
 10
5180.418315669938
 20
1624.143484081397
 30
0.0
 11
5180.418315669938
 21
1593.518484081396
 31
0.0
  0
LINE
  5
3AF9
330
3AAF
100
AcDbEntity
  8
MITAT
 62
     3
370
    -2
100
AcDbLine
 10
5270.418315669939
 20
1624.143484081397
 30
0.0
 11
5270.418315669939
 21
1593.518484081396
 31
0.0
  0
LINE
  5
3AFA
330
3AAF
100
AcDbEntity
  8
MITAT
 62
     3
370
    -2
100
AcDbLine
 10
5110.418315669939
 20
1594.768484081396
 30
0.0
 11
5040.418315669938
 21
1594.768484081396
 31
0.0
  0
LINE
  5
3AFB
330
3AAF
100
AcDbEntity
  8
MITAT
 62
     3
370
    -2
100
AcDbLine
 10
5340.418315669938
 20
1594.768484081396
 30
0.0
 11
5562.607221217165
 21
1594.768484081396
 31
0.0
  0
LINE
  5
3AFC
330
3AAF
100
AcDbEntity
  8
MITAT
 62
     3
370
    -2
100
AcDbLine
 10
5180.418315669938
 20
1594.768484081396
 30
0.0
 11
5270.418315669939
 21
1594.768484081396
 31
0.0
  0
INSERT
  5
3AFD
330
3AAF
100
AcDbEntity
  8
MITAT
 62
     3
370
    -2
100
AcDbBlockReference
  2
_OPEN
 10
5180.418315669938
 20
1594.768484081396
 30
0.0
 41
70.0
 42
70.0
 43
70.0
  0
INSERT
  5
3AFE
330
3AAF
100
AcDbEntity
  8
MITAT
 62
     3
370
    -2
100
AcDbBlockReference
  2
_OPEN
 10
5270.418315669939
 20
1594.768484081396
 30
0.0
 41
70.0
 42
70.0
 43
70.0
 50
180.0
  0
MTEXT
  5
3AFF
330
3AAF
100
AcDbEntity
  8
MITAT
 62
     5
100
AcDbMText
 10
5486.512768443551
 20
1651.080328159357
 30
0.0
 40
70.0
 41
0.0
 71
     5
 72
     1
  1
\A1;90
  7
KUVASTO
 73
     1
 44
1.0
  0
POINT
  5
3B00
330
3AAF
100
AcDbEntity
  8
DEFPOINTS
 62
     0
100
AcDbPoint
 10
5180.418315669938
 20
1624.768484081396
 30
0.0
  0
POINT
  5
3B01
330
3AAF
100
AcDbEntity
  8
DEFPOINTS
 62
     0
100
AcDbPoint
 10
5270.418315669939
 20
1624.768484081396
 30
0.0
  0
POINT
  5
3B02
330
3AAF
100
AcDbEntity
  8
DEFPOINTS
 62
     0
100
AcDbPoint
 10
5270.418315669939
 20
1594.768484081396
 30
0.0
  0
ENDBLK
  5
3ABC
330
3AAF
100
AcDbEntity
  8
0
100
AcDbBlockEnd
  0
BLOCK
  5
3AC9
330
3ABD
100
AcDbEntity
  8
0
100
AcDbBlockBegin
  2
*D3
 70
     1
 10
0.0
 20
0.0
 30
0.0
  3
*D3
  1

  0
LINE
  5
3B03
330
3ABD
100
AcDbEntity
  8
MITAT
 62
     3
370
    -2
100
AcDbLine
 10
4280.418315669938
 20
1624.768484081396
 30
0.0
 11
4280.418315669938
 21
1594.143484081397
 31
0.0
  0
LINE
  5
3B04
330
3ABD
100
AcDbEntity
  8
MITAT
 62
     3
370
    -2
100
AcDbLine
 10
4190.418315669938
 20
1624.768484081396
 30
0.0
 11
4190.418315669938
 21
1594.143484081397
 31
0.0
  0
LINE
  5
3B05
330
3ABD
100
AcDbEntity
  8
MITAT
 62
     3
370
    -2
100
AcDbLine
 10
4350.418315669938
 20
1595.393484081396
 30
0.0
 11
4420.418315669938
 21
1595.393484081396
 31
0.0
  0
LINE
  5
3B06
330
3ABD
100
AcDbEntity
  8
MITAT
 62
     3
370
    -2
100
AcDbLine
 10
4120.418315669938
 20
1595.393484081396
 30
0.0
 11
3898.229410122711
 21
1595.393484081396
 31
0.0
  0
LINE
  5
3B07
330
3ABD
100
AcDbEntity
  8
MITAT
 62
     3
370
    -2
100
AcDbLine
 10
4280.418315669938
 20
1595.393484081396
 30
0.0
 11
4190.418315669938
 21
1595.393484081396
 31
0.0
  0
INSERT
  5
3B08
330
3ABD
100
AcDbEntity
  8
MITAT
 62
     3
370
    -2
100
AcDbBlockReference
  2
_OPEN
 10
4280.418315669938
 20
1595.393484081396
 30
0.0
 41
70.0
 42
70.0
 43
70.0
 50
180.0
  0
INSERT
  5
3B09
330
3ABD
100
AcDbEntity
  8
MITAT
 62
     3
370
    -2
100
AcDbBlockReference
  2
_OPEN
 10
4190.418315669938
 20
1595.393484081396
 30
0.0
 41
70.0
 42
70.0
 43
70.0
  0
MTEXT
  5
3B0A
330
3ABD
100
AcDbEntity
  8
MITAT
 62
     5
100
AcDbMText
 10
3974.323862896325
 20
1651.705328159358
 30
0.0
 40
70.0
 41
0.0
 71
     5
 72
     1
  1
\A1;90
  7
KUVASTO
 73
     1
 44
1.0
  0
POINT
  5
3B0B
330
3ABD
100
AcDbEntity
  8
DEFPOINTS
 62
     0
100
AcDbPoint
 10
4280.418315669938
 20
1625.393484081397
 30
-3176.685057321364
  0
POINT
  5
3B0C
330
3ABD
100
AcDbEntity
  8
DEFPOINTS
 62
     0
100
AcDbPoint
 10
4190.418315669938
 20
1625.393484081397
 30
-3176.685057321364
  0
POINT
  5
3B0D
330
3ABD
100
AcDbEntity
  8
DEFPOINTS
 62
     0
100
AcDbPoint
 10
4190.418315669938
 20
1595.393484081396
 30
0.0
  0
ENDBLK
  5
3ACA
330
3ABD
100
AcDbEntity
  8
0
100
AcDbBlockEnd
  0
BLOCK
  5
3AD5
330
3ACB
100
AcDbEntity
  8
0
100
AcDbBlockBegin
  2
*D4
 70
     1
 10
0.0
 20
0.0
 30
0.0
  3
*D4
  1

  0
LINE
  5
3B0E
330
3ACB
100
AcDbEntity
  8
MITAT
 62
     3
370
    -2
100
AcDbLine
 10
5621.043348758132
 20
2440.433599490243
 30
0.0
 11
5651.668348758133
 21
2440.433599490243
 31
0.0
  0
LINE
  5
3B0F
330
3ACB
100
AcDbEntity
  8
MITAT
 62
     3
370
    -2
100
AcDbLine
 10
5621.043348758132
 20
1855.433599490241
 30
0.0
 11
5651.668348758132
 21
1855.433599490241
 31
0.0
  0
LINE
  5
3B10
330
3ACB
100
AcDbEntity
  8
MITAT
 62
     3
370
    -2
100
AcDbLine
 10
5650.418348758133
 20
2370.433599490243
 30
0.0
 11
5650.418348758132
 21
1925.433599490241
 31
0.0
  0
INSERT
  5
3B11
330
3ACB
100
AcDbEntity
  8
MITAT
 62
     3
370
    -2
100
AcDbBlockReference
  2
_OPEN
 10
5650.418348758133
 20
2440.433599490243
 30
0.0
 41
70.0
 42
70.0
 43
70.0
 50
90.0
  0
INSERT
  5
3B12
330
3ACB
100
AcDbEntity
  8
MITAT
 62
     3
370
    -2
100
AcDbBlockReference
  2
_OPEN
 10
5650.418348758132
 20
1855.433599490241
 30
0.0
 41
70.0
 42
70.0
 43
70.0
 50
270.0
  0
MTEXT
  5
3B13
330
3ACB
100
AcDbEntity
  8
MITAT
 62
     5
100
AcDbMText
 10
5594.106504680172
 20
2147.933599490243
 30
0.0
 40
70.0
 41
0.0
 71
     5
 72
     1
  1
\A1;585
  7
KUVASTO
 11
0.0000000000000001
 21
1.0
 31
0.0
 73
     1
 44
1.0
  0
POINT
  5
3B14
330
3ACB
100
AcDbEntity
  8
DEFPOINTS
 62
     0
100
AcDbPoint
 10
5620.418348758132
 20
2440.433599490243
 30
-3176.685057321364
  0
POINT
  5
3B15
330
3ACB
100
AcDbEntity
  8
DEFPOINTS
 62
     0
100
AcDbPoint
 10
5620.418348758132
 20
1855.433599490241
 30
-3176.685057321364
  0
POINT
  5
3B16
330
3ACB
100
AcDbEntity
  8
DEFPOINTS
 62
     0
100
AcDbPoint
 10
5650.418348758132
 20
1855.433599490241
 30
0.0
  0
ENDBLK
  5
3AD6
330
3ACB
100
AcDbEntity
  8
0
100
AcDbBlockEnd
  0
BLOCK
  5
3AE1
330
3AD7
100
AcDbEntity
  8
0
100
AcDbBlockBegin
  2
*D5
 70
     1
 10
0.0
 20
0.0
 30
0.0
  3
*D5
  1

  0
LINE
  5
3EF9
330
3AD7
100
AcDbEntity
  8
MITAT
 62
     3
370
    -2
100
AcDbLine
 10
4019.793315669931
 20
2440.433599490241
 30
0.0
 11
3989.168315669932
 21
2440.433599490241
 31
0.0
  0
LINE
  5
3EFA
330
3AD7
100
AcDbEntity
  8
MITAT
 62
     3
370
    -2
100
AcDbLine
 10
4019.793315669931
 20
2170.433599490241
 30
0.0
 11
3989.168315669932
 21
2170.433599490241
 31
0.0
  0
LINE
  5
3EFB
330
3AD7
100
AcDbEntity
  8
MITAT
 62
     3
370
    -2
100
AcDbLine
 10
3990.418315669931
 20
2370.433599490242
 30
0.0
 11
3990.418315669931
 21
2240.433599490241
 31
0.0
  0
INSERT
  5
3EFC
330
3AD7
100
AcDbEntity
  8
MITAT
 62
     3
370
    -2
100
AcDbBlockReference
  2
_OPEN
 10
3990.418315669931
 20
2440.433599490241
 30
0.0
 41
70.0
 42
70.0
 43
70.0
 50
90.0
  0
INSERT
  5
3EFD
330
3AD7
100
AcDbEntity
  8
MITAT
 62
     3
370
    -2
100
AcDbBlockReference
  2
_OPEN
 10
3990.418315669931
 20
2170.433599490241
 30
0.0
 41
70.0
 42
70.0
 43
70.0
 50
270.0
  0
MTEXT
  5
3EFE
330
3AD7
100
AcDbEntity
  8
MITAT
 62
     5
100
AcDbMText
 10
3934.10647159197
 20
2305.433599490242
 30
0.0
 40
70.0
 41
0.0
 71
     5
 72
     1
  1
\A1;270
  7
KUVASTO
 11
0.0000000000000001
 21
1.0
 31
0.0
 73
     1
 44
1.0
  0
POINT
  5
3EFF
330
3AD7
100
AcDbEntity
  8
DEFPOINTS
 62
     0
100
AcDbPoint
 10
4020.418315669932
 20
2440.433599490241
 30
-3092.679564157375
  0
POINT
  5
3F00
330
3AD7
100
AcDbEntity
  8
DEFPOINTS
 62
     0
100
AcDbPoint
 10
4020.418315669932
 20
2170.433599490241
 30
-3092.679564157375
  0
POINT
  5
3F01
330
3AD7
100
AcDbEntity
  8
DEFPOINTS
 62
     0
100
AcDbPoint
 10
3990.418315669931
 20
2170.433599490241
 30
0.0
  0
ENDBLK
  5
3AE2
330
3AD7
100
AcDbEntity
  8
0
100
AcDbBlockEnd
  0
BLOCK
  5
3AED
330
3AE3
100
AcDbEntity
  8
0
100
AcDbBlockBegin
  2
*D6
 70
     1
 10
0.0
 20
0.0
 30
0.0
  3
*D6
  1

  0
LINE
  5
3EEC
330
3AE3
100
AcDbEntity
  8
MITAT
 62
     3
370
    -2
100
AcDbLine
 10
5441.043348758132
 20
2440.433599490243
 30
0.0
 11
5471.668348758132
 21
2440.433599490243
 31
0.0
  0
LINE
  5
3EED
330
3AE3
100
AcDbEntity
  8
MITAT
 62
     3
370
    -2
100
AcDbLine
 10
5441.043348758132
 20
2072.433599490242
 30
0.0
 11
5471.668348758132
 21
2072.433599490242
 31
0.0
  0
LINE
  5
3EEE
330
3AE3
100
AcDbEntity
  8
MITAT
 62
     3
370
    -2
100
AcDbLine
 10
5470.418348758133
 20
2370.433599490243
 30
0.0
 11
5470.418348758133
 21
2142.433599490241
 31
0.0
  0
INSERT
  5
3EEF
330
3AE3
100
AcDbEntity
  8
MITAT
 62
     3
370
    -2
100
AcDbBlockReference
  2
_OPEN
 10
5470.418348758133
 20
2440.433599490243
 30
0.0
 41
70.0
 42
70.0
 43
70.0
 50
90.0
  0
INSERT
  5
3EF0
330
3AE3
100
AcDbEntity
  8
MITAT
 62
     3
370
    -2
100
AcDbBlockReference
  2
_OPEN
 10
5470.418348758133
 20
2072.433599490242
 30
0.0
 41
70.0
 42
70.0
 43
70.0
 50
270.0
  0
MTEXT
  5
3EF1
330
3AE3
100
AcDbEntity
  8
MITAT
 62
     5
100
AcDbMText
 10
5414.10650468017
 20
2256.433599490243
 30
0.0
 40
70.0
 41
0.0
 71
     5
 72
     1
  1
\A1;370
  7
KUVASTO
 11
0.0000000000000001
 21
1.0
 31
0.0
 73
     1
 44
1.0
  0
POINT
  5
3EF2
330
3AE3
100
AcDbEntity
  8
DEFPOINTS
 62
     0
100
AcDbPoint
 10
5440.418348758132
 20
2440.433599490243
 30
0.0
  0
POINT
  5
3EF3
330
3AE3
100
AcDbEntity
  8
DEFPOINTS
 62
     0
100
AcDbPoint
 10
5440.418348758132
 20
2072.433599490242
 30
0.0
  0
POINT
  5
3EF4
330
3AE3
100
AcDbEntity
  8
DEFPOINTS
 62
     0
100
AcDbPoint
 10
5470.418348758133
 20
2072.433599490242
 30
0.0
  0
ENDBLK
  5
3AEE
330
3AE3
100
AcDbEntity
  8
0
100
AcDbBlockEnd
  0
ENDSEC
  0
SECTION
  2
ENTITIES
  0
LWPOLYLINE
  5
3A7F
330
18
100
AcDbEntity
  8
LUUKUN-AUKKO
100
AcDbPolyline
 90
        6
 70
     0
 43
0.0
 38
-3176.685057321366
 10
4445.565501927541
 20
1997.712820103823
 10
4515.418315669928
 20
1927.860006361436
 10
4516.159839813322
 20
1915.428200208963
 10
4946.159839812529
 20
1915.429017164811
 10
4945.418315669927
 20
1927.860006361436
 10
5015.271129412315
 20
1997.712820103823
  0
LWPOLYLINE
  5
3A83
330
18
100
AcDbEntity
  8
MAINOS
100
AcDbPolyline
 90
       38
 70
     1
 43
0.0
 38
-3092.679564157375
 10
4600.864517826186
 20
1803.825450927417
 10
4608.864517826186
 20
1795.825450927418
 10
4710.864517826187
 20
1795.825450927418
 10
4710.864517826187
 20
1829.825450927418
 10
4747.801612448514
 20
1829.825450927418
 10
4747.801612448514
 20
1795.825450927418
 10
4849.801612448515
 20
1795.825450927418
 10
4857.801612448515
 20
1803.825450927417
 10
4857.801612448515
 20
1807.825450927418
 10
4767.801612448514
 20
1807.825450927418
 10
4767.801612448514
 20
1829.825450927418
 10
4967.25100623315
 20
1829.825450927418
 10
5084.112285750929
 20
1947.353759046414
 10
5068.555936564825
 20
1962.910108232518
 10
5086.778705363133
 20
1984.367582312254
 10
5093.849773175
 20
1977.296514500388
 10
5122.134044422461
 20
1977.296514500388
 10
5177.500293007913
 20
2032.66276308584
 10
5180.418315669928
 20
2060.43359949023
 10
5171.631519105513
 20
2069.220396054642
 42
0.1989123673796754
 10
5180.41831566992
 20
2090.43359949024
 10
5180.418315669928
 20
2380.433599490241
 42
0.4142135623730951
 10
5120.418315669929
 20
2440.433599490241
 10
4340.418315669935
 20
2440.433599490241
 42
0.4142135623731129
 10
4280.418315669932
 20
2380.433599490241
 10
4280.418315669938
 20
2090.43359949024
 42
0.1989123673796501
 10
4289.205112234344
 20
2069.220396054645
 10
4279.205112234338
 20
2065.078302925837
 10
4282.134044422479
 20
2033.865056995318
 10
4338.702586917402
 20
1977.296514500394
 10
4366.986858164864
 20
1977.296514500394
 10
4374.057925976729
 20
1984.367582312259
 10
4392.812796883169
 20
1965.61271140581
 10
4374.553844523773
 20
1947.353759046415
 10
4491.25100623315
 20
1830.705682964233
 10
4690.864517826187
 20
1829.825450927418
 10
4690.864517826187
 20
1807.825450927418
 10
4600.864517826186
 20
1807.825450927418
  0
CIRCLE
  5
3A85
330
18
100
AcDbEntity
  8
HORMILIITOS
100
AcDbCircle
 10
4730.418315669934
 20
2170.433599490241
 30
-3176.685057321364
 40
87.5
  0
LWPOLYLINE
  5
3A87
330
18
100
AcDbEntity
  8
MAINOS
100
AcDbPolyline
 90
       23
 70
     0
 43
0.0
 38
-3176.685057321364
 10
5110.45511223433
 20
2092.896802925837
 10
5015.271129412315
 20
1997.712820103823
 10
5057.697536283509
 20
1955.286413232628
 10
4966.631519105527
 20
1864.220396054644
 42
-0.1989123673796981
 10
4945.418315669924
 20
1855.433599490241
 10
4515.418315669925
 20
1855.433599490241
 42
-0.19891236737965
 10
4494.20511223433
 20
1864.220396054645
 10
4403.139095056348
 20
1955.286413232628
 10
4445.565501927541
 20
1997.712820103823
 10
4331.63151910553
 20
2111.646802925833
 10
4340.418315669938
 20
2120.43359949024
 10
4340.418315669935
 20
2110.433599490241
 10
4370.418315669936
 20
2110.433599490241
 10
4370.418315669936
 20
2350.433599490241
 10
4610.418315669935
 20
2350.433599490241
 10
4610.418315669935
 20
2380.433599490241
 10
4850.418315669934
 20
2380.433599490241
 10
4850.418315669919
 20
2350.433599490241
 10
5090.41831566992
 20
2350.433599490241
 10
5090.418315669934
 20
2110.433599490241
 10
5120.418315669933
 20
2110.433599490241
 10
5120.418315669918
 20
2120.43359949024
 10
5129.205112234325
 20
2111.646802925833
  0
LWPOLYLINE
  5
3A88
330
18
100
AcDbEntity
  8
MAINOS
100
AcDbPolyline
 90
       10
 70
     0
 43
0.0
 38
-3176.685057321364
 10
4340.418315669931
 20
2440.433599490241
 10
4261.045776337994
 20
2440.433599490243
 42
0.2152504370215292
 10
4220.418315669932
 20
2350.433599490242
 10
4220.418315669932
 20
2053.018550625497
 10
4478.043382214032
 20
1795.393484081396
 10
4982.793282214032
 20
1795.393484081396
 10
5240.418348758132
 20
2053.018550625497
 10
5240.418348758132
 20
2350.433599490242
 42
0.2152504370215292
 10
5199.79088809007
 20
2440.433599490243
 10
5120.418348758132
 20
2440.433599490243
  0
LWPOLYLINE
  5
3A89
330
18
100
AcDbEntity
  8
MAINOS
100
AcDbPolyline
 90
        2
 70
     0
 43
0.0
 38
-3176.685057321366
 10
5110.45511223433
 20
2092.896802925837
 10
5129.205112234325
 20
2111.646802925833
  0
LWPOLYLINE
  5
3A8A
330
18
100
AcDbEntity
  8
HORMILIITOS
100
AcDbPolyline
 90
        4
 70
     0
 43
0.0
 38
-3176.685057321364
 10
5270.418348758132
 20
2125.433599490241
 10
5270.418348758132
 20
2470.717530845655
 10
4190.418315669932
 20
2470.717530845655
 10
4190.418315669932
 20
2125.433599490241
  0
DIMENSION
  5
3A8C
330
18
100
AcDbEntity
  8
MITAT
100
AcDbDimension
  2
*D1
 10
5180.418315669938
 20
1595.393484081396
 30
0.0
 11
4730.418315669938
 21
1651.705328159358
 31
0.0
 70
    32
 71
     5
 42
900.0
  3
STANDARD
100
AcDbAlignedDimension
 13
4280.418315669938
 23
1625.393484081397
 33
-3176.685057321364
 14
5180.418315669938
 24
1625.393484081397
 34
-3176.685057321364
100
AcDbRotatedDimension
1001
ACAD
1000
DSTYLE
1002
{
1070
    40
1040
1.0
1002
}
  0
DIMENSION
  5
3A8D
330
18
100
AcDbEntity
  8
MITAT
100
AcDbDimension
  2
*D2
 10
5270.418315669939
 20
1594.768484081396
 30
0.0
 11
5486.512768443551
 21
1651.080328159357
 31
0.0
 70
    32
 71
     5
 42
90.0
  3
STANDARD
100
AcDbAlignedDimension
 13
5180.418315669938
 23
1624.768484081396
 33
0.0
 14
5270.418315669939
 24
1624.768484081396
 34
0.0
100
AcDbRotatedDimension
1001
ACAD
1000
DSTYLE
1002
{
1070
    40
1040
1.0
1002
}
  0
DIMENSION
  5
3A8E
330
18
100
AcDbEntity
  8
MITAT
100
AcDbDimension
  2
*D3
 10
4190.418315669938
 20
1595.393484081396
 30
0.0
 11
3974.323862896325
 21
1651.705328159358
 31
0.0
 70
    32
 71
     5
 42
90.0
  3
STANDARD
100
AcDbAlignedDimension
 13
4280.418315669938
 23
1625.393484081397
 33
-3176.685057321364
 14
4190.418315669938
 24
1625.393484081397
 34
-3176.685057321364
100
AcDbRotatedDimension
1001
ACAD
1000
DSTYLE
1002
{
1070
    40
1040
1.0
1002
}
  0
DIMENSION
  5
3A8F
330
18
100
AcDbEntity
  8
MITAT
100
AcDbDimension
  2
*D4
 10
5650.418348758132
 20
1855.433599490241
 30
0.0
 11
5594.106504680172
 21
2147.933599490243
 31
0.0
 70
    32
 71
     5
 42
585.0000000000015
  3
STANDARD
100
AcDbAlignedDimension
 13
5620.418348758132
 23
2440.433599490243
 33
-3176.685057321364
 14
5620.418348758132
 24
1855.433599490241
 34
-3176.685057321364
 50
90.0
100
AcDbRotatedDimension
1001
ACAD
1000
DSTYLE
1002
{
1070
    40
1040
1.0
1002
}
  0
DIMENSION
  5
3A90
330
18
100
AcDbEntity
  8
MITAT
100
AcDbDimension
  2
*D5
 10
3990.418315669931
 20
2170.433599490241
 30
0.0
 11
3934.10647159197
 21
2305.433599490242
 31
0.0
 70
    32
 71
     5
 42
270.0
  3
STANDARD
100
AcDbAlignedDimension
 13
4020.418315669932
 23
2440.433599490241
 33
-3092.679564157375
 14
4020.418315669932
 24
2170.433599490241
 34
-3092.679564157375
 50
90.0
100
AcDbRotatedDimension
1001
ACAD
1000
DSTYLE
1002
{
1070
    40
1040
1.0
1002
}
  0
LINE
  5
3A91
330
18
100
AcDbEntity
  8
0
  6
ByBlock
 62
     3
100
AcDbLine
 10
4019.168315669932
 20
2440.433599490241
 30
0.0
 11
3988.543315669932
 21
2440.433599490241
 31
0.0
  0
LINE
  5
3A92
330
18
100
AcDbEntity
  8
0
  6
ByBlock
 62
     3
100
AcDbLine
 10
3989.793315669931
 20
2370.433599490242
 30
0.0
 11
3989.793315669931
 21
2300.433599490241
 31
0.0
  0
INSERT
  5
3A93
330
18
100
AcDbEntity
  8
0
  6
ByBlock
 62
     3
100
AcDbBlockReference
  2
_OPEN
 10
3989.793315669931
 20
2440.433599490241
 30
0.0
 41
70.0
 42
70.0
 43
70.0
 50
90.0
  0
POINT
  5
3A94
330
18
100
AcDbEntity
  8
DEFPOINTS
  6
ByBlock
 62
     0
100
AcDbPoint
 10
4019.793315669931
 20
2440.433599490241
 30
0.0
  0
LWPOLYLINE
  5
3A95
330
18
100
AcDbEntity
  8
MAINOS
 62
     4
100
AcDbPolyline
 90
        6
 70
     0
 43
0.0
 38
-3176.685057321364
 10
4730.418315669934
 20
2170.433599490241
 10
4730.418315669934
 20
2145.433599490242
 10
4730.418315669934
 20
2195.433599490241
 10
4730.418315669934
 20
2170.433599490241
 10
4705.418315669934
 20
2170.433599490241
 10
4755.418315669934
 20
2170.433599490241
  0
DIMENSION
  5
3A96
330
18
100
AcDbEntity
  8
MITAT
100
AcDbDimension
  2
*D6
 10
5470.418348758133
 20
2072.433599490242
 30
0.0
 11
5414.10650468017
 21
2256.433599490243
 31
0.0
 70
    32
  1
370
 71
     5
 42
368.0000000000013
  3
STANDARD
100
AcDbAlignedDimension
 13
5440.418348758132
 23
2440.433599490243
 33
0.0
 14
5440.418348758132
 24
2072.433599490242
 34
0.0
 50
90.0
100
AcDbRotatedDimension
1001
ACAD
1000
DSTYLE
1002
{
1070
    40
1040
1.0
1002
}
  0
LINE
  5
3A97
330
18
100
AcDbEntity
  8
0
  6
ByBlock
 62
     3
100
AcDbLine
 10
5441.043348758132
 20
2440.433599490243
 30
0.0
 11
5471.668348758132
 21
2440.433599490243
 31
0.0
  0
LINE
  5
3A98
330
18
100
AcDbEntity
  8
0
  6
ByBlock
 62
     3
100
AcDbLine
 10
5441.043348758132
 20
2470.433599490242
 30
0.0
 11
5471.668348758132
 21
2470.433599490242
 31
0.0
  0
LINE
  5
3A99
330
18
100
AcDbEntity
  8
0
  6
ByBlock
 62
     3
100
AcDbLine
 10
5470.418348758133
 20
2370.433599490242
 30
0.0
 11
5470.418348758133
 21
2300.433599490241
 31
0.0
  0
LINE
  5
3A9A
330
18
100
AcDbEntity
  8
0
  6
ByBlock
 62
     3
100
AcDbLine
 10
5470.418348758133
 20
2540.433599490243
 30
0.0
 11
5470.418348758133
 21
2610.433599490243
 31
0.0
  0
LINE
  5
3A9B
330
18
100
AcDbEntity
  8
0
  6
ByBlock
 62
     3
100
AcDbLine
 10
5470.418348758133
 20
2610.433599490243
 30
0.0
 11
5470.418348758133
 21
2724.407587929549
 31
0.0
  0
LINE
  5
3A9C
330
18
100
AcDbEntity
  8
0
  6
ByBlock
 62
     3
100
AcDbLine
 10
5470.418348758133
 20
2440.433599490243
 30
0.0
 11
5470.418348758133
 21
2470.433599490242
 31
0.0
  0
INSERT
  5
3A9D
330
18
100
AcDbEntity
  8
0
  6
ByBlock
 62
     3
100
AcDbBlockReference
  2
_OPEN
 10
5470.418348758133
 20
2440.433599490243
 30
0.0
 41
70.0
 42
70.0
 43
70.0
 50
90.0
  0
INSERT
  5
3A9E
330
18
100
AcDbEntity
  8
0
  6
ByBlock
 62
     3
100
AcDbBlockReference
  2
_OPEN
 10
5470.418348758133
 20
2470.433599490242
 30
0.0
 41
70.0
 42
70.0
 43
70.0
 50
270.0
  0
MTEXT
  5
3A9F
330
18
100
AcDbEntity
  8
0
  6
ByBlock
 62
     5
100
AcDbMText
 10
5412.510111763912
 20
2677.420593709896
 30
0.0
 40
70.0
 41
0.0
 71
     5
 72
     1
  1
\A1;30
  7
KUVASTO
 11
0.0000000000000001
 21
1.0
 31
0.0
 73
     1
 44
1.0
  0
POINT
  5
3AA0
330
18
100
AcDbEntity
  8
DEFPOINTS
  6
ByBlock
 62
     0
100
AcDbPoint
 10
5440.418348758132
 20
2440.433599490243
 30
0.0
  0
POINT
  5
3AA1
330
18
100
AcDbEntity
  8
DEFPOINTS
  6
ByBlock
 62
     0
100
AcDbPoint
 10
5440.418348758132
 20
2470.433599490242
 30
0.0
  0
POINT
  5
3AA2
330
18
100
AcDbEntity
  8
DEFPOINTS
  6
ByBlock
 62
     0
100
AcDbPoint
 10
5470.418348758133
 20
2470.433599490242
 30
0.0
  0
LWPOLYLINE
  5
3BE9
330
18
100
AcDbEntity
  8
0
100
AcDbPolyline
 90
       35
 70
     0
 43
0.0
 38
-3176.685057321364
 10
4627.550350025899
 20
2346.058057895375
 10
4372.991908798741
 20
2091.499616668218
 10
4415.418315669934
 20
2049.073209797025
 10
4418.602976137423
 20
2052.257870264512
 42
0.4134374984103044
 10
4418.608590968651
 20
2048.020863733534
 10
4444.771543153328
 20
2021.857911548857
 10
4448.757864953721
 20
2025.844232983063
 10
4448.448345073265
 20
2018.534684381727
 10
4528.448328383965
 20
1938.534686169866
 10
4555.448338397545
 20
1938.534686169866
 10
4558.448329576058
 20
1941.534677348379
 10
4558.448329576058
 20
2129.534682086948
 10
4555.448338397545
 20
2132.534684441332
 10
4599.91831681091
 20
2177.004658769646
 10
4603.418311616818
 20
2173.504653641565
 10
4730.418315669933
 20
2173.504653641565
 10
4857.418319723049
 20
2173.504653641565
 10
4860.918314528957
 20
2177.004658769646
 10
4905.388292942323
 20
2132.534684441332
 10
4902.38830176381
 20
2129.534682086948
 10
4902.38830176381
 20
1941.534677348379
 10
4905.388292942323
 20
1938.534686169866
 10
4932.388302955903
 20
1938.534686169866
 10
5012.388286266602
 20
2018.534684381727
 10
5012.078766386146
 20
2025.844232983063
 10
5016.06508818654
 20
2021.857911548857
 10
5042.228040371217
 20
2048.020863733534
 42
0.4134374984578095
 10
5042.233655202102
 20
2052.257870264857
 10
5045.418315669934
 20
2049.073209797025
 10
5087.844722541127
 20
2091.499616668218
 10
4833.28628131397
 20
2346.058057895375
 10
4827.918315669935
 20
2340.69009225134
 10
4827.918315669935
 20
2355.690092251339
 10
4632.918315669934
 20
2355.690092251339
 10
4632.918315669934
 20
2340.69009225134
  0
LINE
  5
3C0A
330
18
100
AcDbEntity
  8
MAINOS
100
AcDbLine
 10
4632.918315669934
 20
2340.69009225134
 30
-3176.685057321364
 11
4627.550350025899
 21
2346.058057895375
 31
-3176.685057321364
  0
LWPOLYLINE
  5
3C0F
330
18
100
AcDbEntity
  8
0
100
AcDbPolyline
 90
        8
 70
     1
 43
0.0
 38
-3176.685057321364
 10
4481.007128962082
 20
2114.662015638594
 42
0.409111780273156
 10
4480.970422842288
 20
2110.456719096247
 10
4488.685580734551
 20
2102.467439223129
 42
-0.4091100468440068
 10
4488.648876555962
 20
2098.262140355352
 10
4443.320646890206
 20
2052.933903239015
 42
-0.4091115643836487
 10
4439.115330585045
 20
2052.897201678995
 10
4431.126063057596
 20
2060.612359311556
 42
0.4091102795365412
 10
4426.920756705803
 20
2060.575658283476
  0
LWPOLYLINE
  5
3C12
330
18
100
AcDbEntity
  8
0
100
AcDbPolyline
 90
        8
 70
     1
 43
0.0
 38
-3176.685057321364
 10
4543.23251864416
 20
2176.8874112956
 42
0.4091118042255066
 10
4543.19581390242
 20
2172.682115868945
 10
4550.910977478968
 20
2164.692835967545
 42
-0.4091107426435252
 10
4550.874277957482
 20
2160.487540825549
 10
4505.546033390564
 20
2115.159297189955
 42
-0.4091107992029227
 10
4501.340739675131
 20
2115.122598163709
 10
4493.351459802012
 20
2122.837756055972
 42
0.4091110156717638
 10
4489.146164347075
 20
2122.801056998516
  0
LWPOLYLINE
  5
3C15
330
18
100
AcDbEntity
  8
0
100
AcDbPolyline
 90
        8
 70
     1
 43
0.0
 38
-3176.685057321364
 10
4645.055897542042
 20
2278.710784218553
 42
0.4091111589381188
 10
4645.019195982022
 20
2274.505490265135
 10
4652.734354146523
 20
2266.516210339311
 42
-0.4091104793848581
 10
4652.697652586502
 20
2262.310916385893
 10
4592.520162471337
 20
2202.133431858662
 42
-0.4091108861452837
 10
4588.314873761077
 20
2202.096732249654
 10
4580.325593887958
 20
2209.811890141917
 42
0.4091108014276881
 10
4576.120298433021
 20
2209.775191084461
  0
LWPOLYLINE
  5
3C19
330
18
100
AcDbEntity
  8
0
100
AcDbPolyline
 90
        9
 70
     0
 43
0.0
 38
-3176.685057321364
 10
4979.833480716668
 20
2114.658052200872
 10
5033.915874634065
 20
2060.575658283476
 42
0.4091102795365586
 10
5029.710568282271
 20
2060.612359311556
 10
5021.721300754823
 20
2052.897201678995
 42
-0.4091115643836487
 10
5017.515984449662
 20
2052.933903239015
 10
4972.187754783906
 20
2098.262140355352
 42
-0.4091100468440068
 10
4972.151050605316
 20
2102.467439223129
 10
4979.866208497579
 20
2110.456719096247
 42
0.4091117802731083
 10
4979.829502377786
 20
2114.662015638594
  0
LWPOLYLINE
  5
3C1F
330
18
100
AcDbEntity
  8
0
100
AcDbPolyline
 90
        8
 70
     1
 43
0.0
 38
-3176.685057321364
 10
4917.604112695707
 20
2176.8874112956
 10
4971.690466992792
 20
2122.801056998516
 42
0.4091110156717897
 10
4967.485171537855
 20
2122.837756055972
 10
4959.495891664736
 20
2115.122598163709
 42
-0.4091107992029227
 10
4955.290597949304
 20
2115.159297189955
 10
4909.962353382386
 20
2160.487540825549
 42
-0.4091107426435252
 10
4909.925653860899
 20
2164.692835967545
 10
4917.640817437447
 20
2172.682115868945
 42
0.4091118042255827
  0
LWPOLYLINE
  5
3C23
330
18
100
AcDbEntity
  8
MAINOS
100
AcDbPolyline
 90
        9
 70
     0
 43
0.0
 38
-3176.685057321364
 10
4815.780733797826
 20
2278.710784218553
 42
-0.4091111589381259
 10
4815.817435357846
 20
2274.505490265135
 10
4808.102277193345
 20
2266.516210339311
 42
0.4091104793848581
 10
4808.138978753365
 20
2262.310916385893
 10
4868.316468868531
 20
2202.133431858662
 42
0.4091108861452837
 10
4872.52175757879
 20
2202.096732249654
 10
4880.511037451909
 20
2209.811890141917
 42
-0.4091108014277485
 10
4884.716332906845
 20
2209.775191084461
 10
4815.780733797826
 20
2278.710790193481
  0
LWPOLYLINE
  5
3C26
330
18
100
AcDbEntity
  8
MAINOS
100
AcDbPolyline
 90
       18
 70
     0
 43
0.0
 38
-3176.685057321364
 10
4807.641695260115
 20
2286.849828264955
 10
4790.859873471831
 20
2303.631650053239
 10
4782.918314698989
 20
2295.690091280397
 10
4677.918314698989
 20
2295.690091280397
 10
4669.976755926147
 20
2303.631650053239
 10
4653.194934137864
 20
2286.849828264955
 42
-0.409110728466282
 10
4657.400235541863
 20
2286.886529824976
 10
4689.025212087435
 20
2256.346637211088
 42
0.1943815895230338
 10
4691.109187909169
 20
2255.504661998991
 10
4717.413258746964
 20
2255.504661998991
 10
4726.812737303553
 20
2246.105180881265
 10
4730.418309577507
 20
2246.105180881265
 10
4734.023881851462
 20
2246.105180881265
 10
4743.42336040805
 20
2255.504661998991
 10
4769.727431245846
 20
2255.504661998991
 42
0.1943815895230338
 10
4771.81140706758
 20
2256.346637211088
 10
4803.436383613152
 20
2286.886529824976
 42
-0.4091107284662324
 10
4807.641685017151
 20
2286.849828264955
  0
ENDSEC
  0
SECTION
  2
OBJECTS
  0
DICTIONARY
  5
C
330
0
100
AcDbDictionary
281
     1
  3
ACAD_GROUP
350
D
  3
ACAD_LAYOUT
350
32FC
  3
ACAD_MLINESTYLE
350
1B
  3
ACAD_PLOTSETTINGS
350
32FD
  3
ACAD_PLOTSTYLENAME
350
32FA
  3
ACDBVARIABLEDICTIONARY
350
1C6
  0
DICTIONARY
  5
D
102
{ACAD_REACTORS
330
C
102
}
330
C
100
AcDbDictionary
281
     1
  0
DICTIONARY
  5
32FC
102
{ACAD_REACTORS
330
C
102
}
330
C
100
AcDbDictionary
281
     1
  3
Layout1
350
32FF
  3
Model
350
32FE
  0
DICTIONARY
  5
1B
102
{ACAD_REACTORS
330
C
102
}
330
C
100
AcDbDictionary
281
     1
  3
STANDARD
350
1C
  0
DICTIONARY
  5
32FD
102
{ACAD_REACTORS
330
C
102
}
330
C
100
AcDbDictionary
281
     1
  0
ACDBDICTIONARYWDFLT
  5
32FA
102
{ACAD_REACTORS
330
C
102
}
330
C
100
AcDbDictionary
281
     1
  3
Normal
350
32FB
100
AcDbDictionaryWithDefault
340
32FB
  0
DICTIONARY
  5
1C6
102
{ACAD_REACTORS
330
C
102
}
330
C
100
AcDbDictionary
281
     1
  3
DIMASSOC
350
3303
  3
SORTENTS
350
1C7
  0
LAYOUT
  5
32FF
102
{ACAD_REACTORS
330
32FC
102
}
330
32FC
100
AcDbPlotSettings
  1

  2
\\NUUTJARI\MKASPLA1
  4

  6

 40
0.0
 41
0.0
 42
0.0
 43
0.0
 44
0.0
 45
0.0
 46
0.0
 47
0.0
 48
0.0
 49
0.0
140
0.0
141
0.0
142
1.0
143
1.0
 70
   688
 72
     0
 73
     0
 74
     5
  7

 75
    16
147
1.0
148
0.0
149
0.0
100
AcDbLayout
  1
Layout1
 70
     1
 71
     1
 10
0.0
 20
0.0
 11
420.0
 21
297.0
 12
0.0
 22
0.0
 32
0.0
 14
1.000000000000000E+20
 24
1.000000000000000E+20
 34
1.000000000000000E+20
 15
-1.000000000000000E+20
 25
-1.000000000000000E+20
 35
-1.000000000000000E+20
146
0.0
 13
0.0
 23
0.0
 33
0.0
 16
1.0
 26
0.0
 36
0.0
 17
0.0
 27
1.0
 37
0.0
 76
     0
330
15
  0
LAYOUT
  5
32FE
102
{ACAD_REACTORS
330
32FC
102
}
330
32FC
100
AcDbPlotSettings
  1

  2
Amyuni PDF Converter
  4
A4
  6
OLE1
 40
6.720417
 41
6.805095999999999
 42
6.889755
 43
6.720428
 44
209.973328
 45
296.925995
 46
4.0
 47
45.77
 48
1084.22874334242
 49
1140.327456087364
140
2967.929818517499
141
3059.008079821431
142
1.0
143
10.0
 70
 11956
 72
     1
 73
     0
 74
     4
  7
monochrome.ctb
 75
    20
147
0.1
148
-1084.22874334242
149
-1140.327456087364
100
AcDbLayout
  1
Model
 70
     1
 71
     0
 10
0.0
 20
0.0
 11
12.0
 21
9.0
 12
0.0
 22
0.0
 32
0.0
 14
0.0
 24
0.0
 34
0.0
 15
0.0
 25
0.0
 35
0.0
146
0.0
 13
0.0
 23
0.0
 33
0.0
 16
1.0
 26
0.0
 36
0.0
 17
0.0
 27
1.0
 37
0.0
 76
     0
330
18
  0
MLINESTYLE
  5
1C
102
{ACAD_REACTORS
330
1B
102
}
330
1B
100
AcDbMlineStyle
  2
STANDARD
 70
     0
  3

 62
   256
 51
90.0
 52
90.0
 71
     2
 49
0.5
 62
   256
  6
BYLAYER
 49
-0.5
 62
   256
  6
BYLAYER
  0
ACDBPLACEHOLDER
  5
32FB
102
{ACAD_REACTORS
330
32FA
102
}
330
32FA
  0
DICTIONARYVAR
  5
3303
102
{ACAD_REACTORS
330
1C6
102
}
330
1C6
100
DictionaryVariables
280
     0
  1
1
  0
DICTIONARYVAR
  5
1C7
102
{ACAD_REACTORS
330
1C6
102
}
330
1C6
100
DictionaryVariables
280
     0
  1
96
  0
ENDSEC
  0
EOF
