  0
SECTION
  2
HEADER
  9
$ACADVER
  1
AC1015
  9
$ACADMAINTVER
 70
    14
  9
$DWGCODEPAGE
  3
ANSI_1252
  9
$INSBASE
 10
0.0
 20
0.0
 30
0.0
  9
$EXTMIN
 10
751.1663704046709
 20
1558.039389151747
 30
0.0
  9
$EXTMAX
 10
2140.93515653184
 20
4504.921081174464
 30
0.0
  9
$LIMMIN
 10
0.0
 20
0.0
  9
$LIMMAX
 10
420.0
 20
297.0
  9
$ORTHOMODE
 70
     1
  9
$REGENMODE
 70
     1
  9
$FILLMODE
 70
     1
  9
$QTEXTMODE
 70
     0
  9
$MIRRTEXT
 70
     1
  9
$LTSCALE
 40
1.0
  9
$ATTMODE
 70
     1
  9
$TEXTSIZE
 40
50.0
  9
$TRACEWID
 40
1.0
  9
$TEXTSTYLE
  7
KUVASTO
  9
$CLAYER
  8
MAINOS
  9
$CELTYPE
  6
BYLAYER
  9
$CECOLOR
 62
   256
  9
$CELTSCALE
 40
1.0
  9
$DISPSILH
 70
     1
  9
$DIMSCALE
 40
0.0
  9
$DIMASZ
 40
70.0
  9
$DIMEXO
 40
0.625
  9
$DIMDLI
 40
3.75
  9
$DIMRND
 40
0.0
  9
$DIMDLE
 40
0.0
  9
$DIMEXE
 40
1.25
  9
$DIMTP
 40
0.0
  9
$DIMTM
 40
0.0
  9
$DIMTXT
 40
60.0
  9
$DIMCEN
 40
2.5
  9
$DIMTSZ
 40
0.0
  9
$DIMTOL
 70
     0
  9
$DIMLIM
 70
     0
  9
$DIMTIH
 70
     0
  9
$DIMTOH
 70
     1
  9
$DIMSE1
 70
     0
  9
$DIMSE2
 70
     0
  9
$DIMTAD
 70
     1
  9
$DIMZIN
 70
     8
  9
$DIMBLK
  1

  9
$DIMASO
 70
     1
  9
$DIMSHO
 70
     1
  9
$DIMPOST
  1

  9
$DIMAPOST
  1

  9
$DIMALT
 70
     0
  9
$DIMALTD
 70
     4
  9
$DIMALTF
 40
0.0394
  9
$DIMLFAC
 40
1.0
  9
$DIMTOFL
 70
     1
  9
$DIMTVP
 40
0.0
  9
$DIMTIX
 70
     0
  9
$DIMSOXD
 70
     0
  9
$DIMSAH
 70
     1
  9
$DIMBLK1
  1
OPEN
  9
$DIMBLK2
  1
OPEN
  9
$DIMSTYLE
  2
STANDARD
  9
$DIMCLRD
 70
     3
  9
$DIMCLRE
 70
     3
  9
$DIMCLRT
 70
     5
  9
$DIMTFAC
 40
1.0
  9
$DIMGAP
 40
20.0
  9
$DIMJUST
 70
     0
  9
$DIMSD1
 70
     0
  9
$DIMSD2
 70
     0
  9
$DIMTOLJ
 70
     1
  9
$DIMTZIN
 70
     0
  9
$DIMALTZ
 70
     0
  9
$DIMALTTZ
 70
     0
  9
$DIMUPT
 70
     0
  9
$DIMDEC
 70
     4
  9
$DIMTDEC
 70
     4
  9
$DIMALTU
 70
     8
  9
$DIMALTTD
 70
     4
  9
$DIMTXSTY
  7
KUVASTO
  9
$DIMAUNIT
 70
     0
  9
$DIMADEC
 70
     0
  9
$DIMALTRND
 40
0.0
  9
$DIMAZIN
 70
     0
  9
$DIMDSEP
 70
    46
  9
$DIMATFIT
 70
     3
  9
$DIMFRAC
 70
     0
  9
$DIMLDRBLK
  1
OPEN
  9
$DIMLUNIT
 70
     6
  9
$DIMLWD
 70
    -2
  9
$DIMLWE
 70
    -2
  9
$DIMTMOVE
 70
     0
  9
$LUNITS
 70
     2
  9
$LUPREC
 70
     4
  9
$SKETCHINC
 40
1.0
  9
$FILLETRAD
 40
60.0
  9
$AUNITS
 70
     0
  9
$AUPREC
 70
     0
  9
$MENU
  1
.
  9
$ELEVATION
 40
0.0
  9
$PELEVATION
 40
0.0
  9
$THICKNESS
 40
0.0
  9
$LIMCHECK
 70
     0
  9
$CHAMFERA
 40
10.0
  9
$CHAMFERB
 40
10.0
  9
$CHAMFERC
 40
20.0
  9
$CHAMFERD
 40
0.0
  9
$SKPOLY
 70
     0
  9
$TDCREATE
 40
2452044.392230162
  9
$TDUCREATE
 40
2452044.308896828
  9
$TDUPDATE
 40
2453704.452221493
  9
$TDUUPDATE
 40
2453704.368888160
  9
$TDINDWG
 40
0.1611419213
  9
$TDUSRTIMER
 40
0.1611419213
  9
$USRTIMER
 70
     1
  9
$ANGBASE
 50
0.0
  9
$ANGDIR
 70
     0
  9
$PDMODE
 70
     0
  9
$PDSIZE
 40
0.0
  9
$PLINEWID
 40
0.0
  9
$SPLFRAME
 70
     0
  9
$SPLINETYPE
 70
     6
  9
$SPLINESEGS
 70
     8
  9
$HANDSEED
  5
1CB3
  9
$SURFTAB1
 70
     6
  9
$SURFTAB2
 70
     6
  9
$SURFTYPE
 70
     6
  9
$SURFU
 70
     6
  9
$SURFV
 70
     6
  9
$UCSBASE
  2

  9
$UCSNAME
  2

  9
$UCSORG
 10
0.0
 20
0.0
 30
0.0
  9
$UCSXDIR
 10
1.0
 20
0.0
 30
0.0
  9
$UCSYDIR
 10
0.0
 20
1.0
 30
0.0
  9
$UCSORTHOREF
  2

  9
$UCSORTHOVIEW
 70
     0
  9
$UCSORGTOP
 10
0.0
 20
0.0
 30
0.0
  9
$UCSORGBOTTOM
 10
0.0
 20
0.0
 30
0.0
  9
$UCSORGLEFT
 10
0.0
 20
0.0
 30
0.0
  9
$UCSORGRIGHT
 10
0.0
 20
0.0
 30
0.0
  9
$UCSORGFRONT
 10
0.0
 20
0.0
 30
0.0
  9
$UCSORGBACK
 10
0.0
 20
0.0
 30
0.0
  9
$PUCSBASE
  2

  9
$PUCSNAME
  2

  9
$PUCSORG
 10
0.0
 20
0.0
 30
0.0
  9
$PUCSXDIR
 10
1.0
 20
0.0
 30
0.0
  9
$PUCSYDIR
 10
0.0
 20
1.0
 30
0.0
  9
$PUCSORTHOREF
  2

  9
$PUCSORTHOVIEW
 70
     0
  9
$PUCSORGTOP
 10
0.0
 20
0.0
 30
0.0
  9
$PUCSORGBOTTOM
 10
0.0
 20
0.0
 30
0.0
  9
$PUCSORGLEFT
 10
0.0
 20
0.0
 30
0.0
  9
$PUCSORGRIGHT
 10
0.0
 20
0.0
 30
0.0
  9
$PUCSORGFRONT
 10
0.0
 20
0.0
 30
0.0
  9
$PUCSORGBACK
 10
0.0
 20
0.0
 30
0.0
  9
$USERI1
 70
     0
  9
$USERI2
 70
     0
  9
$USERI3
 70
     0
  9
$USERI4
 70
     0
  9
$USERI5
 70
     0
  9
$USERR1
 40
0.0
  9
$USERR2
 40
0.0
  9
$USERR3
 40
0.0
  9
$USERR4
 40
0.0
  9
$USERR5
 40
0.0
  9
$WORLDVIEW
 70
     1
  9
$SHADEDGE
 70
     3
  9
$SHADEDIF
 70
    70
  9
$TILEMODE
 70
     1
  9
$MAXACTVP
 70
    48
  9
$PINSBASE
 10
0.0
 20
0.0
 30
0.0
  9
$PLIMCHECK
 70
     0
  9
$PEXTMIN
 10
1.000000000000000E+20
 20
1.000000000000000E+20
 30
1.000000000000000E+20
  9
$PEXTMAX
 10
-1.000000000000000E+20
 20
-1.000000000000000E+20
 30
-1.000000000000000E+20
  9
$PLIMMIN
 10
0.0
 20
0.0
  9
$PLIMMAX
 10
420.0
 20
297.0
  9
$UNITMODE
 70
     0
  9
$VISRETAIN
 70
     1
  9
$PLINEGEN
 70
     0
  9
$PSLTSCALE
 70
     1
  9
$TREEDEPTH
 70
  3020
  9
$CMLSTYLE
  2
STANDARD
  9
$CMLJUST
 70
     0
  9
$CMLSCALE
 40
20.0
  9
$PROXYGRAPHICS
 70
     1
  9
$MEASUREMENT
 70
     1
  9
$CELWEIGHT
370
    -1
  9
$ENDCAPS
280
     0
  9
$JOINSTYLE
280
     0
  9
$LWDISPLAY
290
     0
  9
$INSUNITS
 70
     0
  9
$HYPERLINKBASE
  1

  9
$STYLESHEET
  1

  9
$XEDIT
290
     1
  9
$CEPSNTYPE
380
     0
  9
$PSTYLEMODE
290
     1
  9
$FINGERPRINTGUID
  2
{0973CB58-E571-11D5-B8D5-000103D6C2BD}
  9
$VERSIONGUID
  2
{DDB46A26-7609-4CF1-BA77-5083834B6B47}
  9
$EXTNAMES
290
     1
  9
$PSVPSCALE
 40
0.0
  9
$OLESTARTUP
290
     0
  0
ENDSEC
  0
SECTION
  2
CLASSES
  0
CLASS
  1
LWPOLYLINE
  2
AcDbPolyline
  3
AutoCAD 2000
 90
    32768
280
     0
281
     1
  0
CLASS
  1
DICTIONARYVAR
  2
AcDbDictionaryVar
  3
AutoCAD 2000
 90
        0
280
     0
281
     0
  0
CLASS
  1
HATCH
  2
AcDbHatch
  3
AutoCAD 2000
 90
    32768
280
     0
281
     1
  0
CLASS
  1
ACDBDICTIONARYWDFLT
  2
AcDbDictionaryWithDefault
  3
AutoCAD 2000
 90
        0
280
     0
281
     0
  0
CLASS
  1
ACDBPLACEHOLDER
  2
AcDbPlaceHolder
  3
AutoCAD 2000
 90
        0
280
     0
281
     0
  0
CLASS
  1
LAYOUT
  2
AcDbLayout
  3
AutoCAD 2000
 90
        0
280
     0
281
     0
  0
ENDSEC
  0
SECTION
  2
TABLES
  0
TABLE
  2
VPORT
  5
8
330
0
100
AcDbSymbolTable
 70
     2
  0
VPORT
  5
1CB2
330
8
100
AcDbSymbolTableRecord
100
AcDbViewportTableRecord
  2
*Active
 70
     0
 10
0.0
 20
0.0
 11
1.0
 21
1.0
 12
1872.778737018735
 22
2192.672242579458
 13
0.0
 23
0.0
 14
10.0
 24
10.0
 15
10.0
 25
10.0
 16
0.0
 26
0.0
 36
1.0
 17
0.0
 27
0.0
 37
0.0
 40
1782.269358858893
 41
2.076119402985074
 42
50.0
 43
0.0
 44
0.0
 50
0.0
 51
0.0
 71
     0
 72
 20000
 73
     1
 74
     1
 75
     0
 76
     0
 77
     0
 78
     0
281
     0
 65
     1
110
0.0
120
0.0
130
0.0
111
1.0
121
0.0
131
0.0
112
0.0
122
1.0
132
0.0
 79
     0
146
0.0
  0
ENDTAB
  0
TABLE
  2
LTYPE
  5
5
330
0
100
AcDbSymbolTable
 70
     1
  0
LTYPE
  5
12
330
5
100
AcDbSymbolTableRecord
100
AcDbLinetypeTableRecord
  2
BYBLOCK
 70
     0
  3

 72
    65
 73
     0
 40
0.0
  0
LTYPE
  5
13
330
5
100
AcDbSymbolTableRecord
100
AcDbLinetypeTableRecord
  2
BYLAYER
 70
     0
  3

 72
    65
 73
     0
 40
0.0
  0
LTYPE
  5
14
330
5
100
AcDbSymbolTableRecord
100
AcDbLinetypeTableRecord
  2
CONTINUOUS
 70
     0
  3
Solid line
 72
    65
 73
     0
 40
0.0
  0
ENDTAB
  0
TABLE
  2
LAYER
  5
2
330
0
100
AcDbSymbolTable
 70
     6
  0
LAYER
  5
E
330
2
100
AcDbSymbolTableRecord
100
AcDbLayerTableRecord
  2
0
 70
     0
 62
     7
  6
CONTINUOUS
370
    -3
390
1C7B
  0
LAYER
  5
158B
330
2
100
AcDbSymbolTableRecord
100
AcDbLayerTableRecord
  2
HORMILIITOS
 70
     0
 62
     6
  6
CONTINUOUS
370
    -3
390
1C7B
  0
LAYER
  5
1592
330
2
100
AcDbSymbolTableRecord
100
AcDbLayerTableRecord
  2
MITAT
 70
     0
 62
     5
  6
CONTINUOUS
370
    -3
390
1C7B
  0
LAYER
  5
1938
330
2
100
AcDbSymbolTableRecord
100
AcDbLayerTableRecord
  2
LUUKUN-AUKKO
 70
     0
 62
     4
  6
CONTINUOUS
370
    -3
390
1C7B
  0
LAYER
  5
1963
330
2
100
AcDbSymbolTableRecord
100
AcDbLayerTableRecord
  2
MAINOS
 70
     0
 62
     7
  6
CONTINUOUS
370
    -3
390
1C7B
  0
LAYER
  5
1A5A
330
2
100
AcDbSymbolTableRecord
100
AcDbLayerTableRecord
  2
DEFPOINTS
 70
     0
 62
     7
  6
CONTINUOUS
290
     0
370
    -3
390
1C7B
  0
ENDTAB
  0
TABLE
  2
STYLE
  5
3
330
0
100
AcDbSymbolTable
 70
     2
  0
STYLE
  5
F
330
3
100
AcDbSymbolTableRecord
100
AcDbTextStyleTableRecord
  2
STANDARD
 70
     0
 40
0.0
 41
1.0
 50
0.0
 71
     0
 42
2.5
  3

  4

1001
ACAD
1000
AGaramond
1071
 33554450
  0
STYLE
  5
15F2
330
3
100
AcDbSymbolTableRecord
100
AcDbTextStyleTableRecord
  2
KUVASTO
 70
     0
 40
70.0
 41
1.0
 50
0.0
 71
     0
 42
50.0
  3
GDRG____.TTF
  4

1001
ACAD
1000
AGaramond
1071
       18
  0
ENDTAB
  0
TABLE
  2
VIEW
  5
6
330
0
100
AcDbSymbolTable
 70
     0
  0
ENDTAB
  0
TABLE
  2
UCS
  5
7
330
0
100
AcDbSymbolTable
 70
     0
  0
ENDTAB
  0
TABLE
  2
APPID
  5
9
330
0
100
AcDbSymbolTable
 70
     3
  0
APPID
  5
10
330
9
100
AcDbSymbolTableRecord
100
AcDbRegAppTableRecord
  2
ACAD
 70
     0
  0
APPID
  5
1939
330
9
100
AcDbSymbolTableRecord
100
AcDbRegAppTableRecord
  2
AME_SOL
 70
     0
  0
APPID
  5
193A
330
9
100
AcDbSymbolTableRecord
100
AcDbRegAppTableRecord
  2
TULIKIVI
 70
     0
  0
ENDTAB
  0
TABLE
  2
DIMSTYLE
  5
A
330
0
100
AcDbSymbolTable
 70
     1
100
AcDbDimStyleTable
 71
     0
  0
DIMSTYLE
105
1D
102
{ACAD_REACTORS
330
1BF8
330
1BFF
330
1C00
330
1C01
102
}
330
A
100
AcDbSymbolTableRecord
100
AcDbDimStyleTableRecord
  2
STANDARD
 70
     0
 40
0.0
 41
70.0
 42
0.625
 43
3.75
 44
1.25
 73
     0
 77
     1
 78
     8
140
60.0
141
2.5
143
0.0394
147
20.0
171
     4
172
     1
173
     1
176
     3
177
     3
178
     5
273
     8
274
     4
277
     6
340
15F2
341
15A1
343
15A1
344
15A1
  0
ENDTAB
  0
TABLE
  2
BLOCK_RECORD
  5
1
330
0
100
AcDbSymbolTable
 70
     5
  0
BLOCK_RECORD
  5
18
330
1
100
AcDbSymbolTableRecord
100
AcDbBlockTableRecord
  2
*MODEL_SPACE
340
1C7E
  0
BLOCK_RECORD
  5
15
330
1
100
AcDbSymbolTableRecord
100
AcDbBlockTableRecord
  2
*PAPER_SPACE
340
1C7F
  0
BLOCK_RECORD
  5
15A1
330
1
100
AcDbSymbolTableRecord
100
AcDbBlockTableRecord
  2
_OPEN
340
0
102
{BLKREFS
331
1C05
331
1C0A
331
1C46
331
1C47
331
1C53
331
1C54
331
1C60
331
1C61
331
1C6B
331
1C6C
331
1C8F
331
1C90
331
1C98
331
1C99
331
1CA3
331
1CA4
331
1CAC
331
1CAD
102
}
  0
BLOCK_RECORD
  5
1C0E
330
1
100
AcDbSymbolTableRecord
100
AcDbBlockTableRecord
  2
*D1
340
0
  0
BLOCK_RECORD
  5
1C1A
330
1
100
AcDbSymbolTableRecord
100
AcDbBlockTableRecord
  2
*D2
340
0
  0
BLOCK_RECORD
  5
1C28
330
1
100
AcDbSymbolTableRecord
100
AcDbBlockTableRecord
  2
*D3
340
0
  0
BLOCK_RECORD
  5
1C36
330
1
100
AcDbSymbolTableRecord
100
AcDbBlockTableRecord
  2
*D4
340
0
  0
ENDTAB
  0
ENDSEC
  0
SECTION
  2
BLOCKS
  0
BLOCK
  5
19
330
18
100
AcDbEntity
  8
0
100
AcDbBlockBegin
  2
*MODEL_SPACE
 70
     0
 10
0.0
 20
0.0
 30
0.0
  3
*MODEL_SPACE
  1

  0
ENDBLK
  5
1A
330
18
100
AcDbEntity
  8
0
100
AcDbBlockEnd
  0
BLOCK
  5
16
330
15
100
AcDbEntity
 67
     1
  8
0
100
AcDbBlockBegin
  2
*PAPER_SPACE
 70
     0
 10
0.0
 20
0.0
 30
0.0
  3
*PAPER_SPACE
  1

  0
ENDBLK
  5
17
330
15
100
AcDbEntity
 67
     1
  8
0
100
AcDbBlockEnd
  0
BLOCK
  5
15A2
330
15A1
100
AcDbEntity
  8
0
100
AcDbBlockBegin
  2
_OPEN
 70
     0
 10
0.0
 20
0.0
 30
0.0
  3
_OPEN
  1

  0
LINE
  5
15A3
330
15A1
100
AcDbEntity
  8
0
  6
ByBlock
 62
     0
100
AcDbLine
 10
-1.0
 20
0.1666666666666666
 30
0.0
 11
0.0
 21
0.0
 31
0.0
  0
LINE
  5
15A4
330
15A1
100
AcDbEntity
  8
0
  6
ByBlock
 62
     0
100
AcDbLine
 10
0.0
 20
0.0
 30
0.0
 11
-1.0
 21
-0.1666666666666666
 31
0.0
  0
LINE
  5
15A5
330
15A1
100
AcDbEntity
  8
0
  6
ByBlock
 62
     0
100
AcDbLine
 10
0.0
 20
0.0
 30
0.0
 11
-1.0
 21
0.0
 31
0.0
  0
ENDBLK
  5
15A6
330
15A1
100
AcDbEntity
  8
0
100
AcDbBlockEnd
  0
BLOCK
  5
1C42
330
1C0E
100
AcDbEntity
  8
0
100
AcDbBlockBegin
  2
*D1
 70
     1
 10
0.0
 20
0.0
 30
0.0
  3
*D1
  1

  0
LINE
  5
1C95
330
1C0E
100
AcDbEntity
  8
MITAT
 62
     3
370
    -2
100
AcDbLine
 10
1056.050763468254
 20
1668.765674924172
 30
0.0
 11
1056.050763468254
 21
1638.140674924172
 31
0.0
  0
LINE
  5
1C96
330
1C0E
100
AcDbEntity
  8
MITAT
 62
     3
370
    -2
100
AcDbLine
 10
1836.050763468255
 20
1668.765674924172
 30
0.0
 11
1836.050763468255
 21
1638.140674924172
 31
0.0
  0
LINE
  5
1C97
330
1C0E
100
AcDbEntity
  8
MITAT
 62
     3
370
    -2
100
AcDbLine
 10
1126.050763468254
 20
1639.390674924172
 30
0.0
 11
1766.050763468254
 21
1639.390674924172
 31
0.0
  0
INSERT
  5
1C98
330
1C0E
100
AcDbEntity
  8
MITAT
 62
     3
370
    -2
100
AcDbBlockReference
  2
_OPEN
 10
1056.050763468254
 20
1639.390674924172
 30
0.0
 41
70.0
 42
70.0
 43
70.0
 50
180.0
  0
INSERT
  5
1C99
330
1C0E
100
AcDbEntity
  8
MITAT
 62
     3
370
    -2
100
AcDbBlockReference
  2
_OPEN
 10
1836.050763468255
 20
1639.390674924172
 30
0.0
 41
70.0
 42
70.0
 43
70.0
  0
MTEXT
  5
1C9A
330
1C0E
100
AcDbEntity
  8
MITAT
 62
     5
100
AcDbMText
 10
1446.050763468255
 20
1697.779403247872
 30
0.0
 40
70.0
 41
0.0
 71
     5
 72
     1
  1
\A1;780
  7
KUVASTO
 73
     1
 44
1.0
  0
POINT
  5
1C9B
330
1C0E
100
AcDbEntity
  8
DEFPOINTS
 62
     0
100
AcDbPoint
 10
1056.050763468254
 20
1669.390674924172
 30
0.0
  0
POINT
  5
1C9C
330
1C0E
100
AcDbEntity
  8
DEFPOINTS
 62
     0
100
AcDbPoint
 10
1836.050763468255
 20
1669.390674924172
 30
0.0
  0
POINT
  5
1C9D
330
1C0E
100
AcDbEntity
  8
DEFPOINTS
 62
     0
100
AcDbPoint
 10
1836.050763468255
 20
1639.390674924172
 30
0.0
  0
ENDBLK
  5
1C4C
330
1C0E
100
AcDbEntity
  8
0
100
AcDbBlockEnd
  0
BLOCK
  5
1C4D
330
1C1A
100
AcDbEntity
  8
0
100
AcDbBlockBegin
  2
*D2
 70
     1
 10
0.0
 20
0.0
 30
0.0
  3
*D2
  1

  0
LINE
  5
1C8A
330
1C1A
100
AcDbEntity
  8
MITAT
 62
     3
370
    -2
100
AcDbLine
 10
1056.050763468254
 20
1668.140674924173
 30
0.0
 11
1056.050763468254
 21
1637.515674924172
 31
0.0
  0
LINE
  5
1C8B
330
1C1A
100
AcDbEntity
  8
MITAT
 62
     3
370
    -2
100
AcDbLine
 10
1026.050763468254
 20
1668.140674924173
 30
0.0
 11
1026.050763468254
 21
1637.515674924172
 31
0.0
  0
LINE
  5
1C8C
330
1C1A
100
AcDbEntity
  8
MITAT
 62
     3
370
    -2
100
AcDbLine
 10
1126.050763468254
 20
1638.765674924172
 30
0.0
 11
1196.050763468255
 21
1638.765674924172
 31
0.0
  0
LINE
  5
1C8D
330
1C1A
100
AcDbEntity
  8
MITAT
 62
     3
370
    -2
100
AcDbLine
 10
956.0507634682549
 20
1638.765674924172
 30
0.0
 11
751.1663704046709
 21
1638.765674924172
 31
0.0
  0
LINE
  5
1C8E
330
1C1A
100
AcDbEntity
  8
MITAT
 62
     3
370
    -2
100
AcDbLine
 10
1056.050763468254
 20
1638.765674924172
 30
0.0
 11
1026.050763468254
 21
1638.765674924172
 31
0.0
  0
INSERT
  5
1C8F
330
1C1A
100
AcDbEntity
  8
MITAT
 62
     3
370
    -2
100
AcDbBlockReference
  2
_OPEN
 10
1056.050763468254
 20
1638.765674924172
 30
0.0
 41
70.0
 42
70.0
 43
70.0
 50
180.0
  0
INSERT
  5
1C90
330
1C1A
100
AcDbEntity
  8
MITAT
 62
     3
370
    -2
100
AcDbBlockReference
  2
_OPEN
 10
1026.050763468254
 20
1638.765674924172
 30
0.0
 41
70.0
 42
70.0
 43
70.0
  0
MTEXT
  5
1C91
330
1C1A
100
AcDbEntity
  8
MITAT
 62
     5
100
AcDbMText
 10
818.6085669364629
 20
1696.673911918392
 30
0.0
 40
70.0
 41
0.0
 71
     5
 72
     1
  1
\A1;30
  7
KUVASTO
 73
     1
 44
1.0
  0
POINT
  5
1C92
330
1C1A
100
AcDbEntity
  8
DEFPOINTS
 62
     0
100
AcDbPoint
 10
1056.050763468254
 20
1668.765674924173
 30
0.0
  0
POINT
  5
1C93
330
1C1A
100
AcDbEntity
  8
DEFPOINTS
 62
     0
100
AcDbPoint
 10
1026.050763468254
 20
1668.765674924173
 30
0.0
  0
POINT
  5
1C94
330
1C1A
100
AcDbEntity
  8
DEFPOINTS
 62
     0
100
AcDbPoint
 10
1026.050763468254
 20
1638.765674924172
 30
0.0
  0
ENDBLK
  5
1C59
330
1C1A
100
AcDbEntity
  8
0
100
AcDbBlockEnd
  0
BLOCK
  5
1C5A
330
1C28
100
AcDbEntity
  8
0
100
AcDbBlockBegin
  2
*D3
 70
     1
 10
0.0
 20
0.0
 30
0.0
  3
*D3
  1

  0
LINE
  5
1C9E
330
1C28
100
AcDbEntity
  8
MITAT
 62
     3
370
    -2
100
AcDbLine
 10
1836.050763468255
 20
1668.140674924173
 30
0.0
 11
1836.050763468255
 21
1637.515674924172
 31
0.0
  0
LINE
  5
1C9F
330
1C28
100
AcDbEntity
  8
MITAT
 62
     3
370
    -2
100
AcDbLine
 10
1866.050763468256
 20
1668.140674924173
 30
0.0
 11
1866.050763468256
 21
1637.515674924172
 31
0.0
  0
LINE
  5
1CA0
330
1C28
100
AcDbEntity
  8
MITAT
 62
     3
370
    -2
100
AcDbLine
 10
1766.050763468254
 20
1638.765674924172
 30
0.0
 11
1696.050763468255
 21
1638.765674924172
 31
0.0
  0
LINE
  5
1CA1
330
1C28
100
AcDbEntity
  8
MITAT
 62
     3
370
    -2
100
AcDbLine
 10
1936.050763468255
 20
1638.765674924172
 30
0.0
 11
2140.93515653184
 21
1638.765674924172
 31
0.0
  0
LINE
  5
1CA2
330
1C28
100
AcDbEntity
  8
MITAT
 62
     3
370
    -2
100
AcDbLine
 10
1836.050763468255
 20
1638.765674924172
 30
0.0
 11
1866.050763468256
 21
1638.765674924172
 31
0.0
  0
INSERT
  5
1CA3
330
1C28
100
AcDbEntity
  8
MITAT
 62
     3
370
    -2
100
AcDbBlockReference
  2
_OPEN
 10
1836.050763468255
 20
1638.765674924172
 30
0.0
 41
70.0
 42
70.0
 43
70.0
  0
INSERT
  5
1CA4
330
1C28
100
AcDbEntity
  8
MITAT
 62
     3
370
    -2
100
AcDbBlockReference
  2
_OPEN
 10
1866.050763468256
 20
1638.765674924172
 30
0.0
 41
70.0
 42
70.0
 43
70.0
 50
180.0
  0
MTEXT
  5
1CA5
330
1C28
100
AcDbEntity
  8
MITAT
 62
     5
100
AcDbMText
 10
2073.492960000047
 20
1696.673911918392
 30
0.0
 40
70.0
 41
0.0
 71
     5
 72
     1
  1
\A1;30
  7
KUVASTO
 73
     1
 44
1.0
  0
POINT
  5
1CA6
330
1C28
100
AcDbEntity
  8
DEFPOINTS
 62
     0
100
AcDbPoint
 10
1836.050763468255
 20
1668.765674924173
 30
0.0
  0
POINT
  5
1CA7
330
1C28
100
AcDbEntity
  8
DEFPOINTS
 62
     0
100
AcDbPoint
 10
1866.050763468256
 20
1668.765674924173
 30
0.0
  0
POINT
  5
1CA8
330
1C28
100
AcDbEntity
  8
DEFPOINTS
 62
     0
100
AcDbPoint
 10
1866.050763468256
 20
1638.765674924172
 30
0.0
  0
ENDBLK
  5
1C66
330
1C28
100
AcDbEntity
  8
0
100
AcDbBlockEnd
  0
BLOCK
  5
1C67
330
1C36
100
AcDbEntity
  8
0
100
AcDbBlockBegin
  2
*D4
 70
     1
 10
0.0
 20
0.0
 30
0.0
  3
*D4
  1

  0
LINE
  5
1CA9
330
1C36
100
AcDbEntity
  8
MITAT
 62
     3
370
    -2
100
AcDbLine
 10
1970.220954769928
 20
2320.337266145563
 30
0.0
 11
2000.845954769928
 21
2320.337266145563
 31
0.0
  0
LINE
  5
1CAA
330
1C36
100
AcDbEntity
  8
MITAT
 62
     3
370
    -2
100
AcDbLine
 10
1970.220954769928
 20
1840.337266145563
 30
0.0
 11
2000.845954769928
 21
1840.337266145563
 31
0.0
  0
LINE
  5
1CAB
330
1C36
100
AcDbEntity
  8
MITAT
 62
     3
370
    -2
100
AcDbLine
 10
1999.595954769928
 20
2250.337266145563
 30
0.0
 11
1999.595954769928
 21
1910.337266145563
 31
0.0
  0
INSERT
  5
1CAC
330
1C36
100
AcDbEntity
  8
MITAT
 62
     3
370
    -2
100
AcDbBlockReference
  2
_OPEN
 10
1999.595954769928
 20
2320.337266145563
 30
0.0
 41
70.0
 42
70.0
 43
70.0
 50
90.0
  0
INSERT
  5
1CAD
330
1C36
100
AcDbEntity
  8
MITAT
 62
     3
370
    -2
100
AcDbBlockReference
  2
_OPEN
 10
1999.595954769928
 20
1840.337266145563
 30
0.0
 41
70.0
 42
70.0
 43
70.0
 50
270.0
  0
MTEXT
  5
1CAE
330
1C36
100
AcDbEntity
  8
MITAT
 62
     5
100
AcDbMText
 10
1942.294654191893
 20
2080.337266145563
 30
0.0
 40
70.0
 41
0.0
 71
     5
 72
     1
  1
\A1;480
  7
KUVASTO
 11
0.0000000000000001
 21
1.0
 31
0.0
 73
     1
 44
1.0
  0
POINT
  5
1CAF
330
1C36
100
AcDbEntity
  8
DEFPOINTS
 62
     0
100
AcDbPoint
 10
1969.595954769928
 20
2320.337266145563
 30
0.0
  0
POINT
  5
1CB0
330
1C36
100
AcDbEntity
  8
DEFPOINTS
 62
     0
100
AcDbPoint
 10
1969.595954769928
 20
1840.337266145563
 30
0.0
  0
POINT
  5
1CB1
330
1C36
100
AcDbEntity
  8
DEFPOINTS
 62
     0
100
AcDbPoint
 10
1999.595954769928
 20
1840.337266145563
 30
0.0
  0
ENDBLK
  5
1C71
330
1C36
100
AcDbEntity
  8
0
100
AcDbBlockEnd
  0
ENDSEC
  0
SECTION
  2
ENTITIES
  0
DIMENSION
  5
1BF8
330
18
100
AcDbEntity
  8
MITAT
100
AcDbDimension
  2
*D1
 10
1836.050763468255
 20
1639.390674924172
 30
0.0
 11
1446.050763468255
 21
1697.779403247872
 31
0.0
 70
    32
 71
     5
 42
780.0
  3
STANDARD
100
AcDbAlignedDimension
 13
1056.050763468254
 23
1669.390674924172
 33
0.0
 14
1836.050763468255
 24
1669.390674924172
 34
0.0
100
AcDbRotatedDimension
1001
ACAD
1000
DSTYLE
1002
{
1070
    40
1040
1.0
1002
}
  0
TEXT
  5
1BF9
330
18
100
AcDbEntity
  8
MITAT
100
AcDbText
 10
903.0507634682553
 20
4401.337266145563
 30
0.0
 40
80.0
  1
HORMILIITOSALUE
  7
KUVASTO
100
AcDbText
  0
LWPOLYLINE
  5
1BFA
330
18
100
AcDbEntity
  8
HORMILIITOS
100
AcDbPolyline
 90
        4
 70
     0
 43
0.0
 10
1866.050763468255
 20
1930.337266145563
 10
1866.050763468255
 20
2350.337266145563
 10
1026.050763468254
 20
2350.337266145563
 10
1026.050763468254
 20
1930.337266145563
  0
LWPOLYLINE
  5
1BFB
330
18
100
AcDbEntity
  8
MAINOS
 62
     7
100
AcDbPolyline
 90
       18
 70
     1
 43
0.0
 10
1086.050763468254
 20
2320.337266145563
 42
0.4142135623730951
 10
1056.050763468254
 20
2290.337266145563
 10
1056.050763468254
 20
1870.337266145563
 42
0.4142135623730951
 10
1086.050763468254
 20
1840.337266145563
 10
1281.050641397942
 20
1840.337277589655
 10
1286.345502237786
 20
1810.309348283624
 10
1310.847699503411
 20
1810.337268052911
 10
1310.849957804192
 20
1770.331055818415
 10
1404.451947550286
 20
1770.337266145563
 10
1404.451947550286
 20
1785.337265668726
 10
1325.84153495263
 20
1785.337265191889
 10
1325.843915323723
 20
1810.337268052911
 10
1605.760907511223
 20
1810.337266145563
 10
1611.050702433098
 20
1840.33726996026
 10
1806.050763468254
 20
1840.337266145563
 42
0.4142135623730951
 10
1836.050763468255
 20
1870.337266145563
 10
1836.050763468255
 20
2290.337266145563
 42
0.4142135623730951
 10
1806.050763468254
 20
2320.337266145563
  0
LWPOLYLINE
  5
1BFC
330
18
100
AcDbEntity
  8
LUUKUN-AUKKO
100
AcDbPolyline
 90
        2
 70
     0
 43
0.0
 10
1296.050763468254
 20
1900.337266145563
 10
1596.050763468254
 20
1900.337266145563
  0
LWPOLYLINE
  5
1BFD
330
18
100
AcDbEntity
  8
MAINOS
 62
     7
100
AcDbPolyline
 90
       12
 70
     1
 43
0.0
 10
1596.050763468254
 20
1915.337266145563
 10
1686.050763468254
 20
1915.337266145563
 10
1686.050763468254
 20
2215.337266145563
 10
1596.050763468254
 20
2215.337266145563
 10
1596.050763468254
 20
2245.337266145563
 10
1296.050763468254
 20
2245.337266145563
 10
1296.050763468254
 20
2215.337266145563
 10
1206.050763468255
 20
2215.337266145563
 10
1206.050763468255
 20
1915.337266145563
 10
1296.050763468254
 20
1915.337266145563
 10
1296.050763468254
 20
2155.337266145563
 10
1596.050763468254
 20
2155.337266145563
  0
LWPOLYLINE
  5
1BFE
330
18
100
AcDbEntity
  8
MAINOS
 62
     7
100
AcDbPolyline
 90
       16
 70
     1
 43
0.0
 10
1236.050763468254
 20
2260.337266145563
 10
1236.050763468254
 20
2230.337266145563
 10
1116.050763468255
 20
2230.337266145563
 10
1116.050763468255
 20
2225.337266145563
 10
1146.050763468255
 20
2225.337266145563
 10
1146.050763468255
 20
1900.337266145563
 10
1296.050763468254
 20
1900.337266145563
 10
1295.858350138175
 20
1840.337271867609
 10
1595.858350138176
 20
1840.337271867609
 10
1596.050763468254
 20
1900.337266145563
 10
1746.050763468255
 20
1900.337266145563
 10
1746.050763468255
 20
2225.337266145563
 10
1776.050763468255
 20
2225.337266145563
 10
1776.050763468255
 20
2230.337266145563
 10
1656.050763468254
 20
2230.337266145563
 10
1656.050763468254
 20
2260.337266145563
  0
DIMENSION
  5
1BFF
330
18
100
AcDbEntity
  8
MITAT
100
AcDbDimension
  2
*D2
 10
1026.050763468254
 20
1638.765674924172
 30
0.0
 11
818.6085669364629
 21
1696.673911918392
 31
0.0
 70
    32
 71
     5
 42
30.0
  3
STANDARD
100
AcDbAlignedDimension
 13
1056.050763468254
 23
1668.765674924173
 33
0.0
 14
1026.050763468254
 24
1668.765674924173
 34
0.0
100
AcDbRotatedDimension
1001
ACAD
1000
DSTYLE
1002
{
1070
    40
1040
1.0
1002
}
  0
DIMENSION
  5
1C00
330
18
100
AcDbEntity
  8
MITAT
100
AcDbDimension
  2
*D3
 10
1866.050763468256
 20
1638.765674924172
 30
0.0
 11
2073.492960000047
 21
1696.673911918392
 31
0.0
 70
    32
 71
     5
 42
30.00000000000091
  3
STANDARD
100
AcDbAlignedDimension
 13
1836.050763468255
 23
1668.765674924173
 33
0.0
 14
1866.050763468256
 24
1668.765674924173
 34
0.0
100
AcDbRotatedDimension
1001
ACAD
1000
DSTYLE
1002
{
1070
    40
1040
1.0
1002
}
  0
DIMENSION
  5
1C01
330
18
100
AcDbEntity
  8
MITAT
100
AcDbDimension
  2
*D4
 10
1999.595954769928
 20
1840.337266145563
 30
0.0
 11
1942.294654191893
 21
2080.337266145563
 31
0.0
 70
    32
 71
     5
 42
480.0000000000002
  3
STANDARD
100
AcDbAlignedDimension
 13
1969.595954769928
 23
2320.337266145563
 33
0.0
 14
1969.595954769928
 24
1840.337266145563
 34
0.0
 50
90.0
100
AcDbRotatedDimension
1001
ACAD
1000
DSTYLE
1002
{
1070
    40
1040
1.0
1002
}
  0
MTEXT
  5
1C02
330
18
100
AcDbEntity
  8
0
  6
ByBlock
 62
     5
100
AcDbMText
 10
1941.687717775708
 20
2557.324260365216
 30
0.0
 40
70.0
 41
0.0
 71
     5
 72
     1
  1
\A1;30
  7
KUVASTO
 11
0.0000000000000001
 21
1.0
 31
0.0
 73
     1
 44
1.0
  0
LINE
  5
1C03
330
18
100
AcDbEntity
  8
0
  6
ByBlock
 62
     3
100
AcDbLine
 10
1999.595954769928
 20
2490.337266145563
 30
0.0
 11
1999.595954769928
 21
2604.31125458487
 31
0.0
  0
LINE
  5
1C04
330
18
100
AcDbEntity
  8
0
  6
ByBlock
 62
     3
100
AcDbLine
 10
1999.595954769928
 20
2320.337266145563
 30
0.0
 11
1999.595954769928
 21
2350.337266145563
 31
0.0
  0
INSERT
  5
1C05
330
18
100
AcDbEntity
  8
0
  6
ByBlock
 62
     3
100
AcDbBlockReference
  2
_OPEN
 10
1999.595954769928
 20
2320.337266145563
 30
0.0
 41
70.0
 42
70.0
 43
70.0
 50
90.0
  0
LINE
  5
1C06
330
18
100
AcDbEntity
  8
0
  6
ByBlock
 62
     3
100
AcDbLine
 10
1999.595954769928
 20
2250.337266145563
 30
0.0
 11
1999.595954769928
 21
2180.337266145563
 31
0.0
  0
LINE
  5
1C07
330
18
100
AcDbEntity
  8
0
  6
ByBlock
 62
     3
100
AcDbLine
 10
1970.220954769928
 20
2320.337266145563
 30
0.0
 11
2000.845954769928
 21
2320.337266145563
 31
0.0
  0
POINT
  5
1C08
330
18
100
AcDbEntity
  8
DEFPOINTS
  6
ByBlock
 62
     0
100
AcDbPoint
 10
1969.595954769928
 20
2320.337266145563
 30
0.0
  0
LINE
  5
1C09
330
18
100
AcDbEntity
  8
0
  6
ByBlock
 62
     3
100
AcDbLine
 10
1999.595954769928
 20
2420.337266145563
 30
0.0
 11
1999.595954769928
 21
2490.337266145563
 31
0.0
  0
INSERT
  5
1C0A
330
18
100
AcDbEntity
  8
0
  6
ByBlock
 62
     3
100
AcDbBlockReference
  2
_OPEN
 10
1999.595954769928
 20
2350.337266145563
 30
0.0
 41
70.0
 42
70.0
 43
70.0
 50
270.0
  0
LINE
  5
1C0B
330
18
100
AcDbEntity
  8
0
  6
ByBlock
 62
     3
100
AcDbLine
 10
1970.220954769928
 20
2350.337266145563
 30
0.0
 11
2000.845954769928
 21
2350.337266145563
 31
0.0
  0
POINT
  5
1C0C
330
18
100
AcDbEntity
  8
DEFPOINTS
  6
ByBlock
 62
     0
100
AcDbPoint
 10
1969.595954769928
 20
2350.337266145563
 30
0.0
  0
POINT
  5
1C0D
330
18
100
AcDbEntity
  8
DEFPOINTS
  6
ByBlock
 62
     0
100
AcDbPoint
 10
1999.595954769928
 20
2350.337266145563
 30
0.0
  0
ENDSEC
  0
SECTION
  2
OBJECTS
  0
DICTIONARY
  5
C
330
0
100
AcDbDictionary
281
     1
  3
ACAD_GROUP
350
D
  3
ACAD_LAYOUT
350
1C7C
  3
ACAD_MLINESTYLE
350
1B
  3
ACAD_PLOTSETTINGS
350
1C7D
  3
ACAD_PLOTSTYLENAME
350
1C7A
  3
ACDBVARIABLEDICTIONARY
350
1C6
  0
DICTIONARY
  5
D
102
{ACAD_REACTORS
330
C
102
}
330
C
100
AcDbDictionary
281
     1
  0
DICTIONARY
  5
1C7C
102
{ACAD_REACTORS
330
C
102
}
330
C
100
AcDbDictionary
281
     1
  3
Layout1
350
1C7F
  3
Model
350
1C7E
  0
DICTIONARY
  5
1B
102
{ACAD_REACTORS
330
C
102
}
330
C
100
AcDbDictionary
281
     1
  3
STANDARD
350
1C
  0
DICTIONARY
  5
1C7D
102
{ACAD_REACTORS
330
C
102
}
330
C
100
AcDbDictionary
281
     1
  0
ACDBDICTIONARYWDFLT
  5
1C7A
102
{ACAD_REACTORS
330
C
102
}
330
C
100
AcDbDictionary
281
     1
  3
Normal
350
1C7B
100
AcDbDictionaryWithDefault
340
1C7B
  0
DICTIONARY
  5
1C6
102
{ACAD_REACTORS
330
C
102
}
330
C
100
AcDbDictionary
281
     1
  3
DIMASSOC
350
1C83
  3
SORTENTS
350
1C7
  0
LAYOUT
  5
1C7F
102
{ACAD_REACTORS
330
1C7C
102
}
330
1C7C
100
AcDbPlotSettings
  1

  2
\\NUUTJARI\MKASPLA1
  4

  6

 40
0.0
 41
0.0
 42
0.0
 43
0.0
 44
0.0
 45
0.0
 46
0.0
 47
0.0
 48
0.0
 49
0.0
140
0.0
141
0.0
142
1.0
143
1.0
 70
   688
 72
     0
 73
     0
 74
     5
  7

 75
    16
147
1.0
148
0.0
149
0.0
100
AcDbLayout
  1
Layout1
 70
     1
 71
     1
 10
0.0
 20
0.0
 11
420.0
 21
297.0
 12
0.0
 22
0.0
 32
0.0
 14
1.000000000000000E+20
 24
1.000000000000000E+20
 34
1.000000000000000E+20
 15
-1.000000000000000E+20
 25
-1.000000000000000E+20
 35
-1.000000000000000E+20
146
0.0
 13
0.0
 23
0.0
 33
0.0
 16
1.0
 26
0.0
 36
0.0
 17
0.0
 27
1.0
 37
0.0
 76
     0
330
15
  0
LAYOUT
  5
1C7E
102
{ACAD_REACTORS
330
1C7C
102
}
330
1C7C
100
AcDbPlotSettings
  1

  2
\\NUUTJARI\MKASPLA1
  4

  6

 40
0.0
 41
0.0
 42
0.0
 43
0.0
 44
0.0
 45
0.0
 46
0.0
 47
0.0
 48
0.0
 49
0.0
140
0.0
141
0.0
142
1.0
143
1.0
 70
  1712
 72
     0
 73
     0
 74
     0
  7

 75
     0
147
1.0
148
0.0
149
0.0
100
AcDbLayout
  1
Model
 70
     1
 71
     0
 10
0.0
 20
0.0
 11
12.0
 21
9.0
 12
0.0
 22
0.0
 32
0.0
 14
0.0
 24
0.0
 34
0.0
 15
0.0
 25
0.0
 35
0.0
146
0.0
 13
0.0
 23
0.0
 33
0.0
 16
1.0
 26
0.0
 36
0.0
 17
0.0
 27
1.0
 37
0.0
 76
     0
330
18
  0
MLINESTYLE
  5
1C
102
{ACAD_REACTORS
330
1B
102
}
330
1B
100
AcDbMlineStyle
  2
STANDARD
 70
     0
  3

 62
   256
 51
90.0
 52
90.0
 71
     2
 49
0.5
 62
   256
  6
BYLAYER
 49
-0.5
 62
   256
  6
BYLAYER
  0
ACDBPLACEHOLDER
  5
1C7B
102
{ACAD_REACTORS
330
1C7A
102
}
330
1C7A
  0
DICTIONARYVAR
  5
1C83
102
{ACAD_REACTORS
330
1C6
102
}
330
1C6
100
DictionaryVariables
280
     0
  1
1
  0
DICTIONARYVAR
  5
1C7
102
{ACAD_REACTORS
330
1C6
102
}
330
1C6
100
DictionaryVariables
280
     0
  1
96
  0
ENDSEC
  0
EOF
