  0
SECTION
  2
HEADER
  9
$ACADVER
  1
AC1015
  9
$ACADMAINTVER
 70
    13
  9
$DWGCODEPAGE
  3
ANSI_1252
  9
$INSBASE
 10
0.0
 20
0.0
 30
0.0
  9
$EXTMIN
 10
2162.840391332378
 20
2321.780421234148
 30
-283.3345308249711
  9
$EXTMAX
 10
3850.788368210991
 20
5444.337296415255
 30
0.0
  9
$LIMMIN
 10
0.0
 20
0.0
  9
$LIMMAX
 10
420.0
 20
297.0
  9
$ORTHOMODE
 70
     1
  9
$REGENMODE
 70
     1
  9
$FILLMODE
 70
     1
  9
$QTEXTMODE
 70
     0
  9
$MIRRTEXT
 70
     1
  9
$LTSCALE
 40
1.0
  9
$ATTMODE
 70
     1
  9
$TEXTSIZE
 40
60.0
  9
$TRACEWID
 40
1.0
  9
$TEXTSTYLE
  7
KUVASTO
  9
$CLAYER
  8
MAINOS
  9
$CELTYPE
  6
BYLAYER
  9
$CECOLOR
 62
   256
  9
$CELTSCALE
 40
1.0
  9
$DISPSILH
 70
     1
  9
$DIMSCALE
 40
0.0
  9
$DIMASZ
 40
70.0
  9
$DIMEXO
 40
0.625
  9
$DIMDLI
 40
3.75
  9
$DIMRND
 40
0.0
  9
$DIMDLE
 40
0.0
  9
$DIMEXE
 40
1.25
  9
$DIMTP
 40
0.0
  9
$DIMTM
 40
0.0
  9
$DIMTXT
 40
60.0
  9
$DIMCEN
 40
2.5
  9
$DIMTSZ
 40
0.0
  9
$DIMTOL
 70
     0
  9
$DIMLIM
 70
     0
  9
$DIMTIH
 70
     0
  9
$DIMTOH
 70
     1
  9
$DIMSE1
 70
     0
  9
$DIMSE2
 70
     0
  9
$DIMTAD
 70
     1
  9
$DIMZIN
 70
     8
  9
$DIMBLK
  1

  9
$DIMASO
 70
     1
  9
$DIMSHO
 70
     1
  9
$DIMPOST
  1

  9
$DIMAPOST
  1

  9
$DIMALT
 70
     0
  9
$DIMALTD
 70
     4
  9
$DIMALTF
 40
0.0394
  9
$DIMLFAC
 40
1.0
  9
$DIMTOFL
 70
     1
  9
$DIMTVP
 40
0.0
  9
$DIMTIX
 70
     0
  9
$DIMSOXD
 70
     0
  9
$DIMSAH
 70
     1
  9
$DIMBLK1
  1
OPEN
  9
$DIMBLK2
  1
OPEN
  9
$DIMSTYLE
  2
STANDARD
  9
$DIMCLRD
 70
     3
  9
$DIMCLRE
 70
     3
  9
$DIMCLRT
 70
     5
  9
$DIMTFAC
 40
1.0
  9
$DIMGAP
 40
20.0
  9
$DIMJUST
 70
     0
  9
$DIMSD1
 70
     0
  9
$DIMSD2
 70
     0
  9
$DIMTOLJ
 70
     1
  9
$DIMTZIN
 70
     0
  9
$DIMALTZ
 70
     0
  9
$DIMALTTZ
 70
     0
  9
$DIMUPT
 70
     0
  9
$DIMDEC
 70
     4
  9
$DIMTDEC
 70
     4
  9
$DIMALTU
 70
     8
  9
$DIMALTTD
 70
     4
  9
$DIMTXSTY
  7
KUVASTO
  9
$DIMAUNIT
 70
     0
  9
$DIMADEC
 70
     0
  9
$DIMALTRND
 40
0.0
  9
$DIMAZIN
 70
     0
  9
$DIMDSEP
 70
    46
  9
$DIMATFIT
 70
     3
  9
$DIMFRAC
 70
     0
  9
$DIMLDRBLK
  1
OPEN
  9
$DIMLUNIT
 70
     6
  9
$DIMLWD
 70
    -2
  9
$DIMLWE
 70
    -2
  9
$DIMTMOVE
 70
     0
  9
$LUNITS
 70
     2
  9
$LUPREC
 70
     4
  9
$SKETCHINC
 40
1.0
  9
$FILLETRAD
 40
60.0
  9
$AUNITS
 70
     0
  9
$AUPREC
 70
     0
  9
$MENU
  1
.
  9
$ELEVATION
 40
0.0
  9
$PELEVATION
 40
0.0
  9
$THICKNESS
 40
0.0
  9
$LIMCHECK
 70
     0
  9
$CHAMFERA
 40
10.0
  9
$CHAMFERB
 40
10.0
  9
$CHAMFERC
 40
20.0
  9
$CHAMFERD
 40
0.0
  9
$SKPOLY
 70
     0
  9
$TDCREATE
 40
2452044.392230162
  9
$TDUCREATE
 40
2452044.308896828
  9
$TDUPDATE
 40
2452244.486246204
  9
$TDUUPDATE
 40
2452244.402912870
  9
$TDINDWG
 40
0.1512771412
  9
$TDUSRTIMER
 40
0.1512771412
  9
$USRTIMER
 70
     1
  9
$ANGBASE
 50
0.0
  9
$ANGDIR
 70
     0
  9
$PDMODE
 70
     0
  9
$PDSIZE
 40
0.0
  9
$PLINEWID
 40
0.0
  9
$SPLFRAME
 70
     0
  9
$SPLINETYPE
 70
     6
  9
$SPLINESEGS
 70
     8
  9
$HANDSEED
  5
34F9
  9
$SURFTAB1
 70
     6
  9
$SURFTAB2
 70
     6
  9
$SURFTYPE
 70
     6
  9
$SURFU
 70
     6
  9
$SURFV
 70
     6
  9
$UCSBASE
  2

  9
$UCSNAME
  2

  9
$UCSORG
 10
0.0
 20
0.0
 30
0.0
  9
$UCSXDIR
 10
1.0
 20
0.0
 30
0.0
  9
$UCSYDIR
 10
0.0
 20
1.0
 30
0.0
  9
$UCSORTHOREF
  2

  9
$UCSORTHOVIEW
 70
     0
  9
$UCSORGTOP
 10
0.0
 20
0.0
 30
0.0
  9
$UCSORGBOTTOM
 10
0.0
 20
0.0
 30
0.0
  9
$UCSORGLEFT
 10
0.0
 20
0.0
 30
0.0
  9
$UCSORGRIGHT
 10
0.0
 20
0.0
 30
0.0
  9
$UCSORGFRONT
 10
0.0
 20
0.0
 30
0.0
  9
$UCSORGBACK
 10
0.0
 20
0.0
 30
0.0
  9
$PUCSBASE
  2

  9
$PUCSNAME
  2

  9
$PUCSORG
 10
0.0
 20
0.0
 30
0.0
  9
$PUCSXDIR
 10
1.0
 20
0.0
 30
0.0
  9
$PUCSYDIR
 10
0.0
 20
1.0
 30
0.0
  9
$PUCSORTHOREF
  2

  9
$PUCSORTHOVIEW
 70
     0
  9
$PUCSORGTOP
 10
0.0
 20
0.0
 30
0.0
  9
$PUCSORGBOTTOM
 10
0.0
 20
0.0
 30
0.0
  9
$PUCSORGLEFT
 10
0.0
 20
0.0
 30
0.0
  9
$PUCSORGRIGHT
 10
0.0
 20
0.0
 30
0.0
  9
$PUCSORGFRONT
 10
0.0
 20
0.0
 30
0.0
  9
$PUCSORGBACK
 10
0.0
 20
0.0
 30
0.0
  9
$USERI1
 70
     0
  9
$USERI2
 70
     0
  9
$USERI3
 70
     0
  9
$USERI4
 70
     0
  9
$USERI5
 70
     0
  9
$USERR1
 40
0.0
  9
$USERR2
 40
0.0
  9
$USERR3
 40
0.0
  9
$USERR4
 40
0.0
  9
$USERR5
 40
0.0
  9
$WORLDVIEW
 70
     1
  9
$SHADEDGE
 70
     3
  9
$SHADEDIF
 70
    70
  9
$TILEMODE
 70
     1
  9
$MAXACTVP
 70
    48
  9
$PINSBASE
 10
0.0
 20
0.0
 30
0.0
  9
$PLIMCHECK
 70
     0
  9
$PEXTMIN
 10
1.000000000000000E+20
 20
1.000000000000000E+20
 30
1.000000000000000E+20
  9
$PEXTMAX
 10
-1.000000000000000E+20
 20
-1.000000000000000E+20
 30
-1.000000000000000E+20
  9
$PLIMMIN
 10
0.0
 20
0.0
  9
$PLIMMAX
 10
420.0
 20
297.0
  9
$UNITMODE
 70
     0
  9
$VISRETAIN
 70
     1
  9
$PLINEGEN
 70
     0
  9
$PSLTSCALE
 70
     1
  9
$TREEDEPTH
 70
  3020
  9
$CMLSTYLE
  2
STANDARD
  9
$CMLJUST
 70
     0
  9
$CMLSCALE
 40
20.0
  9
$PROXYGRAPHICS
 70
     1
  9
$MEASUREMENT
 70
     1
  9
$CELWEIGHT
370
    -1
  9
$ENDCAPS
280
     0
  9
$JOINSTYLE
280
     0
  9
$LWDISPLAY
290
     0
  9
$INSUNITS
 70
     0
  9
$HYPERLINKBASE
  1

  9
$STYLESHEET
  1

  9
$XEDIT
290
     1
  9
$CEPSNTYPE
380
     0
  9
$PSTYLEMODE
290
     1
  9
$FINGERPRINTGUID
  2
{0973CB50-E571-11D5-B8D5-000103D6C2BD}
  9
$VERSIONGUID
  2
{0973CB51-E571-11D5-B8D5-000103D6C2BD}
  9
$EXTNAMES
290
     1
  9
$PSVPSCALE
 40
0.0
  9
$OLESTARTUP
290
     0
  0
ENDSEC
  0
SECTION
  2
CLASSES
  0
CLASS
  1
LWPOLYLINE
  2
AcDbPolyline
  3
AutoCAD 2000
 90
    32768
280
     0
281
     1
  0
CLASS
  1
DICTIONARYVAR
  2
AcDbDictionaryVar
  3
AutoCAD 2000
 90
        0
280
     0
281
     0
  0
CLASS
  1
HATCH
  2
AcDbHatch
  3
AutoCAD 2000
 90
    32768
280
     0
281
     1
  0
CLASS
  1
ACDBDICTIONARYWDFLT
  2
AcDbDictionaryWithDefault
  3
AutoCAD 2000
 90
        0
280
     0
281
     0
  0
CLASS
  1
ACDBPLACEHOLDER
  2
AcDbPlaceHolder
  3
AutoCAD 2000
 90
        0
280
     0
281
     0
  0
CLASS
  1
LAYOUT
  2
AcDbLayout
  3
AutoCAD 2000
 90
        0
280
     0
281
     0
  0
ENDSEC
  0
SECTION
  2
TABLES
  0
TABLE
  2
VPORT
  5
8
330
0
100
AcDbSymbolTable
 70
     2
  0
VPORT
  5
34F8
330
8
100
AcDbSymbolTableRecord
100
AcDbViewportTableRecord
  2
*Active
 70
     0
 10
0.0
 20
0.0
 11
1.0
 21
1.0
 12
3006.814373471328
 22
3096.453673754954
 13
0.0
 23
0.0
 14
10.0
 24
10.0
 15
10.0
 25
10.0
 16
0.0
 26
0.0
 36
1.0
 17
0.0
 27
0.0
 37
0.0
 40
2616.414482718376
 41
1.597260273972602
 42
50.0
 43
0.0
 44
0.0
 50
0.0
 51
0.0
 71
     0
 72
 20000
 73
     1
 74
     1
 75
     0
 76
     0
 77
     0
 78
     0
281
     0
 65
     1
110
0.0
120
0.0
130
0.0
111
1.0
121
0.0
131
0.0
112
0.0
122
1.0
132
0.0
 79
     0
146
0.0
  0
ENDTAB
  0
TABLE
  2
LTYPE
  5
5
330
0
100
AcDbSymbolTable
 70
     1
  0
LTYPE
  5
12
330
5
100
AcDbSymbolTableRecord
100
AcDbLinetypeTableRecord
  2
BYBLOCK
 70
     0
  3

 72
    65
 73
     0
 40
0.0
  0
LTYPE
  5
13
330
5
100
AcDbSymbolTableRecord
100
AcDbLinetypeTableRecord
  2
BYLAYER
 70
     0
  3

 72
    65
 73
     0
 40
0.0
  0
LTYPE
  5
14
330
5
100
AcDbSymbolTableRecord
100
AcDbLinetypeTableRecord
  2
CONTINUOUS
 70
     0
  3
Solid line
 72
    65
 73
     0
 40
0.0
  0
ENDTAB
  0
TABLE
  2
LAYER
  5
2
330
0
100
AcDbSymbolTable
 70
     5
  0
LAYER
  5
E
330
2
100
AcDbSymbolTableRecord
100
AcDbLayerTableRecord
  2
0
 70
     0
 62
     7
  6
CONTINUOUS
370
    -3
390
34EF
  0
LAYER
  5
158B
330
2
100
AcDbSymbolTableRecord
100
AcDbLayerTableRecord
  2
HORMILIITOS
 70
     0
 62
     6
  6
CONTINUOUS
370
    -3
390
34EF
  0
LAYER
  5
1592
330
2
100
AcDbSymbolTableRecord
100
AcDbLayerTableRecord
  2
MITAT
 70
     0
 62
     5
  6
CONTINUOUS
370
    -3
390
34EF
  0
LAYER
  5
1963
330
2
100
AcDbSymbolTableRecord
100
AcDbLayerTableRecord
  2
MAINOS
 70
     0
 62
     7
  6
CONTINUOUS
370
    -3
390
34EF
  0
LAYER
  5
2929
330
2
100
AcDbSymbolTableRecord
100
AcDbLayerTableRecord
  2
DEFPOINTS
 70
     0
 62
     7
  6
CONTINUOUS
290
     0
370
    -3
390
34EF
  0
ENDTAB
  0
TABLE
  2
STYLE
  5
3
330
0
100
AcDbSymbolTable
 70
     2
  0
STYLE
  5
F
330
3
100
AcDbSymbolTableRecord
100
AcDbTextStyleTableRecord
  2
STANDARD
 70
     0
 40
0.0
 41
1.0
 50
0.0
 71
     0
 42
2.5
  3

  4

1001
ACAD
1000
AGaramond
1071
 33554450
  0
STYLE
  5
15F2
330
3
100
AcDbSymbolTableRecord
100
AcDbTextStyleTableRecord
  2
KUVASTO
 70
     0
 40
70.0
 41
1.0
 50
0.0
 71
     0
 42
60.0
  3
GDRG____.TTF
  4

1001
ACAD
1000
AGaramond
1071
       18
  0
ENDTAB
  0
TABLE
  2
VIEW
  5
6
330
0
100
AcDbSymbolTable
 70
     0
  0
ENDTAB
  0
TABLE
  2
UCS
  5
7
330
0
100
AcDbSymbolTable
 70
     0
  0
ENDTAB
  0
TABLE
  2
APPID
  5
9
330
0
100
AcDbSymbolTable
 70
     3
  0
APPID
  5
10
330
9
100
AcDbSymbolTableRecord
100
AcDbRegAppTableRecord
  2
ACAD
 70
     0
  0
APPID
  5
1939
330
9
100
AcDbSymbolTableRecord
100
AcDbRegAppTableRecord
  2
AME_SOL
 70
     0
  0
APPID
  5
193A
330
9
100
AcDbSymbolTableRecord
100
AcDbRegAppTableRecord
  2
TULIKIVI
 70
     0
  0
ENDTAB
  0
TABLE
  2
DIMSTYLE
  5
A
330
0
100
AcDbSymbolTable
 70
     1
100
AcDbDimStyleTable
 71
     0
  0
DIMSTYLE
105
1D
102
{ACAD_REACTORS
330
3469
330
346F
330
3474
330
3475
102
}
330
A
100
AcDbSymbolTableRecord
100
AcDbDimStyleTableRecord
  2
STANDARD
 70
     0
 40
0.0
 41
70.0
 42
0.625
 43
3.75
 44
1.25
 73
     0
 77
     1
 78
     8
140
60.0
141
2.5
143
0.0394
147
20.0
171
     4
172
     1
173
     1
176
     3
177
     3
178
     5
273
     8
274
     4
277
     6
340
15F2
341
15A1
343
15A1
344
15A1
  0
ENDTAB
  0
TABLE
  2
BLOCK_RECORD
  5
1
330
0
100
AcDbSymbolTable
 70
     5
  0
BLOCK_RECORD
  5
18
330
1
100
AcDbSymbolTableRecord
100
AcDbBlockTableRecord
  2
*MODEL_SPACE
340
34F2
  0
BLOCK_RECORD
  5
15
330
1
100
AcDbSymbolTableRecord
100
AcDbBlockTableRecord
  2
*PAPER_SPACE
340
34F3
  0
BLOCK_RECORD
  5
15A1
330
1
100
AcDbSymbolTableRecord
100
AcDbBlockTableRecord
  2
_OPEN
340
0
102
{BLKREFS
331
3479
331
347A
331
34BB
331
34BC
331
34C8
331
34C9
331
34D5
331
34D6
331
34E0
331
34E1
102
}
  0
BLOCK_RECORD
  5
3483
330
1
100
AcDbSymbolTableRecord
100
AcDbBlockTableRecord
  2
*D1
340
0
  0
BLOCK_RECORD
  5
348F
330
1
100
AcDbSymbolTableRecord
100
AcDbBlockTableRecord
  2
*D2
340
0
  0
BLOCK_RECORD
  5
349D
330
1
100
AcDbSymbolTableRecord
100
AcDbBlockTableRecord
  2
*D3
340
0
  0
BLOCK_RECORD
  5
34AB
330
1
100
AcDbSymbolTableRecord
100
AcDbBlockTableRecord
  2
*D4
340
0
  0
ENDTAB
  0
ENDSEC
  0
SECTION
  2
BLOCKS
  0
BLOCK
  5
19
330
18
100
AcDbEntity
  8
0
100
AcDbBlockBegin
  2
*MODEL_SPACE
 70
     0
 10
0.0
 20
0.0
 30
0.0
  3
*MODEL_SPACE
  1

  0
ENDBLK
  5
1A
330
18
100
AcDbEntity
  8
0
100
AcDbBlockEnd
  0
BLOCK
  5
16
330
15
100
AcDbEntity
 67
     1
  8
0
100
AcDbBlockBegin
  2
*PAPER_SPACE
 70
     0
 10
0.0
 20
0.0
 30
0.0
  3
*PAPER_SPACE
  1

  0
ENDBLK
  5
17
330
15
100
AcDbEntity
 67
     1
  8
0
100
AcDbBlockEnd
  0
BLOCK
  5
15A2
330
15A1
100
AcDbEntity
  8
0
100
AcDbBlockBegin
  2
_OPEN
 70
     0
 10
0.0
 20
0.0
 30
0.0
  3
_OPEN
  1

  0
LINE
  5
15A3
330
15A1
100
AcDbEntity
  8
0
  6
ByBlock
 62
     0
100
AcDbLine
 10
-1.0
 20
0.1666666666666666
 30
0.0
 11
0.0
 21
0.0
 31
0.0
  0
LINE
  5
15A4
330
15A1
100
AcDbEntity
  8
0
  6
ByBlock
 62
     0
100
AcDbLine
 10
0.0
 20
0.0
 30
0.0
 11
-1.0
 21
-0.1666666666666666
 31
0.0
  0
LINE
  5
15A5
330
15A1
100
AcDbEntity
  8
0
  6
ByBlock
 62
     0
100
AcDbLine
 10
0.0
 20
0.0
 30
0.0
 11
-1.0
 21
0.0
 31
0.0
  0
ENDBLK
  5
15A6
330
15A1
100
AcDbEntity
  8
0
100
AcDbBlockEnd
  0
BLOCK
  5
34B7
330
3483
100
AcDbEntity
  8
0
100
AcDbBlockBegin
  2
*D1
 70
     1
 10
0.0
 20
0.0
 30
0.0
  3
*D1
  1

  0
LINE
  5
34B8
330
3483
100
AcDbEntity
  8
0
  6
ByBlock
 62
     3
100
AcDbLine
 10
2466.814379771685
 20
2363.447087900814
 30
0.0
 11
2466.814379771685
 21
2332.822087900815
 31
0.0
  0
LINE
  5
34B9
330
3483
100
AcDbEntity
  8
0
  6
ByBlock
 62
     3
100
AcDbLine
 10
3546.814379771685
 20
2363.447087900814
 30
0.0
 11
3546.814379771685
 21
2332.822087900815
 31
0.0
  0
LINE
  5
34BA
330
3483
100
AcDbEntity
  8
0
  6
ByBlock
 62
     3
100
AcDbLine
 10
2536.814379771684
 20
2334.072087900814
 30
0.0
 11
3476.814379771684
 21
2334.072087900814
 31
0.0
  0
INSERT
  5
34BB
330
3483
100
AcDbEntity
  8
0
  6
ByBlock
 62
     3
100
AcDbBlockReference
  2
_OPEN
 10
2466.814379771685
 20
2334.072087900814
 30
0.0
 41
70.0
 42
70.0
 43
70.0
 50
180.0
  0
INSERT
  5
34BC
330
3483
100
AcDbEntity
  8
0
  6
ByBlock
 62
     3
100
AcDbBlockReference
  2
_OPEN
 10
3546.814379771685
 20
2334.072087900814
 30
0.0
 41
70.0
 42
70.0
 43
70.0
  0
MTEXT
  5
34BD
330
3483
100
AcDbEntity
  8
0
  6
ByBlock
 62
     5
100
AcDbMText
 10
3006.814379771685
 20
2389.805469403705
 30
0.0
 40
70.0
 41
0.0
 71
     5
 72
     1
  1
\A1;1 080
  7
KUVASTO
 73
     1
 44
1.0
  0
POINT
  5
34BE
330
3483
100
AcDbEntity
  8
DEFPOINTS
  6
ByBlock
 62
     0
100
AcDbPoint
 10
2466.814379771685
 20
2364.072087900815
 30
-283.3345308249711
  0
POINT
  5
34BF
330
3483
100
AcDbEntity
  8
DEFPOINTS
  6
ByBlock
 62
     0
100
AcDbPoint
 10
3546.814379771685
 20
2364.072087900815
 30
-283.3345308249711
  0
POINT
  5
34C0
330
3483
100
AcDbEntity
  8
DEFPOINTS
  6
ByBlock
 62
     0
100
AcDbPoint
 10
3546.814379771685
 20
2334.072087900814
 30
0.0
  0
ENDBLK
  5
34C1
330
3483
100
AcDbEntity
  8
0
100
AcDbBlockEnd
  0
BLOCK
  5
34C2
330
348F
100
AcDbEntity
  8
0
100
AcDbBlockBegin
  2
*D2
 70
     1
 10
0.0
 20
0.0
 30
0.0
  3
*D2
  1

  0
LINE
  5
34C3
330
348F
100
AcDbEntity
  8
0
  6
ByBlock
 62
     3
100
AcDbLine
 10
2466.814379771685
 20
2363.447087900814
 30
0.0
 11
2466.814379771685
 21
2332.822087900815
 31
0.0
  0
LINE
  5
34C4
330
348F
100
AcDbEntity
  8
0
  6
ByBlock
 62
     3
100
AcDbLine
 10
2436.814379771684
 20
2363.447087900814
 30
0.0
 11
2436.814379771684
 21
2332.822087900815
 31
0.0
  0
LINE
  5
34C5
330
348F
100
AcDbEntity
  8
0
  6
ByBlock
 62
     3
100
AcDbLine
 10
2536.814379771684
 20
2334.072087900814
 30
0.0
 11
2606.814379771685
 21
2334.072087900814
 31
0.0
  0
LINE
  5
34C6
330
348F
100
AcDbEntity
  8
0
  6
ByBlock
 62
     3
100
AcDbLine
 10
2366.814379771684
 20
2334.072087900814
 30
0.0
 11
2162.840391332378
 21
2334.072087900814
 31
0.0
  0
LINE
  5
34C7
330
348F
100
AcDbEntity
  8
0
  6
ByBlock
 62
     3
100
AcDbLine
 10
2466.814379771685
 20
2334.072087900814
 30
0.0
 11
2436.814379771684
 21
2334.072087900814
 31
0.0
  0
INSERT
  5
34C8
330
348F
100
AcDbEntity
  8
0
  6
ByBlock
 62
     3
100
AcDbBlockReference
  2
_OPEN
 10
2466.814379771685
 20
2334.072087900814
 30
0.0
 41
70.0
 42
70.0
 43
70.0
 50
180.0
  0
INSERT
  5
34C9
330
348F
100
AcDbEntity
  8
0
  6
ByBlock
 62
     3
100
AcDbBlockReference
  2
_OPEN
 10
2436.814379771684
 20
2334.072087900814
 30
0.0
 41
70.0
 42
70.0
 43
70.0
  0
MTEXT
  5
34CA
330
348F
100
AcDbEntity
  8
0
  6
ByBlock
 62
     5
100
AcDbMText
 10
2229.827385552031
 20
2391.980324895035
 30
0.0
 40
70.0
 41
0.0
 71
     5
 72
     1
  1
\A1;30
  7
KUVASTO
 73
     1
 44
1.0
  0
POINT
  5
34CB
330
348F
100
AcDbEntity
  8
DEFPOINTS
  6
ByBlock
 62
     0
100
AcDbPoint
 10
2466.814379771685
 20
2364.072087900815
 30
-283.3345308249711
  0
POINT
  5
34CC
330
348F
100
AcDbEntity
  8
DEFPOINTS
  6
ByBlock
 62
     0
100
AcDbPoint
 10
2436.814379771684
 20
2364.072087900815
 30
-283.3345308249711
  0
POINT
  5
34CD
330
348F
100
AcDbEntity
  8
DEFPOINTS
  6
ByBlock
 62
     0
100
AcDbPoint
 10
2436.814379771684
 20
2334.072087900814
 30
0.0
  0
ENDBLK
  5
34CE
330
348F
100
AcDbEntity
  8
0
100
AcDbBlockEnd
  0
BLOCK
  5
34CF
330
349D
100
AcDbEntity
  8
0
100
AcDbBlockBegin
  2
*D3
 70
     1
 10
0.0
 20
0.0
 30
0.0
  3
*D3
  1

  0
LINE
  5
34D0
330
349D
100
AcDbEntity
  8
0
  6
ByBlock
 62
     3
100
AcDbLine
 10
3546.814379771685
 20
2362.822087900815
 30
0.0
 11
3546.814379771685
 21
2332.197087900814
 31
0.0
  0
LINE
  5
34D1
330
349D
100
AcDbEntity
  8
0
  6
ByBlock
 62
     3
100
AcDbLine
 10
3576.814379771684
 20
2362.822087900815
 30
0.0
 11
3576.814379771684
 21
2332.197087900814
 31
0.0
  0
LINE
  5
34D2
330
349D
100
AcDbEntity
  8
0
  6
ByBlock
 62
     3
100
AcDbLine
 10
3476.814379771684
 20
2333.447087900815
 30
0.0
 11
3406.814379771684
 21
2333.447087900815
 31
0.0
  0
LINE
  5
34D3
330
349D
100
AcDbEntity
  8
0
  6
ByBlock
 62
     3
100
AcDbLine
 10
3646.814379771685
 20
2333.447087900815
 30
0.0
 11
3850.788368210991
 21
2333.447087900815
 31
0.0
  0
LINE
  5
34D4
330
349D
100
AcDbEntity
  8
0
  6
ByBlock
 62
     3
100
AcDbLine
 10
3546.814379771685
 20
2333.447087900815
 30
0.0
 11
3576.814379771684
 21
2333.447087900815
 31
0.0
  0
INSERT
  5
34D5
330
349D
100
AcDbEntity
  8
0
  6
ByBlock
 62
     3
100
AcDbBlockReference
  2
_OPEN
 10
3546.814379771685
 20
2333.447087900815
 30
0.0
 41
70.0
 42
70.0
 43
70.0
  0
INSERT
  5
34D6
330
349D
100
AcDbEntity
  8
0
  6
ByBlock
 62
     3
100
AcDbBlockReference
  2
_OPEN
 10
3576.814379771684
 20
2333.447087900815
 30
0.0
 41
70.0
 42
70.0
 43
70.0
 50
180.0
  0
MTEXT
  5
34D7
330
349D
100
AcDbEntity
  8
0
  6
ByBlock
 62
     5
100
AcDbMText
 10
3783.801373991337
 20
2391.355324895034
 30
0.0
 40
70.0
 41
0.0
 71
     5
 72
     1
  1
\A1;30
  7
KUVASTO
 73
     1
 44
1.0
  0
POINT
  5
34D8
330
349D
100
AcDbEntity
  8
DEFPOINTS
  6
ByBlock
 62
     0
100
AcDbPoint
 10
3546.814379771685
 20
2363.447087900814
 30
0.0
  0
POINT
  5
34D9
330
349D
100
AcDbEntity
  8
DEFPOINTS
  6
ByBlock
 62
     0
100
AcDbPoint
 10
3576.814379771684
 20
2363.447087900814
 30
0.0
  0
POINT
  5
34DA
330
349D
100
AcDbEntity
  8
DEFPOINTS
  6
ByBlock
 62
     0
100
AcDbPoint
 10
3576.814379771684
 20
2333.447087900815
 30
0.0
  0
ENDBLK
  5
34DB
330
349D
100
AcDbEntity
  8
0
100
AcDbBlockEnd
  0
BLOCK
  5
34DC
330
34AB
100
AcDbEntity
  8
0
100
AcDbBlockBegin
  2
*D4
 70
     1
 10
0.0
 20
0.0
 30
0.0
  3
*D4
  1

  0
LINE
  5
34DD
330
34AB
100
AcDbEntity
  8
0
  6
ByBlock
 62
     3
100
AcDbLine
 10
3742.12898618183
 20
3262.585851328548
 30
0.0
 11
3772.753986181831
 21
3262.585851328548
 31
0.0
  0
LINE
  5
34DE
330
34AB
100
AcDbEntity
  8
0
  6
ByBlock
 62
     3
100
AcDbLine
 10
3742.12898618183
 20
2602.585851328548
 30
0.0
 11
3772.753986181831
 21
2602.585851328548
 31
0.0
  0
LINE
  5
34DF
330
34AB
100
AcDbEntity
  8
0
  6
ByBlock
 62
     3
100
AcDbLine
 10
3771.503986181831
 20
3192.585851328549
 30
0.0
 11
3771.503986181831
 21
2672.585851328548
 31
0.0
  0
INSERT
  5
34E0
330
34AB
100
AcDbEntity
  8
0
  6
ByBlock
 62
     3
100
AcDbBlockReference
  2
_OPEN
 10
3771.503986181831
 20
3262.585851328548
 30
0.0
 41
70.0
 42
70.0
 43
70.0
 50
90.0
  0
INSERT
  5
34E1
330
34AB
100
AcDbEntity
  8
0
  6
ByBlock
 62
     3
100
AcDbBlockReference
  2
_OPEN
 10
3771.503986181831
 20
2602.585851328548
 30
0.0
 41
70.0
 42
70.0
 43
70.0
 50
270.0
  0
MTEXT
  5
34E2
330
34AB
100
AcDbEntity
  8
0
  6
ByBlock
 62
     5
100
AcDbMText
 10
3714.986645141368
 20
2932.585851328548
 30
0.0
 40
70.0
 41
0.0
 71
     5
 72
     1
  1
\A1;660
  7
KUVASTO
 11
0.0000000000000001
 21
1.0
 31
0.0
 73
     1
 44
1.0
  0
POINT
  5
34E3
330
34AB
100
AcDbEntity
  8
DEFPOINTS
  6
ByBlock
 62
     0
100
AcDbPoint
 10
3741.503986181831
 20
3262.585851328548
 30
-283.3345308249711
  0
POINT
  5
34E4
330
34AB
100
AcDbEntity
  8
DEFPOINTS
  6
ByBlock
 62
     0
100
AcDbPoint
 10
3741.503986181831
 20
2602.585851328548
 30
-283.3345308249711
  0
POINT
  5
34E5
330
34AB
100
AcDbEntity
  8
DEFPOINTS
  6
ByBlock
 62
     0
100
AcDbPoint
 10
3771.503986181831
 20
2602.585851328548
 30
0.0
  0
ENDBLK
  5
34E6
330
34AB
100
AcDbEntity
  8
0
100
AcDbBlockEnd
  0
ENDSEC
  0
SECTION
  2
ENTITIES
  0
DIMENSION
  5
3469
330
18
100
AcDbEntity
  8
MITAT
100
AcDbDimension
  2
*D1
 10
3546.814379771685
 20
2334.072087900814
 30
0.0
 11
3006.814379771685
 21
2389.805469403705
 31
0.0
 70
    32
 71
     5
 42
-1.0
  3
STANDARD
100
AcDbAlignedDimension
 13
2466.814379771685
 23
2364.072087900815
 33
-283.3345308249711
 14
3546.814379771685
 24
2364.072087900815
 34
-283.3345308249711
100
AcDbRotatedDimension
1001
ACAD
1000
DSTYLE
1002
{
1070
    40
1040
1.0
1002
}
  0
TEXT
  5
346A
330
18
100
AcDbEntity
  8
MITAT
100
AcDbText
 10
2458.503986181831
 20
5343.585851328549
 30
-283.3345308249711
 40
80.0
  1
HORMILIITOSALUE
  7
KUVASTO
100
AcDbText
  0
LWPOLYLINE
  5
346B
330
18
100
AcDbEntity
  8
MAINOS
100
AcDbPolyline
 90
       19
 70
     0
 43
0.0
 38
-283.3345308249711
 10
2579.157916845893
 20
2544.072087900815
 10
2579.157916845893
 20
2536.834686039616
 10
2629.540904323578
 20
2536.834686039616
 10
2629.540904323578
 20
2544.19596850407
 10
3392.883827496849
 20
2544.19596850407
 10
3392.883827496849
 20
2536.775110078745
 10
3442.742872005415
 20
2536.775110078745
 10
3442.742872005415
 20
2544.101086360015
 10
3541.727736852064
 20
2544.101086360015
 10
3541.727736852064
 20
2559.119337564713
 10
3443.109482535311
 20
2559.119337564713
 10
3443.109482535311
 20
2602.708894891112
 10
3541.50398618183
 20
2602.585851328549
 10
3541.50398618183
 20
3262.585851328548
 10
2466.503986181831
 20
3262.585881846126
 10
2466.503986181831
 20
2602.585820810971
 10
2579.153217138862
 20
2602.585820810971
 10
2579.153217138862
 20
2559.531973638348
 10
2466.840880700308
 20
2559.531973638348
  0
LWPOLYLINE
  5
346C
330
18
100
AcDbEntity
  8
MAINOS
100
AcDbPolyline
 90
        4
 70
     1
 43
0.0
 38
-281.3345298712966
 10
2570.862018408393
 20
2673.381612436948
 10
3450.861896338081
 20
2673.381612436948
 10
3450.861896338081
 20
3201.381505625423
 10
2570.862018408393
 20
3201.381505625423
  0
LWPOLYLINE
  5
346D
330
18
100
AcDbEntity
  8
MAINOS
100
AcDbPolyline
 90
        4
 70
     1
 43
0.0
 38
-283.3345308249711
 10
2629.540904323578
 20
2559.119337564713
 10
3392.883827496849
 20
2559.119337564713
 10
3392.883827496849
 20
2602.585820810971
 10
2629.540904323578
 20
2602.585820810971
  0
LWPOLYLINE
  5
346E
330
18
100
AcDbEntity
  8
HORMILIITOS
100
AcDbPolyline
 90
        4
 70
     0
 43
0.0
 38
-283.3345308249711
 10
3571.503986181831
 20
2732.585851328549
 10
3571.503986181831
 20
3292.585851328549
 10
2431.503986181831
 20
3292.585851328549
 10
2431.503986181831
 20
2732.585851328549
  0
DIMENSION
  5
346F
330
18
100
AcDbEntity
  8
MITAT
100
AcDbDimension
  2
*D2
 10
2436.814379771684
 20
2334.072087900814
 30
0.0
 11
2229.827385552031
 21
2391.980324895035
 31
0.0
 70
    32
 71
     5
 42
-1.0
  3
STANDARD
100
AcDbAlignedDimension
 13
2466.814379771685
 23
2364.072087900815
 33
-283.3345308249711
 14
2436.814379771684
 24
2364.072087900815
 34
-283.3345308249711
100
AcDbRotatedDimension
1001
ACAD
1000
DSTYLE
1002
{
1070
    40
1040
1.0
1002
}
  0
LWPOLYLINE
  5
3470
330
18
100
AcDbEntity
  8
MAINOS
100
AcDbPolyline
 90
        4
 70
     0
 43
0.0
 38
-283.3345308249711
 10
2579.157916845893
 20
2544.072087900815
 10
2467.119153863915
 20
2544.072087900815
 10
2466.814379771685
 20
2544.072087900815
 10
2466.840880700308
 20
2559.531973638348
  0
CIRCLE
  5
3471
330
18
100
AcDbEntity
  8
MAINOS
100
AcDbCircle
 10
2914.404620947456
 20
2814.131913798032
 30
-280.3506164496658
 40
105.0
  0
LWPOLYLINE
  5
3472
330
18
100
AcDbEntity
  8
MAINOS
100
AcDbPolyline
 90
        2
 70
     0
 43
0.0
 38
-282.3345298712966
 10
2772.212299170112
 20
2673.381627695737
 10
2772.212299170112
 20
3201.381597178158
  0
CIRCLE
  5
3473
330
18
100
AcDbEntity
  8
MAINOS
100
AcDbCircle
 10
2914.404620947456
 20
3058.159948008236
 30
-280.3506164496658
 40
105.0
  0
DIMENSION
  5
3474
330
18
100
AcDbEntity
  8
MITAT
100
AcDbDimension
  2
*D3
 10
3576.814379771684
 20
2333.447087900815
 30
0.0
 11
3783.801373991337
 21
2391.355324895034
 31
0.0
 70
    32
 71
     5
 42
-1.0
  3
STANDARD
100
AcDbAlignedDimension
 13
3546.814379771685
 23
2363.447087900814
 33
0.0
 14
3576.814379771684
 24
2363.447087900814
 34
0.0
100
AcDbRotatedDimension
1001
ACAD
1000
DSTYLE
1002
{
1070
    40
1040
1.0
1002
}
  0
DIMENSION
  5
3475
330
18
100
AcDbEntity
  8
MITAT
100
AcDbDimension
  2
*D4
 10
3771.503986181831
 20
2602.585851328548
 30
0.0
 11
3714.986645141368
 21
2932.585851328548
 31
0.0
 70
    32
 71
     5
 42
-1.0
  3
STANDARD
100
AcDbAlignedDimension
 13
3741.503986181831
 23
3262.585851328548
 33
-283.3345308249711
 14
3741.503986181831
 24
2602.585851328548
 34
-283.3345308249711
 50
90.0
100
AcDbRotatedDimension
1001
ACAD
1000
DSTYLE
1002
{
1070
    40
1040
1.0
1002
}
  0
CIRCLE
  5
3476
330
18
100
AcDbEntity
  8
MAINOS
100
AcDbCircle
 10
3226.64119321308
 20
2937.457898752866
 30
-280.3506164496658
 40
180.0
  0
POINT
  5
3477
330
18
100
AcDbEntity
  8
DEFPOINTS
  6
ByBlock
 62
     0
100
AcDbPoint
 10
3741.503986181831
 20
3292.585851328549
 30
-283.3345308249711
  0
POINT
  5
3478
330
18
100
AcDbEntity
  8
DEFPOINTS
  6
ByBlock
 62
     0
100
AcDbPoint
 10
3741.503986181831
 20
3262.585851328548
 30
-283.3345308249711
  0
INSERT
  5
3479
330
18
100
AcDbEntity
  8
0
  6
ByBlock
 62
     3
100
AcDbBlockReference
  2
_OPEN
 10
3771.503986181831
 20
3292.585851328549
 30
0.0
 41
70.0
 42
70.0
 43
70.0
 50
270.0
  0
INSERT
  5
347A
330
18
100
AcDbEntity
  8
0
  6
ByBlock
 62
     3
100
AcDbBlockReference
  2
_OPEN
 10
3771.503986181831
 20
3262.585851328548
 30
0.0
 41
70.0
 42
70.0
 43
70.0
 50
90.0
  0
LINE
  5
347B
330
18
100
AcDbEntity
  8
0
  6
ByBlock
 62
     3
100
AcDbLine
 10
3742.12898618183
 20
3292.585851328549
 30
0.0
 11
3772.753986181831
 21
3292.585851328549
 31
0.0
  0
LINE
  5
347C
330
18
100
AcDbEntity
  8
0
  6
ByBlock
 62
     3
100
AcDbLine
 10
3742.12898618183
 20
3262.585851328548
 30
0.0
 11
3772.753986181831
 21
3262.585851328548
 31
0.0
  0
LINE
  5
347D
330
18
100
AcDbEntity
  8
0
  6
ByBlock
 62
     3
100
AcDbLine
 10
3771.503986181831
 20
3192.585851328549
 30
0.0
 11
3771.503986181831
 21
3122.585851328549
 31
0.0
  0
POINT
  5
347E
330
18
100
AcDbEntity
  8
DEFPOINTS
  6
ByBlock
 62
     0
100
AcDbPoint
 10
3771.503986181831
 20
3292.585851328549
 30
0.0
  0
LINE
  5
347F
330
18
100
AcDbEntity
  8
0
  6
ByBlock
 62
     3
100
AcDbLine
 10
3771.503986181831
 20
3262.585851328548
 30
0.0
 11
3771.503986181831
 21
3292.585851328549
 31
0.0
  0
MTEXT
  5
3480
330
18
100
AcDbEntity
  8
0
  6
ByBlock
 62
     5
100
AcDbMText
 10
3713.595749187611
 20
3499.572845548203
 30
0.0
 40
70.0
 41
0.0
 71
     5
 72
     1
  1
\A1;30
  7
KUVASTO
 11
0.0000000000000001
 21
1.0
 31
0.0
 73
     1
 44
1.0
  0
LINE
  5
3481
330
18
100
AcDbEntity
  8
0
  6
ByBlock
 62
     3
100
AcDbLine
 10
3771.503986181831
 20
3432.585851328548
 30
0.0
 11
3771.503986181831
 21
3546.559839767855
 31
0.0
  0
LINE
  5
3482
330
18
100
AcDbEntity
  8
0
  6
ByBlock
 62
     3
100
AcDbLine
 10
3771.503986181831
 20
3362.585851328548
 30
0.0
 11
3771.503986181831
 21
3432.585851328548
 31
0.0
  0
ENDSEC
  0
SECTION
  2
OBJECTS
  0
DICTIONARY
  5
C
330
0
100
AcDbDictionary
281
     1
  3
ACAD_GROUP
350
D
  3
ACAD_LAYOUT
350
34F0
  3
ACAD_MLINESTYLE
350
1B
  3
ACAD_PLOTSETTINGS
350
34F1
  3
ACAD_PLOTSTYLENAME
350
34EE
  3
ACDBVARIABLEDICTIONARY
350
1C6
  0
DICTIONARY
  5
D
102
{ACAD_REACTORS
330
C
102
}
330
C
100
AcDbDictionary
281
     1
  0
DICTIONARY
  5
34F0
102
{ACAD_REACTORS
330
C
102
}
330
C
100
AcDbDictionary
281
     1
  3
Layout1
350
34F3
  3
Model
350
34F2
  0
DICTIONARY
  5
1B
102
{ACAD_REACTORS
330
C
102
}
330
C
100
AcDbDictionary
281
     1
  3
STANDARD
350
1C
  0
DICTIONARY
  5
34F1
102
{ACAD_REACTORS
330
C
102
}
330
C
100
AcDbDictionary
281
     1
  0
ACDBDICTIONARYWDFLT
  5
34EE
102
{ACAD_REACTORS
330
C
102
}
330
C
100
AcDbDictionary
281
     1
  3
Normal
350
34EF
100
AcDbDictionaryWithDefault
340
34EF
  0
DICTIONARY
  5
1C6
102
{ACAD_REACTORS
330
C
102
}
330
C
100
AcDbDictionary
281
     1
  3
DIMASSOC
350
34F7
  3
SORTENTS
350
1C7
  0
LAYOUT
  5
34F3
102
{ACAD_REACTORS
330
34F0
102
}
330
34F0
100
AcDbPlotSettings
  1

  2
\\NUUTJARI\MKASPLA1
  4

  6

 40
0.0
 41
0.0
 42
0.0
 43
0.0
 44
0.0
 45
0.0
 46
0.0
 47
0.0
 48
0.0
 49
0.0
140
0.0
141
0.0
142
1.0
143
1.0
 70
   688
 72
     0
 73
     0
 74
     5
  7

 75
    16
147
1.0
148
0.0
149
0.0
100
AcDbLayout
  1
Layout1
 70
     1
 71
     1
 10
0.0
 20
0.0
 11
420.0
 21
297.0
 12
0.0
 22
0.0
 32
0.0
 14
1.000000000000000E+20
 24
1.000000000000000E+20
 34
1.000000000000000E+20
 15
-1.000000000000000E+20
 25
-1.000000000000000E+20
 35
-1.000000000000000E+20
146
0.0
 13
0.0
 23
0.0
 33
0.0
 16
1.0
 26
0.0
 36
0.0
 17
0.0
 27
1.0
 37
0.0
 76
     0
330
15
  0
LAYOUT
  5
34F2
102
{ACAD_REACTORS
330
34F0
102
}
330
34F0
100
AcDbPlotSettings
  1

  2
\\NUUTJARI\MKASPLA1
  4

  6

 40
0.0
 41
0.0
 42
0.0
 43
0.0
 44
0.0
 45
0.0
 46
0.0
 47
0.0
 48
0.0
 49
0.0
140
0.0
141
0.0
142
1.0
143
1.0
 70
  1712
 72
     0
 73
     0
 74
     0
  7

 75
     0
147
1.0
148
0.0
149
0.0
100
AcDbLayout
  1
Model
 70
     1
 71
     0
 10
0.0
 20
0.0
 11
12.0
 21
9.0
 12
0.0
 22
0.0
 32
0.0
 14
0.0
 24
0.0
 34
0.0
 15
0.0
 25
0.0
 35
0.0
146
0.0
 13
0.0
 23
0.0
 33
0.0
 16
1.0
 26
0.0
 36
0.0
 17
0.0
 27
1.0
 37
0.0
 76
     0
330
18
  0
MLINESTYLE
  5
1C
102
{ACAD_REACTORS
330
1B
102
}
330
1B
100
AcDbMlineStyle
  2
STANDARD
 70
     0
  3

 62
   256
 51
90.0
 52
90.0
 71
     2
 49
0.5
 62
   256
  6
BYLAYER
 49
-0.5
 62
   256
  6
BYLAYER
  0
ACDBPLACEHOLDER
  5
34EF
102
{ACAD_REACTORS
330
34EE
102
}
330
34EE
  0
DICTIONARYVAR
  5
34F7
102
{ACAD_REACTORS
330
1C6
102
}
330
1C6
100
DictionaryVariables
280
     0
  1
1
  0
DICTIONARYVAR
  5
1C7
102
{ACAD_REACTORS
330
1C6
102
}
330
1C6
100
DictionaryVariables
280
     0
  1
96
  0
ENDSEC
  0
EOF
