  0
SECTION
  2
HEADER
  9
$ACADVER
  1
AC1015
  9
$ACADMAINTVER
 70
    14
  9
$DWGCODEPAGE
  3
ANSI_1252
  9
$INSBASE
 10
0.0
 20
0.0
 30
0.0
  9
$EXTMIN
 10
4425.760575254395
 20
1603.545845370271
 30
0.0
  9
$EXTMAX
 10
13178.46349005359
 20
4102.320643727213
 30
0.0
  9
$LIMMIN
 10
0.0
 20
0.0
  9
$LIMMAX
 10
420.0
 20
297.0
  9
$ORTHOMODE
 70
     1
  9
$REGENMODE
 70
     1
  9
$FILLMODE
 70
     1
  9
$QTEXTMODE
 70
     0
  9
$MIRRTEXT
 70
     1
  9
$LTSCALE
 40
50.0
  9
$ATTMODE
 70
     1
  9
$TEXTSIZE
 40
70.0
  9
$TRACEWID
 40
1.0
  9
$TEXTSTYLE
  7
KUVASTO
  9
$CLAYER
  8
MAINOS
  9
$CELTYPE
  6
BYLAYER
  9
$CECOLOR
 62
   256
  9
$CELTSCALE
 40
1.0
  9
$DISPSILH
 70
     1
  9
$DIMSCALE
 40
0.0
  9
$DIMASZ
 40
70.0
  9
$DIMEXO
 40
0.625
  9
$DIMDLI
 40
3.75
  9
$DIMRND
 40
0.0
  9
$DIMDLE
 40
0.0
  9
$DIMEXE
 40
1.25
  9
$DIMTP
 40
0.0
  9
$DIMTM
 40
0.0
  9
$DIMTXT
 40
60.0
  9
$DIMCEN
 40
2.5
  9
$DIMTSZ
 40
0.0
  9
$DIMTOL
 70
     0
  9
$DIMLIM
 70
     0
  9
$DIMTIH
 70
     0
  9
$DIMTOH
 70
     1
  9
$DIMSE1
 70
     0
  9
$DIMSE2
 70
     0
  9
$DIMTAD
 70
     1
  9
$DIMZIN
 70
     8
  9
$DIMBLK
  1

  9
$DIMASO
 70
     1
  9
$DIMSHO
 70
     1
  9
$DIMPOST
  1

  9
$DIMAPOST
  1

  9
$DIMALT
 70
     0
  9
$DIMALTD
 70
     4
  9
$DIMALTF
 40
0.0394
  9
$DIMLFAC
 40
1.0
  9
$DIMTOFL
 70
     1
  9
$DIMTVP
 40
0.0
  9
$DIMTIX
 70
     0
  9
$DIMSOXD
 70
     0
  9
$DIMSAH
 70
     1
  9
$DIMBLK1
  1
OPEN
  9
$DIMBLK2
  1
OPEN
  9
$DIMSTYLE
  2
STANDARD
  9
$DIMCLRD
 70
     3
  9
$DIMCLRE
 70
     3
  9
$DIMCLRT
 70
     5
  9
$DIMTFAC
 40
1.0
  9
$DIMGAP
 40
20.0
  9
$DIMJUST
 70
     0
  9
$DIMSD1
 70
     0
  9
$DIMSD2
 70
     0
  9
$DIMTOLJ
 70
     1
  9
$DIMTZIN
 70
     0
  9
$DIMALTZ
 70
     0
  9
$DIMALTTZ
 70
     0
  9
$DIMUPT
 70
     0
  9
$DIMDEC
 70
     4
  9
$DIMTDEC
 70
     4
  9
$DIMALTU
 70
     8
  9
$DIMALTTD
 70
     4
  9
$DIMTXSTY
  7
KUVASTO
  9
$DIMAUNIT
 70
     0
  9
$DIMADEC
 70
     0
  9
$DIMALTRND
 40
0.0
  9
$DIMAZIN
 70
     0
  9
$DIMDSEP
 70
    46
  9
$DIMATFIT
 70
     3
  9
$DIMFRAC
 70
     0
  9
$DIMLDRBLK
  1
OPEN
  9
$DIMLUNIT
 70
     6
  9
$DIMLWD
 70
    -2
  9
$DIMLWE
 70
    -2
  9
$DIMTMOVE
 70
     0
  9
$LUNITS
 70
     2
  9
$LUPREC
 70
     4
  9
$SKETCHINC
 40
1.0
  9
$FILLETRAD
 40
0.0
  9
$AUNITS
 70
     0
  9
$AUPREC
 70
     0
  9
$MENU
  1
.
  9
$ELEVATION
 40
0.0
  9
$PELEVATION
 40
0.0
  9
$THICKNESS
 40
0.0
  9
$LIMCHECK
 70
     0
  9
$CHAMFERA
 40
10.0
  9
$CHAMFERB
 40
10.0
  9
$CHAMFERC
 40
20.0
  9
$CHAMFERD
 40
0.0
  9
$SKPOLY
 70
     0
  9
$TDCREATE
 40
2452044.392230162
  9
$TDUCREATE
 40
2452044.267230162
  9
$TDUPDATE
 40
2455470.438258796
  9
$TDUUPDATE
 40
2455470.313258796
  9
$TDINDWG
 40
0.7758536111
  9
$TDUSRTIMER
 40
0.7758530671
  9
$USRTIMER
 70
     1
  9
$ANGBASE
 50
0.0
  9
$ANGDIR
 70
     0
  9
$PDMODE
 70
     0
  9
$PDSIZE
 40
0.0
  9
$PLINEWID
 40
0.0
  9
$SPLFRAME
 70
     0
  9
$SPLINETYPE
 70
     6
  9
$SPLINESEGS
 70
     8
  9
$HANDSEED
  5
76D
  9
$SURFTAB1
 70
     6
  9
$SURFTAB2
 70
     6
  9
$SURFTYPE
 70
     6
  9
$SURFU
 70
     6
  9
$SURFV
 70
     6
  9
$UCSBASE
  2

  9
$UCSNAME
  2

  9
$UCSORG
 10
0.0
 20
0.0
 30
0.0
  9
$UCSXDIR
 10
1.0
 20
0.0
 30
0.0
  9
$UCSYDIR
 10
0.0
 20
1.0
 30
0.0
  9
$UCSORTHOREF
  2

  9
$UCSORTHOVIEW
 70
     0
  9
$UCSORGTOP
 10
0.0
 20
0.0
 30
0.0
  9
$UCSORGBOTTOM
 10
0.0
 20
0.0
 30
0.0
  9
$UCSORGLEFT
 10
0.0
 20
0.0
 30
0.0
  9
$UCSORGRIGHT
 10
0.0
 20
0.0
 30
0.0
  9
$UCSORGFRONT
 10
0.0
 20
0.0
 30
0.0
  9
$UCSORGBACK
 10
0.0
 20
0.0
 30
0.0
  9
$PUCSBASE
  2

  9
$PUCSNAME
  2

  9
$PUCSORG
 10
0.0
 20
0.0
 30
0.0
  9
$PUCSXDIR
 10
1.0
 20
0.0
 30
0.0
  9
$PUCSYDIR
 10
0.0
 20
1.0
 30
0.0
  9
$PUCSORTHOREF
  2

  9
$PUCSORTHOVIEW
 70
     0
  9
$PUCSORGTOP
 10
0.0
 20
0.0
 30
0.0
  9
$PUCSORGBOTTOM
 10
0.0
 20
0.0
 30
0.0
  9
$PUCSORGLEFT
 10
0.0
 20
0.0
 30
0.0
  9
$PUCSORGRIGHT
 10
0.0
 20
0.0
 30
0.0
  9
$PUCSORGFRONT
 10
0.0
 20
0.0
 30
0.0
  9
$PUCSORGBACK
 10
0.0
 20
0.0
 30
0.0
  9
$USERI1
 70
     0
  9
$USERI2
 70
     0
  9
$USERI3
 70
     0
  9
$USERI4
 70
     0
  9
$USERI5
 70
     0
  9
$USERR1
 40
0.0
  9
$USERR2
 40
0.0
  9
$USERR3
 40
0.0
  9
$USERR4
 40
0.0
  9
$USERR5
 40
0.0
  9
$WORLDVIEW
 70
     1
  9
$SHADEDGE
 70
     3
  9
$SHADEDIF
 70
    70
  9
$TILEMODE
 70
     1
  9
$MAXACTVP
 70
    48
  9
$PINSBASE
 10
0.0
 20
0.0
 30
0.0
  9
$PLIMCHECK
 70
     0
  9
$PEXTMIN
 10
1.000000000000000E+20
 20
1.000000000000000E+20
 30
1.000000000000000E+20
  9
$PEXTMAX
 10
-1.000000000000000E+20
 20
-1.000000000000000E+20
 30
-1.000000000000000E+20
  9
$PLIMMIN
 10
0.0
 20
0.0
  9
$PLIMMAX
 10
420.0
 20
297.0
  9
$UNITMODE
 70
     0
  9
$VISRETAIN
 70
     1
  9
$PLINEGEN
 70
     0
  9
$PSLTSCALE
 70
     1
  9
$TREEDEPTH
 70
  3020
  9
$CMLSTYLE
  2
STANDARD
  9
$CMLJUST
 70
     0
  9
$CMLSCALE
 40
20.0
  9
$PROXYGRAPHICS
 70
     1
  9
$MEASUREMENT
 70
     1
  9
$CELWEIGHT
370
    -1
  9
$ENDCAPS
280
     0
  9
$JOINSTYLE
280
     0
  9
$LWDISPLAY
290
     0
  9
$INSUNITS
 70
     0
  9
$HYPERLINKBASE
  1

  9
$STYLESHEET
  1

  9
$XEDIT
290
     1
  9
$CEPSNTYPE
380
     0
  9
$PSTYLEMODE
290
     1
  9
$FINGERPRINTGUID
  2
{DFB77EDF-71BF-4C3F-AE2E-ECE0062F40CF}
  9
$VERSIONGUID
  2
{667F712C-A619-4DC9-8D84-1CFA19ABB819}
  9
$EXTNAMES
290
     1
  9
$PSVPSCALE
 40
0.0
  9
$OLESTARTUP
290
     0
  0
ENDSEC
  0
SECTION
  2
CLASSES
  0
CLASS
  1
LWPOLYLINE
  2
AcDbPolyline
  3
AutoCAD 2000
 90
    32768
280
     0
281
     1
  0
CLASS
  1
DICTIONARYVAR
  2
AcDbDictionaryVar
  3
AutoCAD 2000
 90
        0
280
     0
281
     0
  0
CLASS
  1
HATCH
  2
AcDbHatch
  3
AutoCAD 2000
 90
    32768
280
     0
281
     1
  0
CLASS
  1
ACDBDICTIONARYWDFLT
  2
AcDbDictionaryWithDefault
  3
AutoCAD 2000
 90
        0
280
     0
281
     0
  0
CLASS
  1
ACDBPLACEHOLDER
  2
AcDbPlaceHolder
  3
AutoCAD 2000
 90
        0
280
     0
281
     0
  0
CLASS
  1
LAYOUT
  2
AcDbLayout
  3
AutoCAD 2000
 90
        0
280
     0
281
     0
  0
ENDSEC
  0
SECTION
  2
TABLES
  0
TABLE
  2
VPORT
  5
1A
330
0
100
AcDbSymbolTable
 70
    13
  0
VPORT
  5
76C
330
1A
100
AcDbSymbolTableRecord
100
AcDbViewportTableRecord
  2
*Active
 70
     0
 10
0.0
 20
0.0
 11
1.0
 21
1.0
 12
7643.365078444542
 22
2002.834373234537
 13
0.0
 23
0.0
 14
10.0
 24
10.0
 15
10.0
 25
10.0
 16
0.0
 26
-0.0000000000000001
 36
0.9999999999999998
 17
0.0
 27
0.0
 37
0.0
 40
1608.386353627795
 41
1.451249999999999
 42
50.0
 43
0.0
 44
0.0
 50
0.0
 51
0.0
 71
     0
 72
 20000
 73
     1
 74
     1
 75
     0
 76
     0
 77
     0
 78
     0
281
     0
 65
     1
110
0.0
120
0.0
130
0.0
111
1.0
121
0.0
131
0.0
112
0.0
122
1.0
132
0.0
 79
     0
146
0.0
  0
ENDTAB
  0
TABLE
  2
LTYPE
  5
15
330
0
100
AcDbSymbolTable
 70
     2
  0
LTYPE
  5
16
330
15
100
AcDbSymbolTableRecord
100
AcDbLinetypeTableRecord
  2
BYBLOCK
 70
     0
  3

 72
    65
 73
     0
 40
0.0
  0
LTYPE
  5
17
330
15
100
AcDbSymbolTableRecord
100
AcDbLinetypeTableRecord
  2
BYLAYER
 70
     0
  3

 72
    65
 73
     0
 40
0.0
  0
LTYPE
  5
8
330
15
100
AcDbSymbolTableRecord
100
AcDbLinetypeTableRecord
  2
CONTINUOUS
 70
     0
  3
Solid line
 72
    65
 73
     0
 40
0.0
  0
ENDTAB
  0
TABLE
  2
LAYER
  5
10
330
0
100
AcDbSymbolTable
 70
     3
  0
LAYER
  5
4
330
10
100
AcDbSymbolTableRecord
100
AcDbLayerTableRecord
  2
0
 70
     0
 62
     7
  6
CONTINUOUS
370
    -3
390
5
  0
LAYER
  5
2A
330
10
100
AcDbSymbolTableRecord
100
AcDbLayerTableRecord
  2
MAINOS
 70
     0
 62
     7
  6
CONTINUOUS
370
    -3
390
5
  0
LAYER
  5
3E
330
10
100
AcDbSymbolTableRecord
100
AcDbLayerTableRecord
  2
DEFPOINTS
 70
     0
 62
     7
  6
CONTINUOUS
290
     0
370
    -3
390
5
  0
ENDTAB
  0
TABLE
  2
STYLE
  5
11
330
0
100
AcDbSymbolTable
 70
     2
  0
STYLE
  5
12
330
11
100
AcDbSymbolTableRecord
100
AcDbTextStyleTableRecord
  2
STANDARD
 70
     0
 40
0.0
 41
1.0
 50
0.0
 71
     0
 42
2.5
  3

  4

1001
ACAD
1000
AGaramond
1071
 33554450
  0
STYLE
  5
1F
330
11
100
AcDbSymbolTableRecord
100
AcDbTextStyleTableRecord
  2
KUVASTO
 70
     0
 40
70.0
 41
1.0
 50
0.0
 71
     0
 42
70.0
  3
Foustbk_.ttf
  4

1001
ACAD
1000
FoundrySterling-Book
1071
        2
  0
ENDTAB
  0
TABLE
  2
VIEW
  5
18
330
0
100
AcDbSymbolTable
 70
     0
  0
ENDTAB
  0
TABLE
  2
UCS
  5
19
330
0
100
AcDbSymbolTable
 70
     0
  0
ENDTAB
  0
TABLE
  2
APPID
  5
1C
330
0
100
AcDbSymbolTable
 70
     1
  0
APPID
  5
13
330
1C
100
AcDbSymbolTableRecord
100
AcDbRegAppTableRecord
  2
ACAD
 70
     0
  0
ENDTAB
  0
TABLE
  2
DIMSTYLE
  5
1D
330
0
100
AcDbSymbolTable
 70
     2
100
AcDbDimStyleTable
 71
     1
340
1E
  0
DIMSTYLE
105
1E
102
{ACAD_REACTORS
330
228
330
23C
102
}
330
1D
100
AcDbSymbolTableRecord
100
AcDbDimStyleTableRecord
  2
STANDARD
 70
     0
 40
0.0
 41
70.0
 42
0.625
 43
3.75
 44
1.25
 73
     0
 77
     1
 78
     8
140
60.0
141
2.5
143
0.0394
147
20.0
171
     4
172
     1
173
     1
176
     3
177
     3
178
     5
273
     8
274
     4
277
     6
340
1F
341
20
343
20
344
20
  0
ENDTAB
  0
TABLE
  2
BLOCK_RECORD
  5
1
330
0
100
AcDbSymbolTable
 70
    15
  0
BLOCK_RECORD
  5
2
330
1
100
AcDbSymbolTableRecord
100
AcDbBlockTableRecord
  2
*MODEL_SPACE
340
A
  0
BLOCK_RECORD
  5
C
330
1
100
AcDbSymbolTableRecord
100
AcDbBlockTableRecord
  2
*PAPER_SPACE
340
F
  0
BLOCK_RECORD
  5
20
330
1
100
AcDbSymbolTableRecord
100
AcDbBlockTableRecord
  2
_OPEN
340
0
102
{BLKREFS
331
8B
331
6E
331
62
331
BB
331
BC
331
CF
331
D0
331
195
331
196
331
1A7
331
1A8
331
1B7
331
1B8
331
1C9
331
1CA
331
1F6
331
1FB
331
1FD
331
1D5
331
1D6
331
1E1
331
1E2
331
206
331
210
331
211
331
260
331
261
331
230
331
235
331
237
331
26C
331
26D
331
278
331
279
331
240
331
24A
331
24B
331
283
331
284
331
28C
331
28D
331
295
331
296
331
729
331
72A
331
732
331
733
331
73B
331
73C
331
74D
331
74E
102
}
  0
BLOCK_RECORD
  5
25C
330
1
100
AcDbSymbolTableRecord
100
AcDbBlockTableRecord
  2
*D10
340
0
  0
BLOCK_RECORD
  5
268
330
1
100
AcDbSymbolTableRecord
100
AcDbBlockTableRecord
  2
*D11
340
0
  0
ENDTAB
  0
ENDSEC
  0
SECTION
  2
BLOCKS
  0
BLOCK
  5
3
330
2
100
AcDbEntity
  8
0
100
AcDbBlockBegin
  2
*MODEL_SPACE
 70
     0
 10
0.0
 20
0.0
 30
0.0
  3
*MODEL_SPACE
  1

  0
ENDBLK
  5
9
330
2
100
AcDbEntity
  8
0
100
AcDbBlockEnd
  0
BLOCK
  5
D
330
C
100
AcDbEntity
 67
     1
  8
0
100
AcDbBlockBegin
  2
*PAPER_SPACE
 70
     0
 10
0.0
 20
0.0
 30
0.0
  3
*PAPER_SPACE
  1

  0
ENDBLK
  5
E
330
C
100
AcDbEntity
 67
     1
  8
0
100
AcDbBlockEnd
  0
BLOCK
  5
24
330
20
100
AcDbEntity
  8
0
100
AcDbBlockBegin
  2
_OPEN
 70
     0
 10
0.0
 20
0.0
 30
0.0
  3
_OPEN
  1

  0
LINE
  5
21
330
20
100
AcDbEntity
  8
0
  6
ByBlock
 62
     0
100
AcDbLine
 10
-1.0
 20
0.1666666666666666
 30
0.0
 11
0.0
 21
0.0
 31
0.0
  0
LINE
  5
22
330
20
100
AcDbEntity
  8
0
  6
ByBlock
 62
     0
100
AcDbLine
 10
0.0
 20
0.0
 30
0.0
 11
-1.0
 21
-0.1666666666666666
 31
0.0
  0
LINE
  5
23
330
20
100
AcDbEntity
  8
0
  6
ByBlock
 62
     0
100
AcDbLine
 10
0.0
 20
0.0
 30
0.0
 11
-1.0
 21
0.0
 31
0.0
  0
ENDBLK
  5
25
330
20
100
AcDbEntity
  8
0
100
AcDbBlockEnd
  0
BLOCK
  5
266
330
25C
100
AcDbEntity
  8
0
100
AcDbBlockBegin
  2
*D10
 70
     1
 10
0.0
 20
0.0
 30
0.0
  3
*D10
  1

  0
LINE
  5
74A
330
25C
100
AcDbEntity
  8
MAINOS
 62
     3
370
    -2
100
AcDbLine
 10
8137.305447100542
 20
1639.452961645033
 30
0.0
 11
8137.305447100542
 21
1613.962512036937
 31
0.0
  0
LINE
  5
74B
330
25C
100
AcDbEntity
  8
MAINOS
 62
     3
370
    -2
100
AcDbLine
 10
7237.352818022966
 20
1639.452961645035
 30
0.0
 11
7237.352818022966
 21
1613.962512036937
 31
0.0
  0
LINE
  5
74C
330
25C
100
AcDbEntity
  8
MAINOS
 62
     3
370
    -2
100
AcDbLine
 10
8067.305447100542
 20
1615.212512036938
 30
0.0
 11
7307.352818022966
 21
1615.212512036938
 31
0.0
  0
INSERT
  5
74D
330
25C
100
AcDbEntity
  8
MAINOS
 62
     3
370
    -2
100
AcDbBlockReference
  2
_OPEN
 10
8137.305447100542
 20
1615.212512036938
 30
0.0
 41
70.0
 42
70.0
 43
70.0
  0
INSERT
  5
74E
330
25C
100
AcDbEntity
  8
MAINOS
 62
     3
370
    -2
100
AcDbBlockReference
  2
_OPEN
 10
7237.352818022966
 20
1615.212512036938
 30
0.0
 41
70.0
 42
70.0
 43
70.0
 50
180.0
  0
MTEXT
  5
74F
330
25C
100
AcDbEntity
  8
MAINOS
 62
     5
100
AcDbMText
 10
7687.329132561754
 20
1671.524356114898
 30
0.0
 40
70.0
 41
0.0
 71
     5
 72
     1
  1
\A1;900
  7
KUVASTO
 73
     1
 44
1.0
  0
POINT
  5
750
330
25C
100
AcDbEntity
  8
DEFPOINTS
 62
     0
100
AcDbPoint
 10
8137.305447100542
 20
1640.077961645033
 30
0.0
  0
POINT
  5
751
330
25C
100
AcDbEntity
  8
DEFPOINTS
 62
     0
100
AcDbPoint
 10
7237.352818022966
 20
1640.077961645035
 30
0.0
  0
POINT
  5
752
330
25C
100
AcDbEntity
  8
DEFPOINTS
 62
     0
100
AcDbPoint
 10
7237.352818022966
 20
1615.212512036938
 30
0.0
  0
ENDBLK
  5
267
330
25C
100
AcDbEntity
  8
0
100
AcDbBlockEnd
  0
BLOCK
  5
272
330
268
100
AcDbEntity
  8
0
100
AcDbBlockBegin
  2
*D11
 70
     1
 10
0.0
 20
0.0
 30
0.0
  3
*D11
  1

  0
LINE
  5
738
330
268
100
AcDbEntity
  8
MAINOS
 62
     3
370
    -2
100
AcDbLine
 10
8286.686331931429
 20
1831.647202428825
 30
0.0
 11
8317.696910543729
 21
1831.647202428825
 31
0.0
  0
LINE
  5
739
330
268
100
AcDbEntity
  8
MAINOS
 62
     3
370
    -2
100
AcDbLine
 10
8283.686331931431
 20
2434.199831506399
 30
0.0
 11
8317.696910543729
 21
2434.199831506399
 31
0.0
  0
LINE
  5
73A
330
268
100
AcDbEntity
  8
MAINOS
 62
     3
370
    -2
100
AcDbLine
 10
8316.446910543728
 20
1901.647202428825
 30
0.0
 11
8316.446910543728
 21
2364.199831506399
 31
0.0
  0
INSERT
  5
73B
330
268
100
AcDbEntity
  8
MAINOS
 62
     3
370
    -2
100
AcDbBlockReference
  2
_OPEN
 10
8316.446910543728
 20
1831.647202428825
 30
0.0
 41
70.0
 42
70.0
 43
70.0
 50
270.0
  0
INSERT
  5
73C
330
268
100
AcDbEntity
  8
MAINOS
 62
     3
370
    -2
100
AcDbBlockReference
  2
_OPEN
 10
8316.446910543728
 20
2434.199831506399
 30
0.0
 41
70.0
 42
70.0
 43
70.0
 50
90.0
  0
MTEXT
  5
73D
330
268
100
AcDbEntity
  8
MAINOS
 62
     5
100
AcDbMText
 10
8260.135066465766
 20
2132.923516967613
 30
0.0
 40
70.0
 41
0.0
 71
     5
 72
     1
  1
\A1;605
  7
KUVASTO
 11
0.0000000000000001
 21
1.0
 31
0.0
 73
     1
 44
1.0
  0
POINT
  5
73E
330
268
100
AcDbEntity
  8
DEFPOINTS
 62
     0
100
AcDbPoint
 10
8286.06133193143
 20
1831.647202428825
 30
0.0
  0
POINT
  5
73F
330
268
100
AcDbEntity
  8
DEFPOINTS
 62
     0
100
AcDbPoint
 10
8283.061331931431
 20
2434.199831506399
 30
0.0
  0
POINT
  5
740
330
268
100
AcDbEntity
  8
DEFPOINTS
 62
     0
100
AcDbPoint
 10
8316.446910543728
 20
2434.199831506399
 30
0.0
  0
ENDBLK
  5
273
330
268
100
AcDbEntity
  8
0
100
AcDbBlockEnd
  0
ENDSEC
  0
SECTION
  2
ENTITIES
  0
LWPOLYLINE
  5
225
330
2
100
AcDbEntity
  8
MAINOS
100
AcDbPolyline
 90
       25
 70
     1
 43
0.0
 10
7324.329132654177
 20
1831.647202428825
 10
7449.605004835522
 20
1831.647202428825
 10
7449.605004835522
 20
1876.647202428825
 10
7324.329132654177
 20
1876.647202428825
 10
7324.329132654177
 20
1876.647202428825
 10
7282.352818022966
 20
1876.647202428826
 10
7282.352818022967
 20
2080.423516967612
 10
7282.352818022967
 20
2389.199831506402
 10
7447.329132561755
 20
2389.199831506398
 10
7687.329132561757
 20
2389.199831506399
 10
7927.329132561759
 20
2389.199831506398
 10
8092.305447100544
 20
2389.199831506398
 10
8092.305447100541
 20
2080.423516967611
 10
8092.305447100542
 20
1876.647202428821
 10
8050.329132561767
 20
1876.647202428822
 10
8050.329132561767
 20
1876.647202428822
 10
7925.053260283212
 20
1876.647202428822
 10
7925.053260283212
 20
1831.647202428823
 10
8137.305447100549
 20
1831.647202428824
 10
8137.305447100549
 20
2434.1998315064
 10
7930.329132561755
 20
2434.199831506397
 10
7690.329132561751
 20
2434.199831506399
 10
7450.329132561752
 20
2434.199831506399
 10
7237.352818022966
 20
2434.199831506402
 10
7237.352818022966
 20
1831.647202428827
  0
LWPOLYLINE
  5
226
330
2
100
AcDbEntity
  8
MAINOS
100
AcDbPolyline
 90
       30
 70
     0
 43
0.0
 10
7462.305473922633
 20
1959.199819287445
 10
7507.305431007289
 20
1959.199819287445
 10
7507.305431007289
 20
2179.199825545933
 10
7867.305445312403
 20
2179.199825545933
 10
7867.305445312403
 20
1959.199819287445
 10
7912.305447100543
 20
1959.199819287445
 10
7912.305447100543
 20
1954.199831506399
 10
7904.56414727889
 20
1954.199831506399
 10
7885.799574700844
 20
1954.199831506399
 10
7885.799574700844
 20
1909.199831506397
 10
7922.712607386573
 20
1909.199831506397
 10
8032.305447100542
 20
1909.199831506397
 10
8077.305447100542
 20
1909.199831506398
 10
8077.305447100542
 20
2329.199831506397
 10
8077.305447100542
 20
2374.199831506397
 10
7957.305447100542
 20
2374.199831506397
 10
7912.305447100543
 20
2374.199831506396
 10
7687.305447100541
 20
2374.199831506397
 10
7462.30544710054
 20
2374.199831506397
 10
7417.305447100543
 20
2374.199831506396
 10
7297.305447100541
 20
2374.199831506397
 10
7297.305447100541
 20
2329.199831506398
 10
7297.305447100541
 20
1909.199831506397
 10
7342.305447100542
 20
1909.199831506397
 10
7451.945657736955
 20
1909.199831506397
 10
7488.858690422666
 20
1909.199831506397
 10
7488.858690422666
 20
1954.199831506399
 10
7470.09411784462
 20
1954.199831506399
 10
7462.305447100543
 20
1954.199831506399
 10
7462.305447100543
 20
1959.199819287444
  0
LWPOLYLINE
  5
227
330
2
100
AcDbEntity
  8
MAINOS
 62
     6
100
AcDbPolyline
 90
        4
 70
     0
 43
0.0
 10
7192.352818022967
 20
1954.199831506399
 10
7192.352818022969
 20
2479.199831506401
 10
8182.305447100542
 20
2479.199831506401
 10
8182.305447100542
 20
1954.199831506399
  0
DIMENSION
  5
228
330
2
100
AcDbEntity
  8
MAINOS
100
AcDbDimension
  2
*D10
 10
7237.352818022966
 20
1615.212512036938
 30
0.0
 11
7687.329132561754
 21
1671.524356114898
 31
0.0
 70
    32
  1
900
 71
     5
 42
899.9526290775774
  3
STANDARD
100
AcDbAlignedDimension
 13
8137.305447100542
 23
1640.077961645033
 33
0.0
 14
7237.352818022966
 24
1640.077961645035
 34
0.0
100
AcDbRotatedDimension
1001
ACAD
1000
DSTYLE
1002
{
1070
    40
1040
1.0
1002
}
  0
LWPOLYLINE
  5
22A
330
2
100
AcDbEntity
  8
0
  6
Continuous
 62
     7
370
    15
100
AcDbPolyline
 90
        4
 70
     1
 43
0.0
 10
7342.305447100542
 20
2329.199831506399
 10
7417.305447100542
 20
2329.199831506398
 10
7417.305447100543
 20
1954.199831506399
 10
7342.305447100542
 20
1954.199831506398
  0
MTEXT
  5
22C
330
2
100
AcDbEntity
  8
MAINOS
 62
     5
100
AcDbMText
 10
7043.43874529195
 20
1675.295604522488
 30
0.0
 40
70.0
 41
0.0
 71
     5
 72
     1
  1
\A1;45
  7
KUVASTO
 73
     1
 44
1.0
  0
LINE
  5
22D
330
2
100
AcDbEntity
  8
MAINOS
 62
     3
100
AcDbLine
 10
7052.352818022964
 20
1615.212512036938
 30
0.0
 11
6970.434591666368
 21
1615.212512036938
 31
0.0
  0
LINE
  5
22E
330
2
100
AcDbEntity
  8
MAINOS
 62
     3
100
AcDbLine
 10
7237.352818022966
 20
1615.212512036938
 30
0.0
 11
7192.352818022965
 21
1615.212512036938
 31
0.0
  0
LINE
  5
22F
330
2
100
AcDbEntity
  8
MAINOS
 62
     3
100
AcDbLine
 10
7122.352818022965
 20
1615.212512036938
 30
0.0
 11
7052.352818022964
 21
1615.212512036938
 31
0.0
  0
INSERT
  5
230
330
2
100
AcDbEntity
  8
MAINOS
 62
     3
100
AcDbBlockReference
  2
_OPEN
 10
7192.352818022965
 20
1615.212512036938
 30
0.0
 41
-70.0
 42
70.0
 43
70.0
 50
180.0
  0
LINE
  5
231
330
2
100
AcDbEntity
  8
MAINOS
 62
     3
100
AcDbLine
 10
7192.352818022965
 20
1639.452961645033
 30
0.0
 11
7192.352818022965
 21
1613.962512036937
 31
0.0
  0
LWPOLYLINE
  5
23A
330
2
100
AcDbEntity
  8
0
  6
Continuous
 62
     7
370
    15
100
AcDbPolyline
 90
        4
 70
     1
 43
0.0
 10
8032.305447100542
 20
1954.199831506399
 10
7957.305447100542
 20
1954.1998315064
 10
7957.305447100542
 20
2329.199831506397
 10
8032.305447100542
 20
2329.199831506397
  0
DIMENSION
  5
23C
330
2
100
AcDbEntity
  8
MAINOS
100
AcDbDimension
  2
*D11
 10
8316.446910543728
 20
2434.199831506399
 30
0.0
 11
8260.135066465766
 21
2132.923516967613
 31
0.0
 70
    32
  1
605
 71
     5
 42
602.5526290775742
  3
STANDARD
100
AcDbAlignedDimension
 13
8286.06133193143
 23
1831.647202428825
 33
0.0
 14
8283.061331931431
 24
2434.199831506399
 34
0.0
 50
90.0
100
AcDbRotatedDimension
1001
ACAD
1000
DSTYLE
1002
{
1070
    40
1040
1.0
1002
}
  0
MTEXT
  5
23E
330
2
100
AcDbEntity
  8
MAINOS
 62
     5
100
AcDbMText
 10
8326.22457947072
 20
1675.295604522488
 30
0.0
 40
70.0
 41
0.0
 71
     5
 72
     1
  1
\A1;45
  7
KUVASTO
 73
     1
 44
1.0
  0
LINE
  5
23F
330
2
100
AcDbEntity
  8
MAINOS
 62
     3
100
AcDbLine
 10
8252.305447100544
 20
1615.212512036938
 30
0.0
 11
8322.305447100545
 21
1615.212512036938
 31
0.0
  0
INSERT
  5
240
330
2
100
AcDbEntity
  8
MAINOS
 62
     3
100
AcDbBlockReference
  2
_OPEN
 10
8182.305447100542
 20
1615.212512036938
 30
0.0
 41
70.0
 42
70.0
 43
70.0
 50
180.0
  0
LINE
  5
241
330
2
100
AcDbEntity
  8
MAINOS
 62
     3
100
AcDbLine
 10
8137.305447100542
 20
1615.212512036938
 30
0.0
 11
8182.305447100544
 21
1615.212512036938
 31
0.0
  0
LINE
  5
242
330
2
100
AcDbEntity
  8
MAINOS
 62
     3
100
AcDbLine
 10
8182.305447100544
 20
1639.452961645033
 30
0.0
 11
8182.305447100544
 21
1613.962512036937
 31
0.0
  0
LWPOLYLINE
  5
245
330
2
100
AcDbEntity
  8
MAINOS
 62
     4
100
AcDbPolyline
 90
        2
 70
     0
 43
0.0
 10
7519.605004835522
 20
1851.640996953633
 10
7855.005889365563
 20
1851.640996953633
  0
LINE
  5
247
330
2
100
AcDbEntity
  8
0
  6
Continuous
 62
     7
370
    15
100
AcDbLine
 10
7912.305433788029
 20
1800.666432688252
 30
0.0
 11
7912.311557528049
 21
1800.666432688252
 31
0.0
  0
LINE
  5
249
330
2
100
AcDbEntity
  8
MAINOS
 62
     3
100
AcDbLine
 10
8322.305447100545
 20
1615.212512036938
 30
0.0
 11
8404.223673457137
 21
1615.212512036938
 31
0.0
  0
INSERT
  5
24A
330
2
100
AcDbEntity
  8
MAINOS
 62
     3
100
AcDbBlockReference
  2
_OPEN
 10
8316.450334429152
 20
2434.199831506399
 30
0.0
 41
70.0
 42
70.0
 43
70.0
 50
90.0
  0
INSERT
  5
24B
330
2
100
AcDbEntity
  8
MAINOS
 62
     3
100
AcDbBlockReference
  2
_OPEN
 10
8316.450334429152
 20
2479.199831506401
 30
0.0
 41
70.0
 42
70.0
 43
70.0
 50
270.0
  0
LINE
  5
24C
330
2
100
AcDbEntity
  8
MAINOS
 62
     3
100
AcDbLine
 10
8284.311331931432
 20
2434.199831506399
 30
0.0
 11
8317.700334429153
 21
2434.199831506399
 31
0.0
  0
LINE
  5
24D
330
2
100
AcDbEntity
  8
MAINOS
 62
     3
100
AcDbLine
 10
8284.311331931432
 20
2479.199831506401
 30
0.0
 11
8317.700334429153
 21
2479.199831506401
 31
0.0
  0
MTEXT
  5
24E
330
2
100
AcDbEntity
  8
MAINOS
 62
     5
100
AcDbMText
 10
8256.3672419436
 20
2518.118963876577
 30
0.0
 40
70.0
 41
0.0
 71
     5
 72
     1
  1
\A1;45
  7
KUVASTO
 11
0.0000000000000001
 21
1.0
 31
0.0
 73
     1
 44
1.0
  0
LINE
  5
258
330
2
100
AcDbEntity
  8
MAINOS
 62
     3
100
AcDbLine
 10
8316.450334429152
 20
2514.199831506401
 30
0.0
 11
8316.450334429152
 21
2596.118057862995
 31
0.0
  0
LINE
  5
259
330
2
100
AcDbEntity
  8
MAINOS
 62
     3
100
AcDbLine
 10
8316.450334429152
 20
2364.199831506399
 30
0.0
 11
8316.450334429152
 21
2294.1998315064
 31
0.0
  0
LINE
  5
25A
330
2
100
AcDbEntity
  8
MAINOS
 62
     3
100
AcDbLine
 10
8316.450334429152
 20
2434.199831506399
 30
0.0
 11
8316.450334429152
 21
2479.199831506401
 31
0.0
  0
LINE
  5
25B
330
2
100
AcDbEntity
  8
MAINOS
 62
     3
100
AcDbLine
 10
8316.450334429152
 20
2549.1998315064
 30
0.0
 11
8316.450334429152
 21
2514.199831506401
 31
0.0
  0
LWPOLYLINE
  5
725
330
2
100
AcDbEntity
  8
0
100
AcDbPolyline
 90
       43
 70
     0
 43
0.0
 10
7457.832683375871
 20
1909.199831506398
 10
7457.832655316686
 20
1875.199816390565
 42
0.4142140458050207
 10
7461.832655316687
 20
1871.199816390565
 10
7484.33267002443
 20
1871.199843904164
 10
7484.33267002443
 20
1851.640996953633
 10
7463.331211856401
 20
1851.640996953633
 42
0.4400063425138363
 10
7461.338805920856
 20
1849.466698053895
 10
7461.760987094438
 20
1844.641027471211
 10
7455.774892619645
 20
1844.573912641194
 10
7454.778720191514
 20
1844.486770650533
 10
7456.983658566646
 20
1819.284129202445
 42
0.3888717796132131
 10
7458.776820949113
 20
1817.640957852986
 10
7885.525707653558
 20
1817.640957852986
 10
7885.525707653558
 20
1817.14099409261
 10
7874.825705340898
 20
1817.14099409261
 42
0.4142126890072609
 10
7868.825702896548
 20
1811.141009539391
 10
7868.825708082711
 20
1788.393316289571
 42
-0.3939104537174772
 10
7863.244254640138
 20
1782.407937070516
 10
7834.309269240891
 20
1780.38459779897
 42
-0.0174541347349007
 10
7827.333625947375
 20
1780.141009539391
 10
7765.148390582597
 20
1780.141053220418
 42
0.4296349530050053
 10
7759.156603864228
 20
1773.827013990071
 10
7759.545941403901
 20
1766.397891065267
 42
0.3788685258628356
 10
7765.119185898047
 20
1760.726554637944
 42
-0.0000038462962683
 10
7830.695529035127
 20
1756.141004583028
 10
7885.107268146073
 20
1756.141004583028
 42
0.4040262892963037
 10
7897.099960584096
 20
1767.722215578961
 10
7898.608867577111
 20
1810.931620618489
 42
0.4244752956601838
 10
7892.612521013804
 20
1817.141009539391
 10
7892.612521013806
 20
1817.141009539391
 10
7892.612521013806
 20
1817.640957852986
 10
7915.974596769882
 20
1817.641009539391
 42
0.3888782270184528
 10
7917.767752460038
 20
1819.284138700154
 10
7919.972692183053
 20
1844.486770650533
 10
7918.71275430063
 20
1844.573912641194
 10
7913.036156943833
 20
1844.641027471211
 10
7913.458350708947
 20
1849.466698053896
 42
0.4400124331162925
 10
7911.465961984193
 20
1851.640996953633
 10
7905.575577667748
 20
1851.640996953633
 10
7905.575577667748
 20
1854.199824353841
 10
7912.825588635003
 20
1854.199824353841
 42
0.4142146534856037
 10
7916.825581840074
 20
1858.199832460073
 10
7916.825581840074
 20
1909.199831506398
  0
LWPOLYLINE
  5
745
330
2
100
AcDbEntity
  8
MAINOS
100
AcDbPolyline
 90
        4
 70
     1
 43
0.0
 10
7507.305439947984
 20
2269.199829122212
 10
7867.305454253099
 20
2269.199829122212
 10
7867.305454253099
 20
2329.199831506397
 10
7507.305439947984
 20
2329.199831506397
  0
LWPOLYLINE
  5
754
330
2
100
AcDbEntity
  8
MAINOS
100
AcDbPolyline
 90
        1
 70
     0
 43
0.0
 10
7484.33267002443
 20
1851.640996953633
  0
LWPOLYLINE
  5
759
330
2
100
AcDbEntity
  8
MAINOS
100
AcDbPolyline
 90
        8
 70
     0
 43
0.0
 10
7867.305454253099
 20
1959.199819287445
 10
7867.305454253099
 20
1851.640996953633
 10
7855.005889365563
 20
1851.640996953633
 10
7855.005889365563
 20
2169.199825545933
 10
7519.605004835522
 20
2169.199825545933
 10
7519.605004835522
 20
1851.640996953633
 10
7507.305439947984
 20
1851.640996953633
 10
7507.305439947984
 20
1959.199819287445
  0
ENDSEC
  0
SECTION
  2
OBJECTS
  0
DICTIONARY
  5
7
330
0
100
AcDbDictionary
281
     1
  3
ACAD_GROUP
350
27
  3
ACAD_LAYOUT
350
B
  3
ACAD_MLINESTYLE
350
28
  3
ACAD_PLOTSETTINGS
350
29
  3
ACAD_PLOTSTYLENAME
350
6
  3
AcDbVariableDictionary
350
91
  0
DICTIONARY
  5
27
102
{ACAD_REACTORS
330
7
102
}
330
7
100
AcDbDictionary
281
     1
  0
DICTIONARY
  5
B
102
{ACAD_REACTORS
330
7
102
}
330
7
100
AcDbDictionary
281
     1
  3
Layout1
350
F
  3
Model
350
A
  0
DICTIONARY
  5
28
102
{ACAD_REACTORS
330
7
102
}
330
7
100
AcDbDictionary
281
     1
  3
STANDARD
350
2B
  0
DICTIONARY
  5
29
102
{ACAD_REACTORS
330
7
102
}
330
7
100
AcDbDictionary
281
     1
  0
ACDBDICTIONARYWDFLT
  5
6
102
{ACAD_REACTORS
330
7
102
}
330
7
100
AcDbDictionary
281
     1
  3
Normal
350
5
100
AcDbDictionaryWithDefault
340
5
  0
DICTIONARY
  5
91
102
{ACAD_REACTORS
330
7
102
}
330
7
100
AcDbDictionary
281
     1
  3
DIMASSOC
350
93
  3
HIDETEXT
350
92
  0
LAYOUT
  5
F
102
{ACAD_REACTORS
330
B
102
}
330
B
100
AcDbPlotSettings
  1

  2
ASPA2
  4

  6

 40
0.0
 41
0.0
 42
0.0
 43
0.0
 44
0.0
 45
0.0
 46
0.0
 47
0.0
 48
0.0
 49
0.0
140
0.0
141
0.0
142
1.0
143
1.0
 70
   688
 72
     0
 73
     0
 74
     5
  7
acad.ctb
 75
    16
147
1.0
148
0.0
149
0.0
100
AcDbLayout
  1
Layout1
 70
     1
 71
     1
 10
0.0
 20
0.0
 11
420.0
 21
297.0
 12
0.0
 22
0.0
 32
0.0
 14
1.000000000000000E+20
 24
1.000000000000000E+20
 34
1.000000000000000E+20
 15
-1.000000000000000E+20
 25
-1.000000000000000E+20
 35
-1.000000000000000E+20
146
0.0
 13
0.0
 23
0.0
 33
0.0
 16
1.0
 26
0.0
 36
0.0
 17
0.0
 27
1.0
 37
0.0
 76
     0
330
C
  0
LAYOUT
  5
A
102
{ACAD_REACTORS
330
B
102
}
330
B
100
AcDbPlotSettings
  1

  2
Amyuni PDF Converter
  4
A4
  6

 40
6.720416545867919
 41
6.80509614944458
 42
6.889755249023437
 43
6.720428466796875
 44
209.9733276367186
 45
296.9259948730469
 46
3.759999999999998
 47
30.73999999999999
 48
3720.281263814993
 49
1232.478800346044
140
5939.432034169917
141
3120.876358500894
142
1.0
143
10.0
 70
 11956
 72
     1
 73
     1
 74
     4
  7
acad.ctb
 75
    20
147
0.1
148
-3720.281263814993
149
-1232.478800346044
100
AcDbLayout
  1
Model
 70
     1
 71
     0
 10
0.0
 20
0.0
 11
12.0
 21
9.0
 12
0.0
 22
0.0
 32
0.0
 14
0.0
 24
0.0
 34
0.0
 15
0.0
 25
0.0
 35
0.0
146
0.0
 13
0.0
 23
0.0
 33
0.0
 16
1.0
 26
0.0
 36
0.0
 17
0.0
 27
1.0
 37
0.0
 76
     0
330
2
  0
MLINESTYLE
  5
2B
102
{ACAD_REACTORS
330
28
102
}
330
28
100
AcDbMlineStyle
  2
STANDARD
 70
     0
  3

 62
   256
 51
90.0
 52
90.0
 71
     2
 49
0.5
 62
   256
  6
BYLAYER
 49
-0.5
 62
   256
  6
BYLAYER
  0
ACDBPLACEHOLDER
  5
5
102
{ACAD_REACTORS
330
6
102
}
330
6
  0
DICTIONARYVAR
  5
93
102
{ACAD_REACTORS
330
91
102
}
330
91
100
DictionaryVariables
280
     0
  1
1
  0
DICTIONARYVAR
  5
92
102
{ACAD_REACTORS
330
91
102
}
330
91
100
DictionaryVariables
280
     0
  1
1
  0
ENDSEC
  0
EOF
