  0
SECTION
  2
HEADER
  9
$ACADVER
  1
AC1015
  9
$ACADMAINTVER
 70
    14
  9
$DWGCODEPAGE
  3
ANSI_1252
  9
$INSBASE
 10
0.0
 20
0.0
 30
0.0
  9
$EXTMIN
 10
18125.63978961544
 20
2207.167402556932
 30
-182.3977784817466
  9
$EXTMAX
 10
19548.75823039507
 20
3292.983524215361
 30
450.0700073242184
  9
$LIMMIN
 10
0.0
 20
0.0
  9
$LIMMAX
 10
420.0
 20
297.0
  9
$ORTHOMODE
 70
     1
  9
$REGENMODE
 70
     1
  9
$FILLMODE
 70
     1
  9
$QTEXTMODE
 70
     0
  9
$MIRRTEXT
 70
     1
  9
$LTSCALE
 40
50.0
  9
$ATTMODE
 70
     1
  9
$TEXTSIZE
 40
80.0
  9
$TRACEWID
 40
1.0
  9
$TEXTSTYLE
  7
KUVASTO
  9
$CLAYER
  8
MAINOS
  9
$CELTYPE
  6
BYLAYER
  9
$CECOLOR
 62
   256
  9
$CELTSCALE
 40
1.0
  9
$DISPSILH
 70
     1
  9
$DIMSCALE
 40
0.0
  9
$DIMASZ
 40
70.0
  9
$DIMEXO
 40
0.625
  9
$DIMDLI
 40
3.75
  9
$DIMRND
 40
0.0
  9
$DIMDLE
 40
0.0
  9
$DIMEXE
 40
1.25
  9
$DIMTP
 40
0.0
  9
$DIMTM
 40
0.0
  9
$DIMTXT
 40
60.0
  9
$DIMCEN
 40
2.5
  9
$DIMTSZ
 40
0.0
  9
$DIMTOL
 70
     0
  9
$DIMLIM
 70
     0
  9
$DIMTIH
 70
     0
  9
$DIMTOH
 70
     1
  9
$DIMSE1
 70
     0
  9
$DIMSE2
 70
     0
  9
$DIMTAD
 70
     1
  9
$DIMZIN
 70
     8
  9
$DIMBLK
  1

  9
$DIMASO
 70
     1
  9
$DIMSHO
 70
     1
  9
$DIMPOST
  1

  9
$DIMAPOST
  1

  9
$DIMALT
 70
     0
  9
$DIMALTD
 70
     4
  9
$DIMALTF
 40
0.0394
  9
$DIMLFAC
 40
1.0
  9
$DIMTOFL
 70
     1
  9
$DIMTVP
 40
0.0
  9
$DIMTIX
 70
     0
  9
$DIMSOXD
 70
     0
  9
$DIMSAH
 70
     1
  9
$DIMBLK1
  1
OPEN
  9
$DIMBLK2
  1
OPEN
  9
$DIMSTYLE
  2
STANDARD
  9
$DIMCLRD
 70
     3
  9
$DIMCLRE
 70
     3
  9
$DIMCLRT
 70
     5
  9
$DIMTFAC
 40
1.0
  9
$DIMGAP
 40
20.0
  9
$DIMJUST
 70
     0
  9
$DIMSD1
 70
     0
  9
$DIMSD2
 70
     0
  9
$DIMTOLJ
 70
     1
  9
$DIMTZIN
 70
     0
  9
$DIMALTZ
 70
     0
  9
$DIMALTTZ
 70
     0
  9
$DIMUPT
 70
     0
  9
$DIMDEC
 70
     4
  9
$DIMTDEC
 70
     4
  9
$DIMALTU
 70
     8
  9
$DIMALTTD
 70
     4
  9
$DIMTXSTY
  7
KUVASTO
  9
$DIMAUNIT
 70
     0
  9
$DIMADEC
 70
     0
  9
$DIMALTRND
 40
0.0
  9
$DIMAZIN
 70
     0
  9
$DIMDSEP
 70
    46
  9
$DIMATFIT
 70
     3
  9
$DIMFRAC
 70
     0
  9
$DIMLDRBLK
  1
OPEN
  9
$DIMLUNIT
 70
     6
  9
$DIMLWD
 70
    -2
  9
$DIMLWE
 70
    -2
  9
$DIMTMOVE
 70
     0
  9
$LUNITS
 70
     2
  9
$LUPREC
 70
     4
  9
$SKETCHINC
 40
1.0
  9
$FILLETRAD
 40
0.0
  9
$AUNITS
 70
     0
  9
$AUPREC
 70
     0
  9
$MENU
  1
.
  9
$ELEVATION
 40
0.0
  9
$PELEVATION
 40
0.0
  9
$THICKNESS
 40
0.0
  9
$LIMCHECK
 70
     0
  9
$CHAMFERA
 40
75.0
  9
$CHAMFERB
 40
75.0
  9
$CHAMFERC
 40
20.0
  9
$CHAMFERD
 40
0.0
  9
$SKPOLY
 70
     0
  9
$TDCREATE
 40
2452044.350563495
  9
$TDUCREATE
 40
2452044.267230162
  9
$TDUPDATE
 40
2455257.586822476
  9
$TDUUPDATE
 40
2455257.503489143
  9
$TDINDWG
 40
0.5349063773
  9
$TDUSRTIMER
 40
0.5349060185
  9
$USRTIMER
 70
     1
  9
$ANGBASE
 50
0.0
  9
$ANGDIR
 70
     0
  9
$PDMODE
 70
     0
  9
$PDSIZE
 40
0.0
  9
$PLINEWID
 40
0.0
  9
$SPLFRAME
 70
     0
  9
$SPLINETYPE
 70
     6
  9
$SPLINESEGS
 70
     8
  9
$HANDSEED
  5
84
  9
$SURFTAB1
 70
     6
  9
$SURFTAB2
 70
     6
  9
$SURFTYPE
 70
     6
  9
$SURFU
 70
     6
  9
$SURFV
 70
     6
  9
$UCSBASE
  2

  9
$UCSNAME
  2

  9
$UCSORG
 10
0.0
 20
0.0
 30
0.0
  9
$UCSXDIR
 10
1.0
 20
0.0
 30
0.0
  9
$UCSYDIR
 10
0.0
 20
1.0
 30
0.0
  9
$UCSORTHOREF
  2

  9
$UCSORTHOVIEW
 70
     0
  9
$UCSORGTOP
 10
0.0
 20
0.0
 30
0.0
  9
$UCSORGBOTTOM
 10
0.0
 20
0.0
 30
0.0
  9
$UCSORGLEFT
 10
0.0
 20
0.0
 30
0.0
  9
$UCSORGRIGHT
 10
0.0
 20
0.0
 30
0.0
  9
$UCSORGFRONT
 10
0.0
 20
0.0
 30
0.0
  9
$UCSORGBACK
 10
0.0
 20
0.0
 30
0.0
  9
$PUCSBASE
  2

  9
$PUCSNAME
  2

  9
$PUCSORG
 10
0.0
 20
0.0
 30
0.0
  9
$PUCSXDIR
 10
1.0
 20
0.0
 30
0.0
  9
$PUCSYDIR
 10
0.0
 20
1.0
 30
0.0
  9
$PUCSORTHOREF
  2

  9
$PUCSORTHOVIEW
 70
     0
  9
$PUCSORGTOP
 10
0.0
 20
0.0
 30
0.0
  9
$PUCSORGBOTTOM
 10
0.0
 20
0.0
 30
0.0
  9
$PUCSORGLEFT
 10
0.0
 20
0.0
 30
0.0
  9
$PUCSORGRIGHT
 10
0.0
 20
0.0
 30
0.0
  9
$PUCSORGFRONT
 10
0.0
 20
0.0
 30
0.0
  9
$PUCSORGBACK
 10
0.0
 20
0.0
 30
0.0
  9
$USERI1
 70
     0
  9
$USERI2
 70
     0
  9
$USERI3
 70
     0
  9
$USERI4
 70
     0
  9
$USERI5
 70
     0
  9
$USERR1
 40
0.0
  9
$USERR2
 40
0.0
  9
$USERR3
 40
0.0
  9
$USERR4
 40
0.0
  9
$USERR5
 40
0.0
  9
$WORLDVIEW
 70
     1
  9
$SHADEDGE
 70
     3
  9
$SHADEDIF
 70
    70
  9
$TILEMODE
 70
     1
  9
$MAXACTVP
 70
    48
  9
$PINSBASE
 10
0.0
 20
0.0
 30
0.0
  9
$PLIMCHECK
 70
     0
  9
$PEXTMIN
 10
1.000000000000000E+20
 20
1.000000000000000E+20
 30
1.000000000000000E+20
  9
$PEXTMAX
 10
-1.000000000000000E+20
 20
-1.000000000000000E+20
 30
-1.000000000000000E+20
  9
$PLIMMIN
 10
0.0
 20
0.0
  9
$PLIMMAX
 10
420.0
 20
297.0
  9
$UNITMODE
 70
     0
  9
$VISRETAIN
 70
     1
  9
$PLINEGEN
 70
     0
  9
$PSLTSCALE
 70
     1
  9
$TREEDEPTH
 70
  3020
  9
$CMLSTYLE
  2
STANDARD
  9
$CMLJUST
 70
     0
  9
$CMLSCALE
 40
20.0
  9
$PROXYGRAPHICS
 70
     1
  9
$MEASUREMENT
 70
     1
  9
$CELWEIGHT
370
    -1
  9
$ENDCAPS
280
     0
  9
$JOINSTYLE
280
     0
  9
$LWDISPLAY
290
     0
  9
$INSUNITS
 70
     0
  9
$HYPERLINKBASE
  1

  9
$STYLESHEET
  1

  9
$XEDIT
290
     1
  9
$CEPSNTYPE
380
     0
  9
$PSTYLEMODE
290
     1
  9
$FINGERPRINTGUID
  2
{0A328C68-E647-11D6-B917-000103D6C2BD}
  9
$VERSIONGUID
  2
{12B98ECA-E1E6-4A83-92C7-9EC20F1A4556}
  9
$EXTNAMES
290
     1
  9
$PSVPSCALE
 40
0.0
  9
$OLESTARTUP
290
     0
  0
ENDSEC
  0
SECTION
  2
CLASSES
  0
CLASS
  1
LWPOLYLINE
  2
AcDbPolyline
  3
AutoCAD 2000
 90
    32768
280
     0
281
     1
  0
CLASS
  1
DICTIONARYVAR
  2
AcDbDictionaryVar
  3
AutoCAD 2000
 90
        0
280
     0
281
     0
  0
CLASS
  1
HATCH
  2
AcDbHatch
  3
AutoCAD 2000
 90
    32768
280
     0
281
     1
  0
CLASS
  1
ACDBDICTIONARYWDFLT
  2
AcDbDictionaryWithDefault
  3
AutoCAD 2000
 90
        0
280
     0
281
     0
  0
CLASS
  1
ACDBPLACEHOLDER
  2
AcDbPlaceHolder
  3
AutoCAD 2000
 90
        0
280
     0
281
     0
  0
CLASS
  1
LAYOUT
  2
AcDbLayout
  3
AutoCAD 2000
 90
        0
280
     0
281
     0
  0
ENDSEC
  0
SECTION
  2
TABLES
  0
TABLE
  2
VPORT
  5
1A
330
0
100
AcDbSymbolTable
 70
     2
  0
VPORT
  5
83
330
1A
100
AcDbSymbolTableRecord
100
AcDbViewportTableRecord
  2
*Active
 70
     0
 10
0.0
 20
0.0
 11
1.0
 21
1.0
 12
18964.25025106428
 22
2664.930241319871
 13
0.0
 23
0.0
 14
10.0
 24
10.0
 15
10.0
 25
10.0
 16
0.0
 26
0.0
 36
1.0
 17
0.0
 27
0.0
 37
0.0
 40
1448.150000514623
 41
1.933734939759036
 42
50.0
 43
0.0
 44
0.0
 50
0.0
 51
0.0
 71
     0
 72
 20000
 73
     1
 74
     1
 75
     0
 76
     0
 77
     0
 78
     0
281
     0
 65
     1
110
0.0
120
0.0
130
0.0
111
1.0
121
0.0
131
0.0
112
0.0
122
1.0
132
0.0
 79
     0
146
0.0
  0
ENDTAB
  0
TABLE
  2
LTYPE
  5
15
330
0
100
AcDbSymbolTable
 70
     1
  0
LTYPE
  5
16
330
15
100
AcDbSymbolTableRecord
100
AcDbLinetypeTableRecord
  2
BYBLOCK
 70
     0
  3

 72
    65
 73
     0
 40
0.0
  0
LTYPE
  5
17
330
15
100
AcDbSymbolTableRecord
100
AcDbLinetypeTableRecord
  2
BYLAYER
 70
     0
  3

 72
    65
 73
     0
 40
0.0
  0
LTYPE
  5
8
330
15
100
AcDbSymbolTableRecord
100
AcDbLinetypeTableRecord
  2
CONTINUOUS
 70
     0
  3
Solid line
 72
    65
 73
     0
 40
0.0
  0
ENDTAB
  0
TABLE
  2
LAYER
  5
10
330
0
100
AcDbSymbolTable
 70
     6
  0
LAYER
  5
4
330
10
100
AcDbSymbolTableRecord
100
AcDbLayerTableRecord
  2
0
 70
     0
 62
     7
  6
CONTINUOUS
370
    -3
390
5
  0
LAYER
  5
40
330
10
100
AcDbSymbolTableRecord
100
AcDbLayerTableRecord
  2
HORMILIITOS
 70
     0
 62
     6
  6
CONTINUOUS
370
    -3
390
5
  0
LAYER
  5
31
330
10
100
AcDbSymbolTableRecord
100
AcDbLayerTableRecord
  2
MITAT
 70
     0
 62
     5
  6
CONTINUOUS
370
    -3
390
5
  0
LAYER
  5
2A
330
10
100
AcDbSymbolTableRecord
100
AcDbLayerTableRecord
  2
MAINOS
 70
     0
 62
     7
  6
CONTINUOUS
370
    -3
390
5
  0
LAYER
  5
3A
330
10
100
AcDbSymbolTableRecord
100
AcDbLayerTableRecord
  2
DEFPOINTS
 70
     0
 62
     7
  6
CONTINUOUS
290
     0
370
    -3
390
5
  0
LAYER
  5
50
330
10
100
AcDbSymbolTableRecord
100
AcDbLayerTableRecord
  2
LUUKUN-AUKKO
 70
     0
 62
     4
  6
CONTINUOUS
370
    -3
390
5
  0
ENDTAB
  0
TABLE
  2
STYLE
  5
11
330
0
100
AcDbSymbolTable
 70
     2
  0
STYLE
  5
12
330
11
100
AcDbSymbolTableRecord
100
AcDbTextStyleTableRecord
  2
STANDARD
 70
     0
 40
0.0
 41
1.0
 50
0.0
 71
     0
 42
2.5
  3

  4

1001
ACAD
1000
AGaramond
1071
 33554450
  0
STYLE
  5
1F
330
11
100
AcDbSymbolTableRecord
100
AcDbTextStyleTableRecord
  2
KUVASTO
 70
     0
 40
70.0
 41
1.0
 50
0.0
 71
     0
 42
80.0
  3
Foustbk_.ttf
  4

1001
ACAD
1000
FoundrySterling-Book
1071
        2
  0
ENDTAB
  0
TABLE
  2
VIEW
  5
18
330
0
100
AcDbSymbolTable
 70
     0
  0
ENDTAB
  0
TABLE
  2
UCS
  5
19
330
0
100
AcDbSymbolTable
 70
     0
  0
ENDTAB
  0
TABLE
  2
APPID
  5
1C
330
0
100
AcDbSymbolTable
 70
     1
  0
APPID
  5
13
330
1C
100
AcDbSymbolTableRecord
100
AcDbRegAppTableRecord
  2
ACAD
 70
     0
  0
ENDTAB
  0
TABLE
  2
DIMSTYLE
  5
1D
330
0
100
AcDbSymbolTable
 70
     1
100
AcDbDimStyleTable
 71
     1
340
1E
  0
DIMSTYLE
105
1E
102
{ACAD_REACTORS
330
30
330
41
330
51
330
61
102
}
330
1D
100
AcDbSymbolTableRecord
100
AcDbDimStyleTableRecord
  2
STANDARD
 70
     0
 40
0.0
 41
70.0
 42
0.625
 43
3.75
 44
1.25
 73
     0
 77
     1
 78
     8
140
60.0
141
2.5
143
0.0394
147
20.0
171
     4
172
     1
173
     1
176
     3
177
     3
178
     5
273
     8
274
     4
277
     6
340
1F
341
20
343
20
344
20
  0
ENDTAB
  0
TABLE
  2
BLOCK_RECORD
  5
1
330
0
100
AcDbSymbolTable
 70
     5
  0
BLOCK_RECORD
  5
2
330
1
100
AcDbSymbolTableRecord
100
AcDbBlockTableRecord
  2
*MODEL_SPACE
340
A
  0
BLOCK_RECORD
  5
C
330
1
100
AcDbSymbolTableRecord
100
AcDbBlockTableRecord
  2
*PAPER_SPACE
340
F
  0
BLOCK_RECORD
  5
20
330
1
100
AcDbSymbolTableRecord
100
AcDbBlockTableRecord
  2
_OPEN
340
0
102
{BLKREFS
331
73
331
72
331
46
331
47
331
58
331
59
331
68
331
69
331
36
331
37
102
}
  0
BLOCK_RECORD
  5
32
330
1
100
AcDbSymbolTableRecord
100
AcDbBlockTableRecord
  2
*D1
340
0
  0
BLOCK_RECORD
  5
42
330
1
100
AcDbSymbolTableRecord
100
AcDbBlockTableRecord
  2
*D2
340
0
  0
BLOCK_RECORD
  5
52
330
1
100
AcDbSymbolTableRecord
100
AcDbBlockTableRecord
  2
*D3
340
0
  0
BLOCK_RECORD
  5
62
330
1
100
AcDbSymbolTableRecord
100
AcDbBlockTableRecord
  2
*D4
340
0
  0
ENDTAB
  0
ENDSEC
  0
SECTION
  2
BLOCKS
  0
BLOCK
  5
3
330
2
100
AcDbEntity
  8
0
100
AcDbBlockBegin
  2
*MODEL_SPACE
 70
     0
 10
0.0
 20
0.0
 30
0.0
  3
*MODEL_SPACE
  1

  0
ENDBLK
  5
9
330
2
100
AcDbEntity
  8
0
100
AcDbBlockEnd
  0
BLOCK
  5
D
330
C
100
AcDbEntity
 67
     1
  8
0
100
AcDbBlockBegin
  2
*PAPER_SPACE
 70
     0
 10
0.0
 20
0.0
 30
0.0
  3
*PAPER_SPACE
  1

  0
ENDBLK
  5
E
330
C
100
AcDbEntity
 67
     1
  8
0
100
AcDbBlockEnd
  0
BLOCK
  5
24
330
20
100
AcDbEntity
  8
0
100
AcDbBlockBegin
  2
_OPEN
 70
     0
 10
0.0
 20
0.0
 30
0.0
  3
_OPEN
  1

  0
LINE
  5
21
330
20
100
AcDbEntity
  8
0
  6
ByBlock
 62
     0
100
AcDbLine
 10
-1.0
 20
0.1666666666666666
 30
0.0
 11
0.0
 21
0.0
 31
0.0
  0
LINE
  5
22
330
20
100
AcDbEntity
  8
0
  6
ByBlock
 62
     0
100
AcDbLine
 10
0.0
 20
0.0
 30
0.0
 11
-1.0
 21
-0.1666666666666666
 31
0.0
  0
LINE
  5
23
330
20
100
AcDbEntity
  8
0
  6
ByBlock
 62
     0
100
AcDbLine
 10
0.0
 20
0.0
 30
0.0
 11
-1.0
 21
0.0
 31
0.0
  0
ENDBLK
  5
25
330
20
100
AcDbEntity
  8
0
100
AcDbBlockEnd
  0
BLOCK
  5
3D
330
32
100
AcDbEntity
  8
0
100
AcDbBlockBegin
  2
*D1
 70
     1
 10
0.0
 20
0.0
 30
0.0
  3
*D1
  1

  0
LINE
  5
33
330
32
100
AcDbEntity
  8
MITAT
 62
     3
370
    -2
100
AcDbLine
 10
19379.85717916889
 20
2994.864595962724
 30
0.0
 11
19410.48217916889
 21
2994.864595962724
 31
0.0
  0
LINE
  5
34
330
32
100
AcDbEntity
  8
MITAT
 62
     3
370
    -2
100
AcDbLine
 10
19379.85717916889
 20
2424.864595962723
 30
0.0
 11
19410.48217916889
 21
2424.864595962723
 31
0.0
  0
LINE
  5
35
330
32
100
AcDbEntity
  8
MITAT
 62
     3
370
    -2
100
AcDbLine
 10
19409.23217916889
 20
2924.864595962723
 30
0.0
 11
19409.23217916889
 21
2494.864595962722
 31
0.0
  0
INSERT
  5
36
330
32
100
AcDbEntity
  8
MITAT
 62
     3
370
    -2
100
AcDbBlockReference
  2
_OPEN
 10
19409.23217916889
 20
2994.864595962724
 30
0.0
 41
70.0
 42
70.0
 43
70.0
 50
90.0
  0
INSERT
  5
37
330
32
100
AcDbEntity
  8
MITAT
 62
     3
370
    -2
100
AcDbBlockReference
  2
_OPEN
 10
19409.23217916889
 20
2424.864595962723
 30
0.0
 41
70.0
 42
70.0
 43
70.0
 50
270.0
  0
MTEXT
  5
38
330
32
100
AcDbEntity
  8
MITAT
 62
     5
100
AcDbMText
 10
19352.92033509093
 20
2709.864595962726
 30
0.0
 40
70.0
 41
0.0
 71
     5
 72
     1
  1
\A1;570
  7
KUVASTO
 11
0.0000000000000001
 21
1.0
 31
0.0
 73
     1
 44
1.0
  0
POINT
  5
39
330
32
100
AcDbEntity
  8
DEFPOINTS
 62
     0
100
AcDbPoint
 10
19379.23217916889
 20
2994.864595962724
 30
182.3977784817466
  0
POINT
  5
3B
330
32
100
AcDbEntity
  8
DEFPOINTS
 62
     0
100
AcDbPoint
 10
19379.23217916889
 20
2424.864595962723
 30
182.3977784817466
  0
POINT
  5
3C
330
32
100
AcDbEntity
  8
DEFPOINTS
 62
     0
100
AcDbPoint
 10
19409.23217916889
 20
2424.864595962723
 30
0.0
  0
ENDBLK
  5
3E
330
32
100
AcDbEntity
  8
0
100
AcDbBlockEnd
  0
BLOCK
  5
4C
330
42
100
AcDbEntity
  8
0
100
AcDbBlockBegin
  2
*D2
 70
     1
 10
0.0
 20
0.0
 30
0.0
  3
*D2
  1

  0
LINE
  5
43
330
42
100
AcDbEntity
  8
MITAT
 62
     3
370
    -2
100
AcDbLine
 10
18447.19901000525
 20
2248.209069223598
 30
0.0
 11
18447.19901000525
 21
2217.584069223599
 31
0.0
  0
LINE
  5
44
330
42
100
AcDbEntity
  8
MITAT
 62
     3
370
    -2
100
AcDbLine
 10
19227.19901000525
 20
2248.209069223598
 30
0.0
 11
19227.19901000525
 21
2217.584069223599
 31
0.0
  0
LINE
  5
45
330
42
100
AcDbEntity
  8
MITAT
 62
     3
370
    -2
100
AcDbLine
 10
18517.19901000524
 20
2218.834069223599
 30
0.0
 11
19157.19901000525
 21
2218.834069223599
 31
0.0
  0
INSERT
  5
46
330
42
100
AcDbEntity
  8
MITAT
 62
     3
370
    -2
100
AcDbBlockReference
  2
_OPEN
 10
18447.19901000525
 20
2218.834069223599
 30
0.0
 41
70.0
 42
70.0
 43
70.0
 50
180.0
  0
INSERT
  5
47
330
42
100
AcDbEntity
  8
MITAT
 62
     3
370
    -2
100
AcDbBlockReference
  2
_OPEN
 10
19227.19901000525
 20
2218.834069223599
 30
0.0
 41
70.0
 42
70.0
 43
70.0
  0
MTEXT
  5
48
330
42
100
AcDbEntity
  8
MITAT
 62
     5
100
AcDbMText
 10
18837.19901000524
 20
2275.14591330156
 30
0.0
 40
70.0
 41
0.0
 71
     5
 72
     1
  1
\A1;780
  7
KUVASTO
 73
     1
 44
1.0
  0
POINT
  5
49
330
42
100
AcDbEntity
  8
DEFPOINTS
 62
     0
100
AcDbPoint
 10
18447.19901000525
 20
2248.834069223601
 30
0.0
  0
POINT
  5
4A
330
42
100
AcDbEntity
  8
DEFPOINTS
 62
     0
100
AcDbPoint
 10
19227.19901000525
 20
2248.834069223601
 30
0.0
  0
POINT
  5
4B
330
42
100
AcDbEntity
  8
DEFPOINTS
 62
     0
100
AcDbPoint
 10
19227.19901000525
 20
2218.834069223599
 30
0.0
  0
ENDBLK
  5
4D
330
42
100
AcDbEntity
  8
0
100
AcDbBlockEnd
  0
BLOCK
  5
5E
330
52
100
AcDbEntity
  8
0
100
AcDbBlockBegin
  2
*D3
 70
     1
 10
0.0
 20
0.0
 30
0.0
  3
*D3
  1

  0
LINE
  5
53
330
52
100
AcDbEntity
  8
MITAT
 62
     3
370
    -2
100
AcDbLine
 10
18447.19901000525
 20
2248.209069223598
 30
0.0
 11
18447.19901000525
 21
2217.584069223599
 31
0.0
  0
LINE
  5
54
330
52
100
AcDbEntity
  8
MITAT
 62
     3
370
    -2
100
AcDbLine
 10
18417.19901000525
 20
2248.209069223598
 30
0.0
 11
18417.19901000525
 21
2217.584069223599
 31
0.0
  0
LINE
  5
55
330
52
100
AcDbEntity
  8
MITAT
 62
     3
370
    -2
100
AcDbLine
 10
18517.19901000524
 20
2218.834069223599
 30
0.0
 11
18587.19901000524
 21
2218.834069223599
 31
0.0
  0
LINE
  5
56
330
52
100
AcDbEntity
  8
MITAT
 62
     3
370
    -2
100
AcDbLine
 10
18347.19901000525
 20
2218.834069223599
 30
0.0
 11
18125.63978961544
 21
2218.834069223599
 31
0.0
  0
LINE
  5
57
330
52
100
AcDbEntity
  8
MITAT
 62
     3
370
    -2
100
AcDbLine
 10
18447.19901000525
 20
2218.834069223599
 30
0.0
 11
18417.19901000525
 21
2218.834069223599
 31
0.0
  0
INSERT
  5
58
330
52
100
AcDbEntity
  8
MITAT
 62
     3
370
    -2
100
AcDbBlockReference
  2
_OPEN
 10
18447.19901000525
 20
2218.834069223599
 30
0.0
 41
70.0
 42
70.0
 43
70.0
 50
180.0
  0
INSERT
  5
59
330
52
100
AcDbEntity
  8
MITAT
 62
     3
370
    -2
100
AcDbBlockReference
  2
_OPEN
 10
18417.19901000525
 20
2218.834069223599
 30
0.0
 41
70.0
 42
70.0
 43
70.0
  0
MTEXT
  5
5A
330
52
100
AcDbEntity
  8
MITAT
 62
     5
100
AcDbMText
 10
18201.41939981034
 20
2275.14591330156
 30
0.0
 40
70.0
 41
0.0
 71
     5
 72
     1
  1
\A1;30
  7
KUVASTO
 73
     1
 44
1.0
  0
POINT
  5
5B
330
52
100
AcDbEntity
  8
DEFPOINTS
 62
     0
100
AcDbPoint
 10
18447.19901000525
 20
2248.834069223601
 30
0.0
  0
POINT
  5
5C
330
52
100
AcDbEntity
  8
DEFPOINTS
 62
     0
100
AcDbPoint
 10
18417.19901000525
 20
2248.834069223601
 30
0.0
  0
POINT
  5
5D
330
52
100
AcDbEntity
  8
DEFPOINTS
 62
     0
100
AcDbPoint
 10
18417.19901000525
 20
2218.834069223599
 30
0.0
  0
ENDBLK
  5
5F
330
52
100
AcDbEntity
  8
0
100
AcDbBlockEnd
  0
BLOCK
  5
6E
330
62
100
AcDbEntity
  8
0
100
AcDbBlockBegin
  2
*D4
 70
     1
 10
0.0
 20
0.0
 30
0.0
  3
*D4
  1

  0
LINE
  5
63
330
62
100
AcDbEntity
  8
MITAT
 62
     3
370
    -2
100
AcDbLine
 10
19227.19901000525
 20
2248.209069223598
 30
0.0
 11
19227.19901000525
 21
2217.584069223599
 31
0.0
  0
LINE
  5
64
330
62
100
AcDbEntity
  8
MITAT
 62
     3
370
    -2
100
AcDbLine
 10
19257.19901000524
 20
2248.209069223598
 30
0.0
 11
19257.19901000524
 21
2217.584069223599
 31
0.0
  0
LINE
  5
65
330
62
100
AcDbEntity
  8
MITAT
 62
     3
370
    -2
100
AcDbLine
 10
19157.19901000525
 20
2218.834069223599
 30
0.0
 11
19087.19901000525
 21
2218.834069223599
 31
0.0
  0
LINE
  5
66
330
62
100
AcDbEntity
  8
MITAT
 62
     3
370
    -2
100
AcDbLine
 10
19327.19901000525
 20
2218.834069223599
 30
0.0
 11
19548.75823039507
 21
2218.834069223599
 31
0.0
  0
LINE
  5
67
330
62
100
AcDbEntity
  8
MITAT
 62
     3
370
    -2
100
AcDbLine
 10
19227.19901000525
 20
2218.834069223599
 30
0.0
 11
19257.19901000524
 21
2218.834069223599
 31
0.0
  0
INSERT
  5
68
330
62
100
AcDbEntity
  8
MITAT
 62
     3
370
    -2
100
AcDbBlockReference
  2
_OPEN
 10
19227.19901000525
 20
2218.834069223599
 30
0.0
 41
70.0
 42
70.0
 43
70.0
  0
INSERT
  5
69
330
62
100
AcDbEntity
  8
MITAT
 62
     3
370
    -2
100
AcDbBlockReference
  2
_OPEN
 10
19257.19901000524
 20
2218.834069223599
 30
0.0
 41
70.0
 42
70.0
 43
70.0
 50
180.0
  0
MTEXT
  5
6A
330
62
100
AcDbEntity
  8
MITAT
 62
     5
100
AcDbMText
 10
19472.97862020016
 20
2275.14591330156
 30
0.0
 40
70.0
 41
0.0
 71
     5
 72
     1
  1
\A1;30
  7
KUVASTO
 73
     1
 44
1.0
  0
POINT
  5
6B
330
62
100
AcDbEntity
  8
DEFPOINTS
 62
     0
100
AcDbPoint
 10
19227.19901000525
 20
2248.834069223599
 30
0.0
  0
POINT
  5
6C
330
62
100
AcDbEntity
  8
DEFPOINTS
 62
     0
100
AcDbPoint
 10
19257.19901000524
 20
2248.834069223599
 30
0.0
  0
POINT
  5
6D
330
62
100
AcDbEntity
  8
DEFPOINTS
 62
     0
100
AcDbPoint
 10
19257.19901000524
 20
2218.834069223599
 30
0.0
  0
ENDBLK
  5
6F
330
62
100
AcDbEntity
  8
0
100
AcDbBlockEnd
  0
ENDSEC
  0
SECTION
  2
ENTITIES
  0
LWPOLYLINE
  5
2C
330
2
100
AcDbEntity
  8
MAINOS
100
AcDbPolyline
 90
       10
 70
     1
 43
0.0
 10
19094.63251220095
 20
2597.364595962707
 10
19094.63251220094
 20
2785.691977066929
 10
19086.57794868357
 20
2805.137413549557
 10
19049.90532978781
 20
2841.810032445334
 10
19039.63251220095
 20
2848.289739406716
 10
19039.63251220095
 20
2597.364595962707
 10
19047.68707571831
 20
2577.919159480073
 10
19067.13251220095
 20
2569.864595962704
 10
19086.57794868357
 20
2577.919159480073
 10
19094.63251220095
 20
2597.364595962707
  0
LWPOLYLINE
  5
2D
330
2
100
AcDbEntity
  8
MAINOS
100
AcDbPolyline
 90
       10
 70
     1
 43
0.0
 10
18579.63251220094
 20
2597.364595962707
 10
18579.63251220094
 20
2785.691977066929
 10
18587.68707571831
 20
2805.137413549557
 10
18624.35969461407
 20
2841.810032445334
 10
18634.63251220095
 20
2848.289739406716
 10
18634.6325122009
 20
2597.364595962707
 10
18626.57794868354
 20
2577.919159480073
 10
18607.13251220093
 20
2569.864595962704
 10
18587.68707571828
 20
2577.919159480073
 10
18579.63251220094
 20
2597.364595962707
  0
LWPOLYLINE
  5
2E
330
2
100
AcDbEntity
  8
0
100
AcDbPolyline
 90
       14
 70
     1
 43
0.0
 10
19024.63251220095
 20
2499.864595962703
 10
19101.63251220095
 20
2499.864595962703
 10
19149.63251220095
 20
2547.86459596271
 10
19149.63251220092
 20
2819.864595962707
 10
19049.63251220095
 20
2919.864595962703
 10
18624.6325122009
 20
2919.864595962703
 10
18524.63251220092
 20
2819.8645959627
 10
18524.63251220095
 20
2547.864595962698
 10
18572.63251220095
 20
2499.8645959627
 10
18649.63251220095
 20
2499.864595962701
 10
18689.63251220095
 20
2589.864595962704
 10
18689.63251220093
 20
2849.864595962712
 10
18984.63251220095
 20
2849.864595962708
 10
18984.63251220095
 20
2589.864595962712
  0
LWPOLYLINE
  5
2F
330
2
100
AcDbEntity
  8
MAINOS
100
AcDbPolyline
 90
       23
 70
     0
 43
0.0
 10
18626.42203941134
 20
2424.864595962723
 10
19047.06601439978
 20
2424.864595962723
 10
19047.06601439978
 20
2484.864595962724
 10
19107.19901000525
 20
2484.864595962724
 10
19107.19901000525
 20
2484.864595962723
 10
19167.19901000525
 20
2484.864595962723
 10
19167.19901000525
 20
2899.864595962725
 10
19167.19901000525
 20
2899.864595962725
 10
19167.19901000525
 20
2934.864595962723
 10
19137.19901000525
 20
2934.864595962723
 10
19107.19901000525
 20
2934.864595962723
 10
19107.19901000525
 20
2934.864595962723
 10
18567.19901000525
 20
2934.864595962723
 10
18567.19901000525
 20
2934.864595962723
 10
18537.19901000527
 20
2934.864595962723
 10
18507.19901000525
 20
2934.864595962723
 10
18507.19901000525
 20
2899.864595962725
 10
18507.19901000525
 20
2899.864595962725
 10
18507.19901000525
 20
2484.864595962723
 10
18566.71819759529
 20
2484.864595962723
 10
18566.71819759529
 20
2484.864595962724
 10
18626.42203941134
 20
2484.864595962724
 10
18626.42203941134
 20
2424.864595962723
  0
DIMENSION
  5
30
330
2
100
AcDbEntity
  8
MITAT
100
AcDbDimension
  2
*D1
 10
19409.23217916889
 20
2424.864595962723
 30
-182.3977784817466
 11
19352.92033509093
 21
2709.864595962726
 31
-182.3977784817466
 71
     5
 42
570.0000000000008
  3
STANDARD
100
AcDbAlignedDimension
 13
19379.23217916889
 23
2994.864595962724
 33
0.0
 14
19379.23217916889
 24
2424.864595962723
 34
0.0
 50
90.0
100
AcDbRotatedDimension
1001
ACAD
1000
DSTYLE
1002
{
1070
    40
1040
1.0
1002
}
  0
LWPOLYLINE
  5
3F
330
2
100
AcDbEntity
  8
HORMILIITOS
100
AcDbPolyline
 90
        4
 70
     0
 43
0.0
 10
19257.19901000524
 20
2514.864595962723
 10
19257.19901000524
 20
3024.864595962723
 10
18417.19901000525
 20
3024.864595962723
 10
18417.19901000525
 20
2514.864595962723
  0
DIMENSION
  5
41
330
2
100
AcDbEntity
  8
MITAT
100
AcDbDimension
  2
*D2
 10
19227.19901000525
 20
2218.834069223599
 30
0.0
 11
18837.19901000524
 21
2275.14591330156
 31
0.0
 71
     5
 42
780.0
  3
STANDARD
100
AcDbAlignedDimension
 13
18447.19901000525
 23
2248.834069223601
 33
0.0
 14
19227.19901000525
 24
2248.834069223601
 34
0.0
100
AcDbRotatedDimension
1001
ACAD
1000
DSTYLE
1002
{
1070
    40
1040
1.0
1002
}
  0
LWPOLYLINE
  5
4E
330
2
100
AcDbEntity
  8
0
 62
     7
100
AcDbPolyline
 90
       14
 70
     0
 43
0.0
 10
18597.13251220254
 20
2424.864595962723
 10
18597.13251220254
 20
2399.864595962724
 10
18597.13251220254
 20
2399.864595962724
 10
18597.13251220254
 20
2369.864595962722
 42
0.4142135623730951
 10
18607.13251220254
 20
2359.864595962721
 10
18607.13251220254
 20
2359.864595962721
 42
0.4142135623730418
 10
18617.13251220254
 20
2369.864595962722
 10
18617.13251220254
 20
2399.864595962724
 10
18808.05959679964
 20
2399.864595962724
 10
18808.05959679964
 20
2389.864595962725
 42
0.3333333333333333
 10
18868.05959679964
 20
2389.864595962722
 10
18868.05959679964
 20
2399.864595962724
 10
19067.13251220254
 20
2399.864595962724
 10
19067.13251220254
 20
2424.898542707495
  0
LWPOLYLINE
  5
4F
330
2
100
AcDbEntity
  8
LUUKUN-AUKKO
100
AcDbPolyline
 90
        2
 70
     0
 43
0.0
 10
18627.19901000525
 20
2484.864595962724
 10
19047.06601439978
 20
2484.864595962724
  0
DIMENSION
  5
51
330
2
100
AcDbEntity
  8
MITAT
100
AcDbDimension
  2
*D3
 10
18417.19901000525
 20
2218.834069223599
 30
0.0
 11
18201.41939981034
 21
2275.14591330156
 31
0.0
 71
     5
 42
30.0
  3
STANDARD
100
AcDbAlignedDimension
 13
18447.19901000525
 23
2248.834069223601
 33
0.0
 14
18417.19901000525
 24
2248.834069223601
 34
0.0
100
AcDbRotatedDimension
1001
ACAD
1000
DSTYLE
1002
{
1070
    40
1040
1.0
1002
}
  0
LWPOLYLINE
  5
60
330
2
100
AcDbEntity
  8
LUUKUN-AUKKO
100
AcDbPolyline
 90
        2
 70
     0
 43
0.0
 10
18627.19901000525
 20
2484.864595962724
 10
18626.42203941134
 20
2484.864595962724
  0
DIMENSION
  5
61
330
2
100
AcDbEntity
  8
MITAT
100
AcDbDimension
  2
*D4
 10
19257.19901000524
 20
2218.834069223599
 30
0.0
 11
19472.97862020016
 21
2275.14591330156
 31
0.0
 71
     5
 42
30.0
  3
STANDARD
100
AcDbAlignedDimension
 13
19227.19901000525
 23
2248.834069223599
 33
0.0
 14
19257.19901000524
 24
2248.834069223599
 34
0.0
100
AcDbRotatedDimension
1001
ACAD
1000
DSTYLE
1002
{
1070
    40
1040
1.0
1002
}
  0
LINE
  5
70
330
2
100
AcDbEntity
  8
0
  6
ByBlock
 62
     3
100
AcDbLine
 10
19409.23217916889
 20
3164.864595962724
 30
-182.3977784817466
 11
19409.23217916889
 21
3278.838584402031
 31
-182.3977784817466
  0
MTEXT
  5
71
330
2
100
AcDbEntity
  8
MITAT
  6
ByBlock
 62
     5
100
AcDbMText
 10
19351.32394217465
 20
3231.851590182378
 30
-182.3977784817466
 40
70.0
 41
0.0
 71
     5
 72
     1
  1
\A1;30
  7
KUVASTO
 11
0.0000000000000001
 21
1.0
 31
0.0
 73
     1
 44
1.0
  0
INSERT
  5
72
330
2
100
AcDbEntity
  8
0
  6
ByBlock
 62
     3
100
AcDbBlockReference
  2
_OPEN
 10
19409.23217916889
 20
2994.864595962724
 30
-182.3977784817466
 41
70.0
 42
70.0
 43
70.0
 50
90.0
  0
INSERT
  5
73
330
2
100
AcDbEntity
  8
MITAT
  6
ByBlock
 62
     3
100
AcDbBlockReference
  2
_OPEN
 10
19409.23217916889
 20
3024.864595962723
 30
-182.3977784817466
 41
70.0
 42
70.0
 43
70.0
 50
270.0
  0
LINE
  5
74
330
2
100
AcDbEntity
  8
0
  6
ByBlock
 62
     3
100
AcDbLine
 10
19409.23217916889
 20
2994.864595962724
 30
-182.3977784817466
 11
19409.23217916889
 21
3024.864595962723
 31
-182.3977784817466
  0
LINE
  5
75
330
2
100
AcDbEntity
  8
0
  6
ByBlock
 62
     3
100
AcDbLine
 10
19379.85717916889
 20
2994.864595962724
 30
-182.3977784817466
 11
19410.48217916889
 21
2994.864595962724
 31
-182.3977784817466
  0
POINT
  5
76
330
2
100
AcDbEntity
  8
DEFPOINTS
  6
ByBlock
 62
     0
100
AcDbPoint
 10
19409.23217916889
 20
3024.864595962723
 30
-182.3977784817466
  0
LINE
  5
77
330
2
100
AcDbEntity
  8
MITAT
  6
ByBlock
 62
     3
100
AcDbLine
 10
19379.85717916889
 20
3024.864595962723
 30
-182.3977784817466
 11
19410.48217916889
 21
3024.864595962723
 31
-182.3977784817466
  0
LINE
  5
78
330
2
100
AcDbEntity
  8
0
  6
ByBlock
 62
     3
100
AcDbLine
 10
19409.23217916889
 20
3094.864595962723
 30
-182.3977784817466
 11
19409.23217916889
 21
3164.864595962724
 31
-182.3977784817466
  0
POINT
  5
79
330
2
100
AcDbEntity
  8
DEFPOINTS
  6
ByBlock
 62
     0
100
AcDbPoint
 10
19379.23217916889
 20
2994.864595962724
 30
0.0
  0
POINT
  5
7A
330
2
100
AcDbEntity
  8
DEFPOINTS
  6
ByBlock
 62
     0
100
AcDbPoint
 10
19379.23217916889
 20
3024.864595962723
 30
0.0
  0
LWPOLYLINE
  5
7B
330
2
100
AcDbEntity
  8
MAINOS
100
AcDbPolyline
 90
        7
 70
     0
 43
0.0
 38
450.0700073242184
 10
19067.13251220254
 20
2424.898542707495
 10
19137.19901000525
 20
2424.864595962723
 10
19227.19901000525
 20
2424.864595962723
 10
19227.19901000525
 20
2994.864595962724
 10
18447.19901000525
 20
2994.864595962724
 10
18447.19901000525
 20
2424.864595962723
 10
18597.13251220254
 20
2424.864595962723
  0
ENDSEC
  0
SECTION
  2
OBJECTS
  0
DICTIONARY
  5
7
330
0
100
AcDbDictionary
281
     1
  3
ACAD_GROUP
350
27
  3
ACAD_LAYOUT
350
B
  3
ACAD_MLINESTYLE
350
28
  3
ACAD_PLOTSETTINGS
350
29
  3
ACAD_PLOTSTYLENAME
350
6
  3
AcDbVariableDictionary
350
7D
  0
DICTIONARY
  5
27
102
{ACAD_REACTORS
330
7
102
}
330
7
100
AcDbDictionary
281
     1
  0
DICTIONARY
  5
B
102
{ACAD_REACTORS
330
7
102
}
330
7
100
AcDbDictionary
281
     1
  3
Layout1
350
F
  3
Model
350
A
  0
DICTIONARY
  5
28
102
{ACAD_REACTORS
330
7
102
}
330
7
100
AcDbDictionary
281
     1
  3
STANDARD
350
2B
  0
DICTIONARY
  5
29
102
{ACAD_REACTORS
330
7
102
}
330
7
100
AcDbDictionary
281
     1
  0
ACDBDICTIONARYWDFLT
  5
6
102
{ACAD_REACTORS
330
7
102
}
330
7
100
AcDbDictionary
281
     1
  3
Normal
350
5
100
AcDbDictionaryWithDefault
340
5
  0
DICTIONARY
  5
7D
102
{ACAD_REACTORS
330
7
102
}
330
7
100
AcDbDictionary
281
     1
  3
DIMASSOC
350
7F
  3
HIDETEXT
350
7E
  0
LAYOUT
  5
F
102
{ACAD_REACTORS
330
B
102
}
330
B
100
AcDbPlotSettings
  1

  2
\\NUUTJARI\MKASPLA1
  4

  6

 40
0.0
 41
0.0
 42
0.0
 43
0.0
 44
0.0
 45
0.0
 46
0.0
 47
0.0
 48
0.0
 49
0.0
140
0.0
141
0.0
142
1.0
143
1.0
 70
   688
 72
     0
 73
     0
 74
     5
  7

 75
    16
147
1.0
148
0.0
149
0.0
100
AcDbLayout
  1
Layout1
 70
     1
 71
     1
 10
0.0
 20
0.0
 11
420.0
 21
297.0
 12
0.0
 22
0.0
 32
0.0
 14
1.000000000000000E+20
 24
1.000000000000000E+20
 34
1.000000000000000E+20
 15
-1.000000000000000E+20
 25
-1.000000000000000E+20
 35
-1.000000000000000E+20
146
0.0
 13
0.0
 23
0.0
 33
0.0
 16
1.0
 26
0.0
 36
0.0
 17
0.0
 27
1.0
 37
0.0
 76
     0
330
C
  0
LAYOUT
  5
A
102
{ACAD_REACTORS
330
B
102
}
330
B
100
AcDbPlotSettings
  1

  2
Amyuni PDF Converter
  4
A4
  6
OLE1
 40
6.720416999999997
 41
6.805095999999998
 42
6.889755
 43
6.720428
 44
209.9733279999999
 45
296.925995
 46
14.22
 47
78.01000000000001
 48
17969.48500824714
 49
2063.712731928791
140
19648.64176378618
141
3337.596789119263
142
1.0
143
10.0
 70
 11956
 72
     1
 73
     0
 74
     4
  7
monochrome.ctb
 75
    20
147
0.1
148
-17969.48500824714
149
-2063.712731928791
100
AcDbLayout
  1
Model
 70
     1
 71
     0
 10
0.0
 20
0.0
 11
12.0
 21
9.0
 12
0.0
 22
0.0
 32
0.0
 14
0.0
 24
0.0
 34
0.0
 15
0.0
 25
0.0
 35
0.0
146
0.0
 13
0.0
 23
0.0
 33
0.0
 16
1.0
 26
0.0
 36
0.0
 17
0.0
 27
1.0
 37
0.0
 76
     0
330
2
  0
MLINESTYLE
  5
2B
102
{ACAD_REACTORS
330
28
102
}
330
28
100
AcDbMlineStyle
  2
STANDARD
 70
     0
  3

 62
   256
 51
90.0
 52
90.0
 71
     2
 49
0.5
 62
   256
  6
BYLAYER
 49
-0.5
 62
   256
  6
BYLAYER
  0
ACDBPLACEHOLDER
  5
5
102
{ACAD_REACTORS
330
6
102
}
330
6
  0
DICTIONARYVAR
  5
7F
102
{ACAD_REACTORS
330
7D
102
}
330
7D
100
DictionaryVariables
280
     0
  1
1
  0
DICTIONARYVAR
  5
7E
102
{ACAD_REACTORS
330
7D
102
}
330
7D
100
DictionaryVariables
280
     0
  1
1
  0
ENDSEC
  0
EOF
