  0
SECTION
  2
HEADER
  9
$ACADVER
  1
AC1015
  9
$ACADMAINTVER
 70
    14
  9
$DWGCODEPAGE
  3
ANSI_1252
  9
$INSBASE
 10
0.0
 20
0.0
 30
0.0
  9
$EXTMIN
 10
4440.760575254395
 20
1675.161849999907
 30
0.0
  9
$EXTMAX
 10
6140.040693717324
 20
2611.918087401809
 30
0.0
  9
$LIMMIN
 10
0.0
 20
0.0
  9
$LIMMAX
 10
420.0
 20
297.0
  9
$ORTHOMODE
 70
     1
  9
$REGENMODE
 70
     1
  9
$FILLMODE
 70
     1
  9
$QTEXTMODE
 70
     0
  9
$MIRRTEXT
 70
     1
  9
$LTSCALE
 40
50.0
  9
$ATTMODE
 70
     1
  9
$TEXTSIZE
 40
70.0
  9
$TRACEWID
 40
1.0
  9
$TEXTSTYLE
  7
KUVASTO
  9
$CLAYER
  8
MAINOS
  9
$CELTYPE
  6
BYLAYER
  9
$CECOLOR
 62
   256
  9
$CELTSCALE
 40
1.0
  9
$DISPSILH
 70
     1
  9
$DIMSCALE
 40
0.0
  9
$DIMASZ
 40
70.0
  9
$DIMEXO
 40
0.625
  9
$DIMDLI
 40
3.75
  9
$DIMRND
 40
0.0
  9
$DIMDLE
 40
0.0
  9
$DIMEXE
 40
1.25
  9
$DIMTP
 40
0.0
  9
$DIMTM
 40
0.0
  9
$DIMTXT
 40
60.0
  9
$DIMCEN
 40
2.5
  9
$DIMTSZ
 40
0.0
  9
$DIMTOL
 70
     0
  9
$DIMLIM
 70
     0
  9
$DIMTIH
 70
     0
  9
$DIMTOH
 70
     1
  9
$DIMSE1
 70
     0
  9
$DIMSE2
 70
     0
  9
$DIMTAD
 70
     1
  9
$DIMZIN
 70
     8
  9
$DIMBLK
  1

  9
$DIMASO
 70
     1
  9
$DIMSHO
 70
     1
  9
$DIMPOST
  1

  9
$DIMAPOST
  1

  9
$DIMALT
 70
     0
  9
$DIMALTD
 70
     4
  9
$DIMALTF
 40
0.0394
  9
$DIMLFAC
 40
1.0
  9
$DIMTOFL
 70
     1
  9
$DIMTVP
 40
0.0
  9
$DIMTIX
 70
     0
  9
$DIMSOXD
 70
     0
  9
$DIMSAH
 70
     1
  9
$DIMBLK1
  1
OPEN
  9
$DIMBLK2
  1
OPEN
  9
$DIMSTYLE
  2
STANDARD
  9
$DIMCLRD
 70
     3
  9
$DIMCLRE
 70
     3
  9
$DIMCLRT
 70
     5
  9
$DIMTFAC
 40
1.0
  9
$DIMGAP
 40
20.0
  9
$DIMJUST
 70
     0
  9
$DIMSD1
 70
     0
  9
$DIMSD2
 70
     0
  9
$DIMTOLJ
 70
     1
  9
$DIMTZIN
 70
     0
  9
$DIMALTZ
 70
     0
  9
$DIMALTTZ
 70
     0
  9
$DIMUPT
 70
     0
  9
$DIMDEC
 70
     4
  9
$DIMTDEC
 70
     4
  9
$DIMALTU
 70
     8
  9
$DIMALTTD
 70
     4
  9
$DIMTXSTY
  7
KUVASTO
  9
$DIMAUNIT
 70
     0
  9
$DIMADEC
 70
     0
  9
$DIMALTRND
 40
0.0
  9
$DIMAZIN
 70
     0
  9
$DIMDSEP
 70
    46
  9
$DIMATFIT
 70
     3
  9
$DIMFRAC
 70
     0
  9
$DIMLDRBLK
  1
OPEN
  9
$DIMLUNIT
 70
     6
  9
$DIMLWD
 70
    -2
  9
$DIMLWE
 70
    -2
  9
$DIMTMOVE
 70
     0
  9
$LUNITS
 70
     2
  9
$LUPREC
 70
     4
  9
$SKETCHINC
 40
1.0
  9
$FILLETRAD
 40
0.0
  9
$AUNITS
 70
     0
  9
$AUPREC
 70
     0
  9
$MENU
  1
.
  9
$ELEVATION
 40
0.0
  9
$PELEVATION
 40
0.0
  9
$THICKNESS
 40
0.0
  9
$LIMCHECK
 70
     0
  9
$CHAMFERA
 40
10.0
  9
$CHAMFERB
 40
10.0
  9
$CHAMFERC
 40
20.0
  9
$CHAMFERD
 40
0.0
  9
$SKPOLY
 70
     0
  9
$TDCREATE
 40
2452044.392230162
  9
$TDUCREATE
 40
2452044.267230162
  9
$TDUPDATE
 40
2453830.399580972
  9
$TDUUPDATE
 40
2453830.274580972
  9
$TDINDWG
 40
0.6107364005
  9
$TDUSRTIMER
 40
0.6107358565
  9
$USRTIMER
 70
     1
  9
$ANGBASE
 50
0.0
  9
$ANGDIR
 70
     0
  9
$PDMODE
 70
     0
  9
$PDSIZE
 40
0.0
  9
$PLINEWID
 40
0.0
  9
$SPLFRAME
 70
     0
  9
$SPLINETYPE
 70
     6
  9
$SPLINESEGS
 70
     8
  9
$HANDSEED
  5
A0
  9
$SURFTAB1
 70
     6
  9
$SURFTAB2
 70
     6
  9
$SURFTYPE
 70
     6
  9
$SURFU
 70
     6
  9
$SURFV
 70
     6
  9
$UCSBASE
  2

  9
$UCSNAME
  2

  9
$UCSORG
 10
0.0
 20
0.0
 30
0.0
  9
$UCSXDIR
 10
1.0
 20
0.0
 30
0.0
  9
$UCSYDIR
 10
0.0
 20
1.0
 30
0.0
  9
$UCSORTHOREF
  2

  9
$UCSORTHOVIEW
 70
     0
  9
$UCSORGTOP
 10
0.0
 20
0.0
 30
0.0
  9
$UCSORGBOTTOM
 10
0.0
 20
0.0
 30
0.0
  9
$UCSORGLEFT
 10
0.0
 20
0.0
 30
0.0
  9
$UCSORGRIGHT
 10
0.0
 20
0.0
 30
0.0
  9
$UCSORGFRONT
 10
0.0
 20
0.0
 30
0.0
  9
$UCSORGBACK
 10
0.0
 20
0.0
 30
0.0
  9
$PUCSBASE
  2

  9
$PUCSNAME
  2

  9
$PUCSORG
 10
0.0
 20
0.0
 30
0.0
  9
$PUCSXDIR
 10
1.0
 20
0.0
 30
0.0
  9
$PUCSYDIR
 10
0.0
 20
1.0
 30
0.0
  9
$PUCSORTHOREF
  2

  9
$PUCSORTHOVIEW
 70
     0
  9
$PUCSORGTOP
 10
0.0
 20
0.0
 30
0.0
  9
$PUCSORGBOTTOM
 10
0.0
 20
0.0
 30
0.0
  9
$PUCSORGLEFT
 10
0.0
 20
0.0
 30
0.0
  9
$PUCSORGRIGHT
 10
0.0
 20
0.0
 30
0.0
  9
$PUCSORGFRONT
 10
0.0
 20
0.0
 30
0.0
  9
$PUCSORGBACK
 10
0.0
 20
0.0
 30
0.0
  9
$USERI1
 70
     0
  9
$USERI2
 70
     0
  9
$USERI3
 70
     0
  9
$USERI4
 70
     0
  9
$USERI5
 70
     0
  9
$USERR1
 40
0.0
  9
$USERR2
 40
0.0
  9
$USERR3
 40
0.0
  9
$USERR4
 40
0.0
  9
$USERR5
 40
0.0
  9
$WORLDVIEW
 70
     1
  9
$SHADEDGE
 70
     3
  9
$SHADEDIF
 70
    70
  9
$TILEMODE
 70
     1
  9
$MAXACTVP
 70
    48
  9
$PINSBASE
 10
0.0
 20
0.0
 30
0.0
  9
$PLIMCHECK
 70
     0
  9
$PEXTMIN
 10
1.000000000000000E+20
 20
1.000000000000000E+20
 30
1.000000000000000E+20
  9
$PEXTMAX
 10
-1.000000000000000E+20
 20
-1.000000000000000E+20
 30
-1.000000000000000E+20
  9
$PLIMMIN
 10
0.0
 20
0.0
  9
$PLIMMAX
 10
420.0
 20
297.0
  9
$UNITMODE
 70
     0
  9
$VISRETAIN
 70
     1
  9
$PLINEGEN
 70
     0
  9
$PSLTSCALE
 70
     1
  9
$TREEDEPTH
 70
  3020
  9
$CMLSTYLE
  2
STANDARD
  9
$CMLJUST
 70
     0
  9
$CMLSCALE
 40
20.0
  9
$PROXYGRAPHICS
 70
     1
  9
$MEASUREMENT
 70
     1
  9
$CELWEIGHT
370
    -1
  9
$ENDCAPS
280
     0
  9
$JOINSTYLE
280
     0
  9
$LWDISPLAY
290
     0
  9
$INSUNITS
 70
     0
  9
$HYPERLINKBASE
  1

  9
$STYLESHEET
  1

  9
$XEDIT
290
     1
  9
$CEPSNTYPE
380
     0
  9
$PSTYLEMODE
290
     1
  9
$FINGERPRINTGUID
  2
{DFB77EDF-71BF-4C3F-AE2E-ECE0062F40CF}
  9
$VERSIONGUID
  2
{7133C6A9-4A9A-4A0F-9BC8-953A9896C91D}
  9
$EXTNAMES
290
     1
  9
$PSVPSCALE
 40
0.0
  9
$OLESTARTUP
290
     0
  0
ENDSEC
  0
SECTION
  2
CLASSES
  0
CLASS
  1
LWPOLYLINE
  2
AcDbPolyline
  3
AutoCAD 2000
 90
    32768
280
     0
281
     1
  0
CLASS
  1
DICTIONARYVAR
  2
AcDbDictionaryVar
  3
AutoCAD 2000
 90
        0
280
     0
281
     0
  0
CLASS
  1
HATCH
  2
AcDbHatch
  3
AutoCAD 2000
 90
    32768
280
     0
281
     1
  0
CLASS
  1
ACDBDICTIONARYWDFLT
  2
AcDbDictionaryWithDefault
  3
AutoCAD 2000
 90
        0
280
     0
281
     0
  0
CLASS
  1
ACDBPLACEHOLDER
  2
AcDbPlaceHolder
  3
AutoCAD 2000
 90
        0
280
     0
281
     0
  0
CLASS
  1
LAYOUT
  2
AcDbLayout
  3
AutoCAD 2000
 90
        0
280
     0
281
     0
  0
ENDSEC
  0
SECTION
  2
TABLES
  0
TABLE
  2
VPORT
  5
1A
330
0
100
AcDbSymbolTable
 70
     2
  0
VPORT
  5
9F
330
1A
100
AcDbSymbolTableRecord
100
AcDbViewportTableRecord
  2
*Active
 70
     0
 10
0.0
 20
0.0
 11
1.0
 21
1.0
 12
5290.342100975684
 22
2143.505721392491
 13
0.0
 23
0.0
 14
10.0
 24
10.0
 15
10.0
 25
10.0
 16
0.0
 26
-0.0000000000000001
 36
0.9999999999999998
 17
0.0
 27
0.0
 37
0.0
 40
945.362560890955
 41
2.076119402985074
 42
50.0
 43
0.0
 44
0.0
 50
0.0
 51
0.0
 71
     0
 72
 20000
 73
     1
 74
     1
 75
     0
 76
     0
 77
     0
 78
     0
281
     0
 65
     1
110
0.0
120
0.0
130
0.0
111
1.0
121
0.0
131
0.0
112
0.0
122
1.0
132
0.0
 79
     0
146
0.0
  0
ENDTAB
  0
TABLE
  2
LTYPE
  5
15
330
0
100
AcDbSymbolTable
 70
     2
  0
LTYPE
  5
16
330
15
100
AcDbSymbolTableRecord
100
AcDbLinetypeTableRecord
  2
BYBLOCK
 70
     0
  3

 72
    65
 73
     0
 40
0.0
  0
LTYPE
  5
17
330
15
100
AcDbSymbolTableRecord
100
AcDbLinetypeTableRecord
  2
BYLAYER
 70
     0
  3

 72
    65
 73
     0
 40
0.0
  0
LTYPE
  5
8
330
15
100
AcDbSymbolTableRecord
100
AcDbLinetypeTableRecord
  2
CONTINUOUS
 70
     0
  3
Solid line
 72
    65
 73
     0
 40
0.0
  0
LTYPE
  5
76
330
15
100
AcDbSymbolTableRecord
100
AcDbLinetypeTableRecord
  2
DASHED
 70
     0
  3
Dashed __ __ __ __ __ __ __ __ __ __ __ __ __ _
 72
    65
 73
     2
 40
0.75
 49
0.5
 74
     0
 49
-0.25
 74
     0
  0
ENDTAB
  0
TABLE
  2
LAYER
  5
10
330
0
100
AcDbSymbolTable
 70
     3
  0
LAYER
  5
4
330
10
100
AcDbSymbolTableRecord
100
AcDbLayerTableRecord
  2
0
 70
     0
 62
     7
  6
CONTINUOUS
370
    -3
390
5
  0
LAYER
  5
2A
330
10
100
AcDbSymbolTableRecord
100
AcDbLayerTableRecord
  2
MAINOS
 70
     0
 62
     7
  6
CONTINUOUS
370
    -3
390
5
  0
LAYER
  5
3E
330
10
100
AcDbSymbolTableRecord
100
AcDbLayerTableRecord
  2
DEFPOINTS
 70
     0
 62
     7
  6
CONTINUOUS
290
     0
370
    -3
390
5
  0
ENDTAB
  0
TABLE
  2
STYLE
  5
11
330
0
100
AcDbSymbolTable
 70
     2
  0
STYLE
  5
12
330
11
100
AcDbSymbolTableRecord
100
AcDbTextStyleTableRecord
  2
STANDARD
 70
     0
 40
0.0
 41
1.0
 50
0.0
 71
     0
 42
2.5
  3

  4

1001
ACAD
1000
AGaramond
1071
 33554450
  0
STYLE
  5
1F
330
11
100
AcDbSymbolTableRecord
100
AcDbTextStyleTableRecord
  2
KUVASTO
 70
     0
 40
70.0
 41
1.0
 50
0.0
 71
     0
 42
70.0
  3
Foustbk_.ttf
  4

1001
ACAD
1000
FoundrySterling-Book
1071
        2
  0
ENDTAB
  0
TABLE
  2
VIEW
  5
18
330
0
100
AcDbSymbolTable
 70
     0
  0
ENDTAB
  0
TABLE
  2
UCS
  5
19
330
0
100
AcDbSymbolTable
 70
     0
  0
ENDTAB
  0
TABLE
  2
APPID
  5
1C
330
0
100
AcDbSymbolTable
 70
     1
  0
APPID
  5
13
330
1C
100
AcDbSymbolTableRecord
100
AcDbRegAppTableRecord
  2
ACAD
 70
     0
  0
ENDTAB
  0
TABLE
  2
DIMSTYLE
  5
1D
330
0
100
AcDbSymbolTable
 70
     1
100
AcDbDimStyleTable
 71
     1
340
1E
  0
DIMSTYLE
105
1E
102
{ACAD_REACTORS
330
35
330
52
330
43
102
}
330
1D
100
AcDbSymbolTableRecord
100
AcDbDimStyleTableRecord
  2
STANDARD
 70
     0
 40
0.0
 41
70.0
 42
0.625
 43
3.75
 44
1.25
 73
     0
 77
     1
 78
     8
140
60.0
141
2.5
143
0.0394
147
20.0
171
     4
172
     1
173
     1
176
     3
177
     3
178
     5
273
     8
274
     4
277
     6
340
1F
341
20
343
20
344
20
  0
ENDTAB
  0
TABLE
  2
BLOCK_RECORD
  5
1
330
0
100
AcDbSymbolTable
 70
     4
  0
BLOCK_RECORD
  5
2
330
1
100
AcDbSymbolTableRecord
100
AcDbBlockTableRecord
  2
*MODEL_SPACE
340
A
  0
BLOCK_RECORD
  5
C
330
1
100
AcDbSymbolTableRecord
100
AcDbBlockTableRecord
  2
*PAPER_SPACE
340
F
  0
BLOCK_RECORD
  5
20
330
1
100
AcDbSymbolTableRecord
100
AcDbBlockTableRecord
  2
_OPEN
340
0
102
{BLKREFS
331
78
331
7A
331
8B
331
8D
331
6E
331
62
331
48
331
49
331
3A
331
3B
331
57
331
58
102
}
  0
BLOCK_RECORD
  5
53
330
1
100
AcDbSymbolTableRecord
100
AcDbBlockTableRecord
  2
*D1
340
0
  0
BLOCK_RECORD
  5
36
330
1
100
AcDbSymbolTableRecord
100
AcDbBlockTableRecord
  2
*D2
340
0
  0
BLOCK_RECORD
  5
44
330
1
100
AcDbSymbolTableRecord
100
AcDbBlockTableRecord
  2
*D3
340
0
  0
ENDTAB
  0
ENDSEC
  0
SECTION
  2
BLOCKS
  0
BLOCK
  5
3
330
2
100
AcDbEntity
  8
0
100
AcDbBlockBegin
  2
*MODEL_SPACE
 70
     0
 10
0.0
 20
0.0
 30
0.0
  3
*MODEL_SPACE
  1

  0
ENDBLK
  5
9
330
2
100
AcDbEntity
  8
0
100
AcDbBlockEnd
  0
BLOCK
  5
D
330
C
100
AcDbEntity
 67
     1
  8
0
100
AcDbBlockBegin
  2
*PAPER_SPACE
 70
     0
 10
0.0
 20
0.0
 30
0.0
  3
*PAPER_SPACE
  1

  0
ENDBLK
  5
E
330
C
100
AcDbEntity
 67
     1
  8
0
100
AcDbBlockEnd
  0
BLOCK
  5
24
330
20
100
AcDbEntity
  8
0
100
AcDbBlockBegin
  2
_OPEN
 70
     0
 10
0.0
 20
0.0
 30
0.0
  3
_OPEN
  1

  0
LINE
  5
21
330
20
100
AcDbEntity
  8
0
  6
ByBlock
 62
     0
100
AcDbLine
 10
-1.0
 20
0.1666666666666666
 30
0.0
 11
0.0
 21
0.0
 31
0.0
  0
LINE
  5
22
330
20
100
AcDbEntity
  8
0
  6
ByBlock
 62
     0
100
AcDbLine
 10
0.0
 20
0.0
 30
0.0
 11
-1.0
 21
-0.1666666666666666
 31
0.0
  0
LINE
  5
23
330
20
100
AcDbEntity
  8
0
  6
ByBlock
 62
     0
100
AcDbLine
 10
0.0
 20
0.0
 30
0.0
 11
-1.0
 21
0.0
 31
0.0
  0
ENDBLK
  5
25
330
20
100
AcDbEntity
  8
0
100
AcDbBlockEnd
  0
BLOCK
  5
5D
330
53
100
AcDbEntity
  8
0
100
AcDbBlockBegin
  2
*D1
 70
     1
 10
0.0
 20
0.0
 30
0.0
  3
*D1
  1

  0
LINE
  5
54
330
53
100
AcDbEntity
  8
MAINOS
 62
     3
370
    -2
100
AcDbLine
 10
5787.631430688569
 20
1711.068966274669
 30
0.0
 11
5787.631430688569
 21
1685.578516666573
 31
0.0
  0
LINE
  5
55
330
53
100
AcDbEntity
  8
MAINOS
 62
     3
370
    -2
100
AcDbLine
 10
4707.678801610991
 20
1711.068966274671
 30
0.0
 11
4707.678801610991
 21
1685.578516666573
 31
0.0
  0
LINE
  5
56
330
53
100
AcDbEntity
  8
MAINOS
 62
     3
370
    -2
100
AcDbLine
 10
5717.631430688569
 20
1686.828516666573
 30
0.0
 11
4777.678801610991
 21
1686.828516666573
 31
0.0
  0
INSERT
  5
57
330
53
100
AcDbEntity
  8
MAINOS
 62
     3
370
    -2
100
AcDbBlockReference
  2
_OPEN
 10
5787.631430688569
 20
1686.828516666573
 30
0.0
 41
70.0
 42
70.0
 43
70.0
  0
INSERT
  5
58
330
53
100
AcDbEntity
  8
MAINOS
 62
     3
370
    -2
100
AcDbBlockReference
  2
_OPEN
 10
4707.678801610991
 20
1686.828516666573
 30
0.0
 41
70.0
 42
70.0
 43
70.0
 50
180.0
  0
MTEXT
  5
59
330
53
100
AcDbEntity
  8
MAINOS
 62
     5
100
AcDbMText
 10
5247.65511614978
 20
1743.140360744534
 30
0.0
 40
70.0
 41
0.0
 71
     5
 72
     1
  1
\A1;1080
  7
KUVASTO
 73
     1
 44
1.0
  0
POINT
  5
5A
330
53
100
AcDbEntity
  8
DEFPOINTS
 62
     0
100
AcDbPoint
 10
5787.631430688569
 20
1711.693966274669
 30
0.0
  0
POINT
  5
5B
330
53
100
AcDbEntity
  8
DEFPOINTS
 62
     0
100
AcDbPoint
 10
4707.678801610991
 20
1711.693966274671
 30
0.0
  0
POINT
  5
5C
330
53
100
AcDbEntity
  8
DEFPOINTS
 62
     0
100
AcDbPoint
 10
4707.678801610991
 20
1686.828516666573
 30
0.0
  0
ENDBLK
  5
5E
330
53
100
AcDbEntity
  8
0
100
AcDbBlockEnd
  0
BLOCK
  5
41
330
36
100
AcDbEntity
  8
0
100
AcDbBlockBegin
  2
*D2
 70
     1
 10
0.0
 20
0.0
 30
0.0
  3
*D2
  1

  0
LINE
  5
37
330
36
100
AcDbEntity
  8
MAINOS
 62
     3
370
    -2
100
AcDbLine
 10
5937.012315519456
 20
1847.447231967639
 30
0.0
 11
5968.022894131753
 21
1847.447231967639
 31
0.0
  0
LINE
  5
38
330
36
100
AcDbEntity
  8
MAINOS
 62
     3
370
    -2
100
AcDbLine
 10
5934.012315519456
 20
2344.999861045213
 30
0.0
 11
5968.022894131753
 21
2344.999861045213
 31
0.0
  0
LINE
  5
39
330
36
100
AcDbEntity
  8
MAINOS
 62
     3
370
    -2
100
AcDbLine
 10
5966.772894131752
 20
1917.447231967639
 30
0.0
 11
5966.772894131753
 21
2274.999861045213
 31
0.0
  0
INSERT
  5
3A
330
36
100
AcDbEntity
  8
MAINOS
 62
     3
370
    -2
100
AcDbBlockReference
  2
_OPEN
 10
5966.772894131752
 20
1847.447231967639
 30
0.0
 41
70.0
 42
70.0
 43
70.0
 50
270.0
  0
INSERT
  5
3B
330
36
100
AcDbEntity
  8
MAINOS
 62
     3
370
    -2
100
AcDbBlockReference
  2
_OPEN
 10
5966.772894131753
 20
2344.999861045213
 30
0.0
 41
70.0
 42
70.0
 43
70.0
 50
90.0
  0
MTEXT
  5
3C
330
36
100
AcDbEntity
  8
MAINOS
 62
     5
100
AcDbMText
 10
5910.461050053791
 20
2096.223546506427
 30
0.0
 40
70.0
 41
0.0
 71
     5
 72
     1
  1
\A1;500
  7
KUVASTO
 11
0.0000000000000001
 21
1.0
 31
0.0
 73
     1
 44
1.0
  0
POINT
  5
3D
330
36
100
AcDbEntity
  8
DEFPOINTS
 62
     0
100
AcDbPoint
 10
5936.387315519455
 20
1847.447231967639
 30
0.0
  0
POINT
  5
3F
330
36
100
AcDbEntity
  8
DEFPOINTS
 62
     0
100
AcDbPoint
 10
5933.387315519457
 20
2344.999861045213
 30
0.0
  0
POINT
  5
40
330
36
100
AcDbEntity
  8
DEFPOINTS
 62
     0
100
AcDbPoint
 10
5966.772894131753
 20
2344.999861045213
 30
0.0
  0
ENDBLK
  5
42
330
36
100
AcDbEntity
  8
0
100
AcDbBlockEnd
  0
BLOCK
  5
4E
330
44
100
AcDbEntity
  8
0
100
AcDbBlockBegin
  2
*D3
 70
     1
 10
0.0
 20
0.0
 30
0.0
  3
*D3
  1

  0
LINE
  5
45
330
44
100
AcDbEntity
  8
MAINOS
 62
     3
370
    -2
100
AcDbLine
 10
6097.857555468966
 20
2449.999861045215
 30
0.0
 11
6129.624027050657
 21
2449.999861045215
 31
0.0
  0
LINE
  5
46
330
44
100
AcDbEntity
  8
MAINOS
 62
     3
370
    -2
100
AcDbLine
 10
6097.857555468966
 20
1847.447231967638
 30
0.0
 11
6129.624027050656
 21
1847.447231967638
 31
0.0
  0
LINE
  5
47
330
44
100
AcDbEntity
  8
MAINOS
 62
     3
370
    -2
100
AcDbLine
 10
6128.374027050657
 20
2379.999861045214
 30
0.0
 11
6128.374027050656
 21
1917.447231967638
 31
0.0
  0
INSERT
  5
48
330
44
100
AcDbEntity
  8
MAINOS
 62
     3
370
    -2
100
AcDbBlockReference
  2
_OPEN
 10
6128.374027050657
 20
2449.999861045215
 30
0.0
 41
70.0
 42
70.0
 43
70.0
 50
90.0
  0
INSERT
  5
49
330
44
100
AcDbEntity
  8
MAINOS
 62
     3
370
    -2
100
AcDbBlockReference
  2
_OPEN
 10
6128.374027050656
 20
1847.447231967638
 30
0.0
 41
70.0
 42
70.0
 43
70.0
 50
270.0
  0
MTEXT
  5
4A
330
44
100
AcDbEntity
  8
MAINOS
 62
     5
100
AcDbMText
 10
6062.669379374495
 20
2148.723546506427
 30
0.0
 40
70.0
 41
0.0
 71
     5
 72
     1
  1
\A1;(605)
  7
KUVASTO
 11
0.0000000000000001
 21
1.0
 31
0.0
 73
     1
 44
1.0
  0
POINT
  5
4B
330
44
100
AcDbEntity
  8
DEFPOINTS
 62
     0
100
AcDbPoint
 10
6097.232555468965
 20
2449.999861045215
 30
0.0
  0
POINT
  5
4C
330
44
100
AcDbEntity
  8
DEFPOINTS
 62
     0
100
AcDbPoint
 10
6097.232555468965
 20
1847.447231967638
 30
0.0
  0
POINT
  5
4D
330
44
100
AcDbEntity
  8
DEFPOINTS
 62
     0
100
AcDbPoint
 10
6128.374027050656
 20
1847.447231967638
 30
0.0
  0
ENDBLK
  5
4F
330
44
100
AcDbEntity
  8
0
100
AcDbBlockEnd
  0
ENDSEC
  0
SECTION
  2
ENTITIES
  0
LWPOLYLINE
  5
2D
330
2
100
AcDbEntity
  8
MAINOS
100
AcDbPolyline
 90
       26
 70
     1
 43
0.0
 10
5519.169530401905
 20
1865.999861045211
 10
5519.169530401908
 20
1985.875300160158
 42
0.1028989752745143
 10
5518.837770699448
 20
1987.47029643586
 10
5513.995545941198
 20
1998.606650958166
 42
-0.3541185725306578
 10
5514.836438737883
 20
2001.638812426371
 10
5518.180408071942
 20
2004.024042571616
 10
5515.90681252416
 20
2009.252954347617
 42
0.4142135623728508
 10
5513.275194237538
 20
2010.289576358535
 10
5511.441074088767
 20
2009.492078220684
 42
-0.4142135623730951
 10
5508.809455802147
 20
2010.528700231604
 10
5428.495013096942
 20
2195.239272722601
 10
5428.495013096942
 20
2195.084389745335
 42
-0.4142135623730951
 10
5426.495013096941
 20
2193.084389745334
 10
5070.49501309694
 20
2193.08438974533
 42
-0.4142135623730951
 10
5068.49501309694
 20
2195.08438974533
 10
5068.49501309694
 20
2195.239272722591
 10
4988.18057039174
 20
2010.528700231598
 42
-0.4142135623730951
 10
4985.54895210512
 20
2009.492078220679
 10
4983.71483195635
 20
2010.289576358529
 42
0.4142135623729729
 10
4981.083213669729
 20
2009.25295434761
 10
4978.862768071974
 20
2004.025259703543
 10
4982.208443762072
 20
2001.638812426365
 42
-0.354118572530658
 10
4983.049336558757
 20
1998.606650958161
 10
4978.207111800506
 20
1987.470296435855
 42
0.1028989752745144
 10
4977.875352098046
 20
1985.875300160153
 10
4977.875352098048
 20
1865.999861045211
  0
LWPOLYLINE
  5
2E
330
2
100
AcDbEntity
  8
MAINOS
100
AcDbPolyline
 90
       26
 70
     0
 43
0.0
 10
5441.74122120772
 20
2239.999861045212
 10
5562.65511614978
 20
2239.999861045212
 10
5562.65511614978
 20
2028.063944276803
 10
5521.872675490034
 20
2044.128574873821
 42
-0.1989123673797111
 10
5520.771557794713
 20
2045.191911871935
 10
5504.020837932511
 20
2083.715930107861
 42
-0.3939104756148502
 10
5504.93146085481
 20
2086.287449912068
 10
5530.417005325004
 20
2099.554384628621
 42
0.5067804403100823
 10
5530.907721660907
 20
2102.742619857351
 10
5517.8243176091
 20
2115.826023909157
 42
0.2891079116003104
 10
5515.742490328259
 20
2116.297093328969
 10
5495.066486987193
 20
2108.97533654019
 42
-0.3939104756149908
 10
5492.564753119955
 20
2110.063121384524
 10
5468.517983448578
 20
2165.366905398343
 42
-0.3788661086953475
 10
5469.337026871428
 20
2167.887661857077
 10
5483.921066463167
 20
2176.47831769787
 42
0.4904361115191761
 10
5484.320203299619
 20
2179.615789581127
 10
5465.452789970774
 20
2198.483202909972
 42
0.198912367379658
 10
5464.0385764084
 20
2199.068989347599
 10
5456.274777148679
 20
2199.068989347598
 42
0.4142135623730951
 10
5458.274777148679
 20
2201.068989347598
 10
5458.274777148679
 20
2216.068989347598
 42
0.4142135623730951
 10
5456.274777148679
 20
2218.068989347599
 10
5442.139807320955
 20
2218.068989347598
 42
-0.3939104756147633
 10
5440.144679220435
 20
2219.929476400108
 10
5438.741221207724
 20
2239.999861045216
  0
LWPOLYLINE
  5
2F
330
2
100
AcDbEntity
  8
0
  6
Continuous
 62
     7
370
    15
100
AcDbPolyline
 90
       25
 70
     1
 43
0.0
 10
4932.631430688569
 20
2027.566432407909
 10
4932.631430688568
 20
2239.999861045212
 10
5057.808333089633
 20
2239.999861045212
 10
5056.404875076921
 20
2219.929476400105
 42
-0.3939104756148944
 10
5054.409746976402
 20
2218.068989347593
 10
5040.274777148677
 20
2218.068989347593
 42
0.4142135623730951
 10
5038.274777148678
 20
2216.068989347593
 10
5038.274777148678
 20
2201.068989347592
 42
0.4142135623731617
 10
5040.274777148677
 20
2199.068989347594
 10
5032.510977888958
 20
2199.068989347594
 42
0.198912367379658
 10
5031.096764326584
 20
2198.483202909967
 10
5012.229350997741
 20
2179.615789581121
 42
0.4904361115191761
 10
5012.628487834192
 20
2176.478317697865
 10
5027.212527425931
 20
2167.887661857071
 42
-0.3788661086953475
 10
5028.031570848781
 20
2165.366905398338
 10
5003.984801177407
 20
2110.063121384518
 42
-0.3939104756149908
 10
5001.483067310168
 20
2108.975336540184
 10
4980.807063969102
 20
2116.297093328962
 42
0.2891079116003105
 10
4978.725236688261
 20
2115.826023909151
 10
4965.641832636454
 20
2102.742619857344
 42
0.5067804403100823
 10
4966.132548972358
 20
2099.554384628615
 10
4991.61809344255
 20
2086.287449912062
 42
-0.3939104756149108
 10
4992.528716364851
 20
2083.715930107855
 10
4975.77799650265
 20
2045.191911871928
 42
-0.1989123673797111
 10
4974.676878807327
 20
2044.128574873814
  0
LWPOLYLINE
  5
30
330
2
100
AcDbEntity
  8
MAINOS
100
AcDbPolyline
 90
        6
 70
     0
 43
0.0
 10
5525.169530401909
 20
1924.999861045212
 10
5727.631430688568
 20
1924.999861045212
 10
5727.631430688568
 20
2284.999861045212
 10
4767.631430688568
 20
2284.999861045212
 10
4767.631430688568
 20
1924.999861045212
 10
4970.994408304997
 20
1924.999861045212
  0
LINE
  5
31
330
2
100
AcDbEntity
  8
MAINOS
 62
     3
100
AcDbLine
 10
4590.273555582093
 20
2189.999861045213
 30
0.0
 11
4590.273555582093
 21
2119.999861045213
 31
0.0
  0
LWPOLYLINE
  5
32
330
2
100
AcDbEntity
  8
0
  6
Continuous
 62
     7
370
    15
100
AcDbPolyline
 90
        4
 70
     1
 43
0.0
 10
4812.631430688568
 20
2239.999861045213
 10
4887.631430688568
 20
2239.999861045212
 10
4887.631430688569
 20
1969.999861045213
 10
4812.631430688568
 20
1969.999861045212
  0
LWPOLYLINE
  5
33
330
2
100
AcDbEntity
  8
MAINOS
 62
     6
100
AcDbPolyline
 90
        4
 70
     0
 43
0.0
 10
4662.678801610993
 20
1969.999861045213
 10
4662.678801610995
 20
2389.999861045216
 10
5832.631430688568
 20
2389.999861045216
 10
5832.631430688568
 20
1969.999861045213
  0
LWPOLYLINE
  5
34
330
2
100
AcDbEntity
  8
0
  6
Continuous
 62
     7
370
    15
100
AcDbPolyline
 90
        4
 70
     1
 43
0.0
 10
5682.631430688569
 20
1969.999861045213
 10
5607.631430688569
 20
1969.999861045215
 10
5607.631430688569
 20
2239.999861045211
 10
5682.631430688569
 20
2239.999861045211
  0
DIMENSION
  5
35
330
2
100
AcDbEntity
  8
MAINOS
100
AcDbDimension
  2
*D2
 10
5966.772894131753
 20
2344.999861045213
 30
0.0
 11
5910.461050053791
 21
2096.223546506427
 31
0.0
  1
500
 71
     5
 42
497.5526290775742
  3
STANDARD
100
AcDbAlignedDimension
 13
5936.387315519455
 23
1847.447231967639
 33
0.0
 14
5933.387315519457
 24
2344.999861045213
 34
0.0
 50
90.0
100
AcDbRotatedDimension
1001
ACAD
1000
DSTYLE
1002
{
1070
    40
1040
1.0
1002
}
  0
DIMENSION
  5
43
330
2
100
AcDbEntity
  8
MAINOS
100
AcDbDimension
  2
*D3
 10
6128.374027050656
 20
1847.447231967638
 30
0.0
 11
6062.669379374495
 21
2148.723546506427
 31
0.0
  1
(605)
 71
     5
 42
602.5526290775765
  3
STANDARD
100
AcDbAlignedDimension
 13
6097.232555468965
 23
2449.999861045215
 33
0.0
 14
6097.232555468965
 24
1847.447231967638
 34
0.0
 50
90.0
100
AcDbRotatedDimension
1001
ACAD
1000
DSTYLE
1002
{
1070
    40
1040
1.0
1002
}
  0
LWPOLYLINE
  5
50
330
2
100
AcDbEntity
  8
MAINOS
100
AcDbPolyline
 90
       24
 70
     1
 43
0.0
 10
5574.655116149778
 20
1892.447231967638
 10
5574.655116149778
 20
1847.447231967637
 10
5777.631430688575
 20
1847.447231967638
 10
5787.631430688575
 20
1857.447231967638
 10
5787.631430688574
 20
2334.999861045213
 10
5777.631430688574
 20
2344.999861045213
 10
5490.655116149781
 20
2344.999861045211
 10
5250.655116149777
 20
2344.999861045213
 10
5010.655116149779
 20
2344.999861045213
 10
4717.678801610992
 20
2344.999861045216
 10
4707.678801610991
 20
2334.999861045215
 10
4707.678801610991
 20
1857.447231967641
 10
4717.678801610992
 20
1847.44723196764
 10
4920.655116149784
 20
1847.447231967639
 10
4920.655116149784
 20
1892.447231967638
 10
4752.678801610991
 20
1892.44723196764
 10
4752.678801610993
 20
2096.223546506427
 10
4752.678801610993
 20
2299.999861045216
 10
5007.655116149781
 20
2299.999861045213
 10
5247.655116149783
 20
2299.999861045213
 10
5487.655116149785
 20
2299.999861045213
 10
5742.63143068857
 20
2299.999861045213
 10
5742.631430688567
 20
2096.223546506425
 10
5742.631430688568
 20
1892.447231967635
  0
LWPOLYLINE
  5
51
330
2
100
AcDbEntity
  8
MAINOS
 62
     4
100
AcDbPolyline
 90
        2
 70
     0
 43
0.0
 10
4977.875352098047
 20
1924.999861045212
 10
5519.169530401907
 20
1924.999861045212
  0
DIMENSION
  5
52
330
2
100
AcDbEntity
  8
MAINOS
100
AcDbDimension
  2
*D1
 10
4707.678801610991
 20
1686.828516666573
 30
0.0
 11
5247.65511614978
 21
1743.140360744534
 31
0.0
  1
1080
 71
     5
 42
1079.952629077577
  3
STANDARD
100
AcDbAlignedDimension
 13
5787.631430688569
 23
1711.693966274669
 33
0.0
 14
4707.678801610991
 24
1711.693966274671
 34
0.0
100
AcDbRotatedDimension
1001
ACAD
1000
DSTYLE
1002
{
1070
    40
1040
1.0
1002
}
  0
LWPOLYLINE
  5
5F
330
2
100
AcDbEntity
  8
0
  6
Continuous
 62
     7
370
    15
100
AcDbPolyline
 90
       27
 70
     0
 43
0.0
 10
5567.15511614978
 20
1924.999861045212
 10
5567.15511614978
 20
1847.999861045216
 42
-0.4142135623730951
 10
5565.155116149782
 20
1845.999861045216
 10
5537.155116149781
 20
1845.999861045216
 10
5537.155116149781
 20
1837.999861045216
 10
5542.155116149781
 20
1832.999861045216
 10
5545.155116149781
 20
1832.999861045216
 42
-0.4142135623730951
 10
5553.155116149781
 20
1824.999861045216
 10
5553.155116149783
 20
1772.999861045216
 42
-0.4142135623730951
 10
5548.155116149782
 20
1767.999861045216
 10
5418.155116149783
 20
1767.999861045212
 42
-0.4142135623730951
 10
5413.155116149783
 20
1772.999861045212
 10
5413.155116149783
 20
1792.999861045212
 42
-0.4142135623730951
 10
5418.155116149783
 20
1797.999861045212
 10
5518.155116149783
 20
1797.999861045215
 42
0.4142135623730951
 10
5523.155116149783
 20
1802.999861045215
 10
5523.155116149781
 20
1827.999861045215
 42
-0.4142135623730951
 10
5528.155116149781
 20
1832.999861045215
 10
5529.155116149783
 20
1832.999861045215
 10
5529.15511614978
 20
1845.999861045216
 10
5517.655116149781
 20
1845.999861045215
 10
5517.05511614978
 20
1845.999861045216
 10
4978.255116149781
 20
1845.999861045211
 10
4977.655116149781
 20
1845.999861045211
 10
4930.155116149781
 20
1845.99986104521
 42
-0.4142135623730951
 10
4928.155116149781
 20
1847.99986104521
 10
4928.155116149781
 20
1924.99986104521
  0
MTEXT
  5
60
330
2
100
AcDbEntity
  8
MAINOS
 62
     5
100
AcDbMText
 10
4513.764728879976
 20
1746.911609152124
 30
0.0
 40
70.0
 41
0.0
 71
     5
 72
     1
  1
\A1;45
  7
KUVASTO
 73
     1
 44
1.0
  0
LINE
  5
61
330
2
100
AcDbEntity
  8
MAINOS
 62
     3
100
AcDbLine
 10
4522.678801610991
 20
1686.828516666573
 30
0.0
 11
4440.760575254395
 21
1686.828516666573
 31
0.0
  0
INSERT
  5
62
330
2
100
AcDbEntity
  8
MAINOS
 62
     3
100
AcDbBlockReference
  2
_OPEN
 10
4662.678801610991
 20
1686.828516666573
 30
0.0
 41
-70.0
 42
70.0
 43
70.0
 50
180.0
  0
LINE
  5
63
330
2
100
AcDbEntity
  8
MAINOS
 62
     3
100
AcDbLine
 10
4592.678801610992
 20
1686.828516666573
 30
0.0
 11
4522.678801610991
 21
1686.828516666573
 31
0.0
  0
LINE
  5
64
330
2
100
AcDbEntity
  8
MAINOS
 62
     3
100
AcDbLine
 10
4707.678801610991
 20
1686.828516666573
 30
0.0
 11
4662.678801610991
 21
1686.828516666573
 31
0.0
  0
LINE
  5
65
330
2
100
AcDbEntity
  8
MAINOS
 62
     3
100
AcDbLine
 10
4662.678801610991
 20
1711.068966274669
 30
0.0
 11
4662.678801610991
 21
1685.578516666573
 31
0.0
  0
LWPOLYLINE
  5
66
330
2
100
AcDbEntity
  8
0
  6
Continuous
 62
     7
370
    15
100
AcDbPolyline
 90
        9
 70
     0
 43
0.0
 10
4932.631430688569
 20
2007.768037745258
 10
4970.858185777599
 20
1991.146571577948
 42
0.4142135623729727
 10
4973.489804064209
 20
1992.183193588844
 10
4971.685033666412
 20
1988.008708331377
 42
-0.2239846608725755
 10
4966.553651917866
 20
1983.508607315272
 10
4939.818925946415
 20
1975.842548003432
 42
0.3838640350355008
 10
4938.045999953425
 20
1973.005273319419
 10
4938.132473234478
 20
1972.514858972697
 42
0.2610122853455788
 10
4940.768883801369
 20
1969.999861045213
  0
LWPOLYLINE
  5
67
330
2
100
AcDbEntity
  8
MAINOS
100
AcDbPolyline
 90
        2
 70
     0
 43
0.0
 10
4932.631430688569
 20
2007.768037745258
 10
4932.631430688569
 20
1969.999861045213
  0
LWPOLYLINE
  5
68
330
2
100
AcDbEntity
  8
0
  6
Continuous
 62
     7
370
    15
100
AcDbPolyline
 90
        2
 70
     0
 43
0.0
 10
4970.994408304997
 20
1969.999861045213
 10
4970.994408304997
 20
1924.999861045212
  0
LWPOLYLINE
  5
69
330
2
100
AcDbEntity
  8
MAINOS
100
AcDbPolyline
 90
        3
 70
     0
 43
0.0
 10
4970.994408304997
 20
1924.999861045212
 10
4970.994408304997
 20
1969.999861045213
 10
4932.631430688569
 20
1969.999861045213
  0
LWPOLYLINE
  5
6A
330
2
100
AcDbEntity
  8
MAINOS
100
AcDbPolyline
 90
        2
 70
     0
 43
0.0
 10
4973.489804064209
 20
1992.183193588844
 10
4978.862768071974
 20
2004.025259703543
  0
MTEXT
  5
6B
330
2
100
AcDbEntity
  8
MAINOS
 62
     5
100
AcDbMText
 10
5976.550563058747
 20
1746.911609152124
 30
0.0
 40
70.0
 41
0.0
 71
     5
 72
     1
  1
\A1;45
  7
KUVASTO
 73
     1
 44
1.0
  0
LINE
  5
6C
330
2
100
AcDbEntity
  8
MAINOS
 62
     3
100
AcDbLine
 10
5902.631430688569
 20
1686.828516666573
 30
0.0
 11
5972.631430688569
 21
1686.828516666573
 31
0.0
  0
LINE
  5
6D
330
2
100
AcDbEntity
  8
MAINOS
 62
     3
100
AcDbLine
 10
5787.631430688569
 20
1686.828516666573
 30
0.0
 11
5832.63143068857
 21
1686.828516666573
 31
0.0
  0
INSERT
  5
6E
330
2
100
AcDbEntity
  8
MAINOS
 62
     3
100
AcDbBlockReference
  2
_OPEN
 10
5832.631430688569
 20
1686.828516666573
 30
0.0
 41
70.0
 42
70.0
 43
70.0
 50
180.0
  0
LINE
  5
6F
330
2
100
AcDbEntity
  8
MAINOS
 62
     3
100
AcDbLine
 10
5832.63143068857
 20
1711.068966274669
 30
0.0
 11
5832.63143068857
 21
1685.578516666573
 31
0.0
  0
LWPOLYLINE
  5
70
330
2
100
AcDbEntity
  8
0
  6
Continuous
 62
     7
370
    15
100
AcDbPolyline
 90
        9
 70
     0
 43
0.0
 10
5556.055762750323
 20
1969.999861045213
 42
0.2574109489918839
 10
5558.692173317215
 20
1972.53025937044
 10
5558.778646598268
 20
1973.020673717162
 42
0.3838640350355009
 10
5557.00572060528
 20
1975.857948401175
 10
5530.270994633828
 20
1983.524007713015
 42
-0.2239846608725755
 10
5525.139612885281
 20
1988.02410872912
 10
5523.315570224791
 20
1992.213978165539
 42
0.4142135623729727
 10
5525.947188511411
 20
1991.17735615462
 10
5562.875352098043
 20
2007.234178666669
  0
LWPOLYLINE
  5
71
330
2
100
AcDbEntity
  8
MAINOS
100
AcDbPolyline
 90
        4
 70
     0
 43
0.0
 10
5562.678801610995
 20
2007.148716082596
 10
5562.678801610995
 20
1969.999861045213
 10
5525.227463506491
 20
1969.999861045213
 10
5525.227463506491
 20
1924.999861045212
  0
LWPOLYLINE
  5
72
330
2
100
AcDbEntity
  8
MAINOS
100
AcDbPolyline
 90
        2
 70
     0
 43
0.0
 10
5607.678801610991
 20
1969.999861045213
 10
5607.631430688569
 20
1969.999861045213
  0
LWPOLYLINE
  5
73
330
2
100
AcDbEntity
  8
MAINOS
100
AcDbPolyline
 90
        2
 70
     0
 43
0.0
 10
5523.315570224574
 20
1992.213978166036
 10
5518.180408071942
 20
2004.024042571616
  0
LINE
  5
74
330
2
100
AcDbEntity
  8
MAINOS
 62
     3
100
AcDbLine
 10
5972.631430688569
 20
1686.828516666573
 30
0.0
 11
6054.549657045164
 21
1686.828516666573
 31
0.0
  0
LWPOLYLINE
  5
75
330
2
100
AcDbEntity
  8
MAINOS
  6
DASHED
100
AcDbPolyline
 90
        6
 70
     0
 43
0.0
 10
5787.655116149781
 20
2310.193546506425
 10
5787.65511614978
 20
2439.999861045215
 10
5777.65511614978
 20
2449.999861045215
 10
4717.655116149781
 20
2449.999861045213
 10
4707.655116149781
 20
2439.999861045213
 10
4707.655116149781
 20
2310.193546506425
  0
MTEXT
  5
77
330
2
100
AcDbEntity
  8
MAINOS
 62
     5
100
AcDbMText
 10
4533.163686218164
 20
2352.280649602453
 30
0.0
 40
70.0
 41
0.0
 71
     5
 72
     1
  1
190
  7
KUVASTO
 11
0.0000000000000001
 21
1.0
 31
0.0
 73
     1
 44
1.0
  0
INSERT
  5
78
330
2
100
AcDbEntity
  8
MAINOS
 62
     3
100
AcDbBlockReference
  2
_OPEN
 10
4590.273555582093
 20
2449.999861045215
 30
0.0
 41
70.0
 42
70.0
 43
70.0
 50
270.0
  0
LINE
  5
79
330
2
100
AcDbEntity
  8
MAINOS
 62
     3
100
AcDbLine
 10
4590.273555582093
 20
2449.999861045215
 30
0.0
 11
4590.273555582093
 21
2259.999861045215
 31
0.0
  0
INSERT
  5
7A
330
2
100
AcDbEntity
  8
MAINOS
 62
     3
100
AcDbBlockReference
  2
_OPEN
 10
4590.273555582093
 20
2259.999861045215
 30
0.0
 41
70.0
 42
70.0
 43
70.0
 50
90.0
  0
LINE
  5
7B
330
2
100
AcDbEntity
  8
MAINOS
 62
     3
100
AcDbLine
 10
4615.380416342012
 20
2259.999861045215
 30
0.0
 11
4589.023555582094
 21
2259.999861045215
 31
0.0
  0
LINE
  5
7C
330
2
100
AcDbEntity
  8
MAINOS
 62
     3
100
AcDbLine
 10
4615.380416342012
 20
2449.999861045215
 30
0.0
 11
4589.023555582094
 21
2449.999861045215
 31
0.0
  0
LINE
  5
7D
330
2
100
AcDbEntity
  8
MAINOS
 62
     3
100
AcDbLine
 10
4590.273555582093
 20
2519.999861045215
 30
0.0
 11
4590.273555582093
 21
2589.999861045213
 31
0.0
  0
MTEXT
  5
7F
330
2
100
AcDbEntity
  8
MAINOS
 62
     5
100
AcDbMText
 10
5906.693225531626
 20
2533.918993415391
 30
0.0
 40
70.0
 41
0.0
 71
     5
 72
     1
  1
\A1;45
  7
KUVASTO
 11
0.0000000000000001
 21
1.0
 31
0.0
 73
     1
 44
1.0
  0
LINE
  5
80
330
2
100
AcDbEntity
  8
MAINOS
 62
     3
100
AcDbLine
 10
5934.637315519458
 20
2344.999861045213
 30
0.0
 11
5968.026318017177
 21
2344.999861045213
 31
0.0
  0
LINE
  5
81
330
2
100
AcDbEntity
  8
MAINOS
 62
     3
100
AcDbLine
 10
5934.637315519458
 20
2389.999861045216
 30
0.0
 11
5968.026318017177
 21
2389.999861045216
 31
0.0
  0
LWPOLYLINE
  5
82
330
2
100
AcDbEntity
  8
0
  6
Continuous
 62
     7
370
    15
100
AcDbPolyline
 90
        6
 70
     1
 43
0.0
 10
5233.514687068678
 20
2239.999861045214
 10
5232.111229055966
 20
2219.929476400106
 42
-0.3939104756148944
 10
5230.116100955447
 20
2218.068989347595
 10
5163.580276352385
 20
2218.068989347594
 42
-0.3939104756148945
 10
5161.585148251866
 20
2219.929476400106
 10
5160.181690239153
 20
2239.999861045212
  0
CIRCLE
  5
83
330
2
100
AcDbEntity
  8
MAINOS
 62
     6
100
AcDbCircle
 10
5247.655116149781
 20
2259.999861045215
 30
0.0
 40
75.0
  0
LINE
  5
84
330
2
100
AcDbEntity
  8
MAINOS
 62
     3
100
AcDbLine
 10
5222.65511614978
 20
2259.999861045215
 30
0.0
 11
5272.655116149781
 21
2259.999861045215
 31
0.0
  0
LWPOLYLINE
  5
85
330
2
100
AcDbEntity
  8
MAINOS
100
AcDbPolyline
 90
        6
 70
     1
 43
0.0
 10
5072.328513249631
 20
2239.999861045212
 10
5145.661510079156
 20
2239.999861045213
 10
5144.258052066445
 20
2219.929476400105
 42
-0.3939104756148944
 10
5142.262923965926
 20
2218.068989347594
 10
5075.727099362863
 20
2218.068989347594
 42
-0.3939104756148945
 10
5073.731971262343
 20
2219.929476400105
  0
LWPOLYLINE
  5
86
330
2
100
AcDbEntity
  8
0
  6
Continuous
 62
     7
370
    15
100
AcDbPolyline
 90
        6
 70
     1
 43
0.0
 10
5336.367864058202
 20
2239.999861045215
 10
5334.96440604549
 20
2219.929476400108
 42
-0.3939104756148944
 10
5332.969277944972
 20
2218.068989347596
 10
5266.433453341909
 20
2218.068989347595
 42
-0.3939104756148945
 10
5264.43832524139
 20
2219.929476400107
 10
5263.034867228676
 20
2239.999861045212
  0
LINE
  5
87
330
2
100
AcDbEntity
  8
MAINOS
 62
     3
100
AcDbLine
 10
5247.655116149781
 20
2234.999861045213
 30
0.0
 11
5247.655116149781
 21
2284.999861045213
 31
0.0
  0
LWPOLYLINE
  5
88
330
2
100
AcDbEntity
  8
0
  6
Continuous
 62
     7
370
    15
100
AcDbPolyline
 90
        6
 70
     1
 43
0.0
 10
5424.221041047726
 20
2239.999861045216
 10
5422.817583035014
 20
2219.92947640011
 42
-0.3939104756148944
 10
5420.822454934494
 20
2218.068989347598
 10
5354.286630331431
 20
2218.068989347597
 42
-0.3939104756148945
 10
5352.291502230912
 20
2219.929476400108
 10
5350.8880442182
 20
2239.999861045212
  0
LWPOLYLINE
  5
89
330
2
100
AcDbEntity
  8
MAINOS
100
AcDbPolyline
 90
        2
 70
     0
 43
0.0
 10
5438.741221207724
 20
2239.999861045212
 10
5441.74122120772
 20
2239.999861045212
  0
LINE
  5
8A
330
2
100
AcDbEntity
  8
MAINOS
 62
     3
100
AcDbLine
 10
5966.776318017178
 20
2459.999861045215
 30
0.0
 11
5966.776318017178
 21
2529.999861045215
 31
0.0
  0
INSERT
  5
8B
330
2
100
AcDbEntity
  8
MAINOS
 62
     3
100
AcDbBlockReference
  2
_OPEN
 10
5966.776318017178
 20
2344.999861045213
 30
0.0
 41
70.0
 42
70.0
 43
70.0
 50
90.0
  0
LINE
  5
8C
330
2
100
AcDbEntity
  8
MAINOS
 62
     3
100
AcDbLine
 10
5966.776318017178
 20
2274.999861045213
 30
0.0
 11
5966.776318017178
 21
2204.999861045215
 31
0.0
  0
INSERT
  5
8D
330
2
100
AcDbEntity
  8
MAINOS
 62
     3
100
AcDbBlockReference
  2
_OPEN
 10
5966.776318017178
 20
2389.999861045216
 30
0.0
 41
70.0
 42
70.0
 43
70.0
 50
270.0
  0
LINE
  5
8E
330
2
100
AcDbEntity
  8
MAINOS
 62
     3
100
AcDbLine
 10
5966.776318017178
 20
2344.999861045213
 30
0.0
 11
5966.776318017178
 21
2389.999861045216
 31
0.0
  0
LINE
  5
8F
330
2
100
AcDbEntity
  8
MAINOS
 62
     3
100
AcDbLine
 10
5966.776318017178
 20
2529.999861045215
 30
0.0
 11
5966.776318017178
 21
2611.918087401809
 31
0.0
  0
ENDSEC
  0
SECTION
  2
OBJECTS
  0
DICTIONARY
  5
7
330
0
100
AcDbDictionary
281
     1
  3
ACAD_GROUP
350
27
  3
ACAD_LAYOUT
350
B
  3
ACAD_MLINESTYLE
350
28
  3
ACAD_PLOTSETTINGS
350
29
  3
ACAD_PLOTSTYLENAME
350
6
  3
AcDbVariableDictionary
350
91
  0
DICTIONARY
  5
27
102
{ACAD_REACTORS
330
7
102
}
330
7
100
AcDbDictionary
281
     1
  0
DICTIONARY
  5
B
102
{ACAD_REACTORS
330
7
102
}
330
7
100
AcDbDictionary
281
     1
  3
Layout1
350
F
  3
Model
350
A
  0
DICTIONARY
  5
28
102
{ACAD_REACTORS
330
7
102
}
330
7
100
AcDbDictionary
281
     1
  3
STANDARD
350
2B
  0
DICTIONARY
  5
29
102
{ACAD_REACTORS
330
7
102
}
330
7
100
AcDbDictionary
281
     1
  0
ACDBDICTIONARYWDFLT
  5
6
102
{ACAD_REACTORS
330
7
102
}
330
7
100
AcDbDictionary
281
     1
  3
Normal
350
5
100
AcDbDictionaryWithDefault
340
5
  0
DICTIONARY
  5
91
102
{ACAD_REACTORS
330
7
102
}
330
7
100
AcDbDictionary
281
     1
  3
DIMASSOC
350
93
  3
HIDETEXT
350
92
  0
LAYOUT
  5
F
102
{ACAD_REACTORS
330
B
102
}
330
B
100
AcDbPlotSettings
  1

  2
ASPA2
  4

  6

 40
0.0
 41
0.0
 42
0.0
 43
0.0
 44
0.0
 45
0.0
 46
0.0
 47
0.0
 48
0.0
 49
0.0
140
0.0
141
0.0
142
1.0
143
1.0
 70
   688
 72
     0
 73
     0
 74
     5
  7
acad.ctb
 75
    16
147
1.0
148
0.0
149
0.0
100
AcDbLayout
  1
Layout1
 70
     1
 71
     1
 10
0.0
 20
0.0
 11
420.0
 21
297.0
 12
0.0
 22
0.0
 32
0.0
 14
1.000000000000000E+20
 24
1.000000000000000E+20
 34
1.000000000000000E+20
 15
-1.000000000000000E+20
 25
-1.000000000000000E+20
 35
-1.000000000000000E+20
146
0.0
 13
0.0
 23
0.0
 33
0.0
 16
1.0
 26
0.0
 36
0.0
 17
0.0
 27
1.0
 37
0.0
 76
     0
330
C
  0
LAYOUT
  5
A
102
{ACAD_REACTORS
330
B
102
}
330
B
100
AcDbPlotSettings
  1

  2
Amyuni PDF Converter
  4
A4
  6

 40
6.720416545867919
 41
6.80509614944458
 42
6.889755249023437
 43
6.720428466796875
 44
209.9733276367186
 45
296.9259948730469
 46
3.759999999999998
 47
30.73999999999999
 48
3720.281263814993
 49
1232.478800346044
140
5939.432034169917
141
3120.876358500894
142
1.0
143
10.0
 70
 11956
 72
     1
 73
     1
 74
     4
  7
acad.ctb
 75
    20
147
0.1
148
-3720.281263814993
149
-1232.478800346044
100
AcDbLayout
  1
Model
 70
     1
 71
     0
 10
0.0
 20
0.0
 11
12.0
 21
9.0
 12
0.0
 22
0.0
 32
0.0
 14
0.0
 24
0.0
 34
0.0
 15
0.0
 25
0.0
 35
0.0
146
0.0
 13
0.0
 23
0.0
 33
0.0
 16
1.0
 26
0.0
 36
0.0
 17
0.0
 27
1.0
 37
0.0
 76
     0
330
2
  0
MLINESTYLE
  5
2B
102
{ACAD_REACTORS
330
28
102
}
330
28
100
AcDbMlineStyle
  2
STANDARD
 70
     0
  3

 62
   256
 51
90.0
 52
90.0
 71
     2
 49
0.5
 62
   256
  6
BYLAYER
 49
-0.5
 62
   256
  6
BYLAYER
  0
ACDBPLACEHOLDER
  5
5
102
{ACAD_REACTORS
330
6
102
}
330
6
  0
DICTIONARYVAR
  5
93
102
{ACAD_REACTORS
330
91
102
}
330
91
100
DictionaryVariables
280
     0
  1
1
  0
DICTIONARYVAR
  5
92
102
{ACAD_REACTORS
330
91
102
}
330
91
100
DictionaryVariables
280
     0
  1
1
  0
ENDSEC
  0
EOF
