  0
SECTION
  2
HEADER
  9
$ACADVER
  1
AC1015
  9
$ACADMAINTVER
 70
    14
  9
$DWGCODEPAGE
  3
ANSI_1252
  9
$INSBASE
 10
0.0
 20
0.0
 30
0.0
  9
$EXTMIN
 10
4081.028536658751
 20
1675.161849999907
 30
0.0
  9
$EXTMAX
 10
6017.808160045159
 20
2611.91808740181
 30
0.0
  9
$LIMMIN
 10
0.0
 20
0.0
  9
$LIMMAX
 10
420.0
 20
297.0
  9
$ORTHOMODE
 70
     1
  9
$REGENMODE
 70
     1
  9
$FILLMODE
 70
     1
  9
$QTEXTMODE
 70
     0
  9
$MIRRTEXT
 70
     1
  9
$LTSCALE
 40
50.0
  9
$ATTMODE
 70
     1
  9
$TEXTSIZE
 40
70.0
  9
$TRACEWID
 40
1.0
  9
$TEXTSTYLE
  7
KUVASTO
  9
$CLAYER
  8
MAINOS
  9
$CELTYPE
  6
BYLAYER
  9
$CECOLOR
 62
   256
  9
$CELTSCALE
 40
1.0
  9
$DISPSILH
 70
     1
  9
$DIMSCALE
 40
0.0
  9
$DIMASZ
 40
70.0
  9
$DIMEXO
 40
0.625
  9
$DIMDLI
 40
3.75
  9
$DIMRND
 40
0.0
  9
$DIMDLE
 40
0.0
  9
$DIMEXE
 40
1.25
  9
$DIMTP
 40
0.0
  9
$DIMTM
 40
0.0
  9
$DIMTXT
 40
60.0
  9
$DIMCEN
 40
2.5
  9
$DIMTSZ
 40
0.0
  9
$DIMTOL
 70
     0
  9
$DIMLIM
 70
     0
  9
$DIMTIH
 70
     0
  9
$DIMTOH
 70
     1
  9
$DIMSE1
 70
     0
  9
$DIMSE2
 70
     0
  9
$DIMTAD
 70
     1
  9
$DIMZIN
 70
     8
  9
$DIMBLK
  1

  9
$DIMASO
 70
     1
  9
$DIMSHO
 70
     1
  9
$DIMPOST
  1

  9
$DIMAPOST
  1

  9
$DIMALT
 70
     0
  9
$DIMALTD
 70
     4
  9
$DIMALTF
 40
0.0394
  9
$DIMLFAC
 40
1.0
  9
$DIMTOFL
 70
     1
  9
$DIMTVP
 40
0.0
  9
$DIMTIX
 70
     0
  9
$DIMSOXD
 70
     0
  9
$DIMSAH
 70
     1
  9
$DIMBLK1
  1
OPEN
  9
$DIMBLK2
  1
OPEN
  9
$DIMSTYLE
  2
STANDARD
  9
$DIMCLRD
 70
     3
  9
$DIMCLRE
 70
     3
  9
$DIMCLRT
 70
     5
  9
$DIMTFAC
 40
1.0
  9
$DIMGAP
 40
20.0
  9
$DIMJUST
 70
     0
  9
$DIMSD1
 70
     0
  9
$DIMSD2
 70
     0
  9
$DIMTOLJ
 70
     1
  9
$DIMTZIN
 70
     0
  9
$DIMALTZ
 70
     0
  9
$DIMALTTZ
 70
     0
  9
$DIMUPT
 70
     0
  9
$DIMDEC
 70
     4
  9
$DIMTDEC
 70
     4
  9
$DIMALTU
 70
     8
  9
$DIMALTTD
 70
     4
  9
$DIMTXSTY
  7
KUVASTO
  9
$DIMAUNIT
 70
     0
  9
$DIMADEC
 70
     0
  9
$DIMALTRND
 40
0.0
  9
$DIMAZIN
 70
     0
  9
$DIMDSEP
 70
    46
  9
$DIMATFIT
 70
     3
  9
$DIMFRAC
 70
     0
  9
$DIMLDRBLK
  1
OPEN
  9
$DIMLUNIT
 70
     6
  9
$DIMLWD
 70
    -2
  9
$DIMLWE
 70
    -2
  9
$DIMTMOVE
 70
     0
  9
$LUNITS
 70
     2
  9
$LUPREC
 70
     4
  9
$SKETCHINC
 40
1.0
  9
$FILLETRAD
 40
0.0
  9
$AUNITS
 70
     0
  9
$AUPREC
 70
     0
  9
$MENU
  1
.
  9
$ELEVATION
 40
0.0
  9
$PELEVATION
 40
0.0
  9
$THICKNESS
 40
0.0
  9
$LIMCHECK
 70
     0
  9
$CHAMFERA
 40
30.0
  9
$CHAMFERB
 40
30.0
  9
$CHAMFERC
 40
20.0
  9
$CHAMFERD
 40
0.0
  9
$SKPOLY
 70
     0
  9
$TDCREATE
 40
2452044.392230162
  9
$TDUCREATE
 40
2452044.267230162
  9
$TDUPDATE
 40
2453906.443979849
  9
$TDUUPDATE
 40
2453906.318979850
  9
$TDINDWG
 40
0.5379248148
  9
$TDUSRTIMER
 40
0.5379235532
  9
$USRTIMER
 70
     1
  9
$ANGBASE
 50
0.0
  9
$ANGDIR
 70
     0
  9
$PDMODE
 70
     0
  9
$PDSIZE
 40
0.0
  9
$PLINEWID
 40
0.0
  9
$SPLFRAME
 70
     0
  9
$SPLINETYPE
 70
     6
  9
$SPLINESEGS
 70
     8
  9
$HANDSEED
  5
E5
  9
$SURFTAB1
 70
     6
  9
$SURFTAB2
 70
     6
  9
$SURFTYPE
 70
     6
  9
$SURFU
 70
     6
  9
$SURFV
 70
     6
  9
$UCSBASE
  2

  9
$UCSNAME
  2

  9
$UCSORG
 10
0.0
 20
0.0
 30
0.0
  9
$UCSXDIR
 10
1.0
 20
0.0
 30
0.0
  9
$UCSYDIR
 10
0.0
 20
1.0
 30
0.0
  9
$UCSORTHOREF
  2

  9
$UCSORTHOVIEW
 70
     0
  9
$UCSORGTOP
 10
0.0
 20
0.0
 30
0.0
  9
$UCSORGBOTTOM
 10
0.0
 20
0.0
 30
0.0
  9
$UCSORGLEFT
 10
0.0
 20
0.0
 30
0.0
  9
$UCSORGRIGHT
 10
0.0
 20
0.0
 30
0.0
  9
$UCSORGFRONT
 10
0.0
 20
0.0
 30
0.0
  9
$UCSORGBACK
 10
0.0
 20
0.0
 30
0.0
  9
$PUCSBASE
  2

  9
$PUCSNAME
  2

  9
$PUCSORG
 10
0.0
 20
0.0
 30
0.0
  9
$PUCSXDIR
 10
1.0
 20
0.0
 30
0.0
  9
$PUCSYDIR
 10
0.0
 20
1.0
 30
0.0
  9
$PUCSORTHOREF
  2

  9
$PUCSORTHOVIEW
 70
     0
  9
$PUCSORGTOP
 10
0.0
 20
0.0
 30
0.0
  9
$PUCSORGBOTTOM
 10
0.0
 20
0.0
 30
0.0
  9
$PUCSORGLEFT
 10
0.0
 20
0.0
 30
0.0
  9
$PUCSORGRIGHT
 10
0.0
 20
0.0
 30
0.0
  9
$PUCSORGFRONT
 10
0.0
 20
0.0
 30
0.0
  9
$PUCSORGBACK
 10
0.0
 20
0.0
 30
0.0
  9
$USERI1
 70
     0
  9
$USERI2
 70
     0
  9
$USERI3
 70
     0
  9
$USERI4
 70
     0
  9
$USERI5
 70
     0
  9
$USERR1
 40
0.0
  9
$USERR2
 40
0.0
  9
$USERR3
 40
0.0
  9
$USERR4
 40
0.0
  9
$USERR5
 40
0.0
  9
$WORLDVIEW
 70
     1
  9
$SHADEDGE
 70
     3
  9
$SHADEDIF
 70
    70
  9
$TILEMODE
 70
     1
  9
$MAXACTVP
 70
    48
  9
$PINSBASE
 10
0.0
 20
0.0
 30
0.0
  9
$PLIMCHECK
 70
     0
  9
$PEXTMIN
 10
1.000000000000000E+20
 20
1.000000000000000E+20
 30
1.000000000000000E+20
  9
$PEXTMAX
 10
-1.000000000000000E+20
 20
-1.000000000000000E+20
 30
-1.000000000000000E+20
  9
$PLIMMIN
 10
0.0
 20
0.0
  9
$PLIMMAX
 10
420.0
 20
297.0
  9
$UNITMODE
 70
     0
  9
$VISRETAIN
 70
     1
  9
$PLINEGEN
 70
     0
  9
$PSLTSCALE
 70
     1
  9
$TREEDEPTH
 70
  3020
  9
$CMLSTYLE
  2
STANDARD
  9
$CMLJUST
 70
     0
  9
$CMLSCALE
 40
20.0
  9
$PROXYGRAPHICS
 70
     1
  9
$MEASUREMENT
 70
     1
  9
$CELWEIGHT
370
    -1
  9
$ENDCAPS
280
     0
  9
$JOINSTYLE
280
     0
  9
$LWDISPLAY
290
     0
  9
$INSUNITS
 70
     0
  9
$HYPERLINKBASE
  1

  9
$STYLESHEET
  1

  9
$XEDIT
290
     1
  9
$CEPSNTYPE
380
     0
  9
$PSTYLEMODE
290
     1
  9
$FINGERPRINTGUID
  2
{DFB77EDF-71BF-4C3F-AE2E-ECE0062F40CF}
  9
$VERSIONGUID
  2
{6EB8D3C6-A7C8-497E-9B03-E38BD5DF1701}
  9
$EXTNAMES
290
     1
  9
$PSVPSCALE
 40
0.0
  9
$OLESTARTUP
290
     0
  0
ENDSEC
  0
SECTION
  2
CLASSES
  0
CLASS
  1
LWPOLYLINE
  2
AcDbPolyline
  3
AutoCAD 2000
 90
    32768
280
     0
281
     1
  0
CLASS
  1
DICTIONARYVAR
  2
AcDbDictionaryVar
  3
AutoCAD 2000
 90
        0
280
     0
281
     0
  0
CLASS
  1
HATCH
  2
AcDbHatch
  3
AutoCAD 2000
 90
    32768
280
     0
281
     1
  0
CLASS
  1
ACDBDICTIONARYWDFLT
  2
AcDbDictionaryWithDefault
  3
AutoCAD 2000
 90
        0
280
     0
281
     0
  0
CLASS
  1
ACDBPLACEHOLDER
  2
AcDbPlaceHolder
  3
AutoCAD 2000
 90
        0
280
     0
281
     0
  0
CLASS
  1
LAYOUT
  2
AcDbLayout
  3
AutoCAD 2000
 90
        0
280
     0
281
     0
  0
ENDSEC
  0
SECTION
  2
TABLES
  0
TABLE
  2
VPORT
  5
1A
330
0
100
AcDbSymbolTable
 70
     2
  0
VPORT
  5
E4
330
1A
100
AcDbSymbolTableRecord
100
AcDbViewportTableRecord
  2
*Active
 70
     0
 10
0.0
 20
0.0
 11
1.0
 21
1.0
 12
5337.541803750845
 22
2075.851797017199
 13
0.0
 23
0.0
 14
10.0
 24
10.0
 15
10.0
 25
10.0
 16
0.0
 26
-0.0000000000000001
 36
0.9999999999999998
 17
0.0
 27
0.0
 37
0.0
 40
1961.326066476606
 41
2.076119402985074
 42
50.0
 43
0.0
 44
0.0
 50
0.0
 51
0.0
 71
     0
 72
 20000
 73
     1
 74
     1
 75
     0
 76
     0
 77
     0
 78
     0
281
     0
 65
     1
110
0.0
120
0.0
130
0.0
111
1.0
121
0.0
131
0.0
112
0.0
122
1.0
132
0.0
 79
     0
146
0.0
  0
ENDTAB
  0
TABLE
  2
LTYPE
  5
15
330
0
100
AcDbSymbolTable
 70
     2
  0
LTYPE
  5
16
330
15
100
AcDbSymbolTableRecord
100
AcDbLinetypeTableRecord
  2
BYBLOCK
 70
     0
  3

 72
    65
 73
     0
 40
0.0
  0
LTYPE
  5
17
330
15
100
AcDbSymbolTableRecord
100
AcDbLinetypeTableRecord
  2
BYLAYER
 70
     0
  3

 72
    65
 73
     0
 40
0.0
  0
LTYPE
  5
8
330
15
100
AcDbSymbolTableRecord
100
AcDbLinetypeTableRecord
  2
CONTINUOUS
 70
     0
  3
Solid line
 72
    65
 73
     0
 40
0.0
  0
LTYPE
  5
2F
330
15
100
AcDbSymbolTableRecord
100
AcDbLinetypeTableRecord
  2
DASHED
 70
     0
  3
Dashed __ __ __ __ __ __ __ __ __ __ __ __ __ _
 72
    65
 73
     2
 40
0.75
 49
0.5
 74
     0
 49
-0.25
 74
     0
  0
ENDTAB
  0
TABLE
  2
LAYER
  5
10
330
0
100
AcDbSymbolTable
 70
     3
  0
LAYER
  5
4
330
10
100
AcDbSymbolTableRecord
100
AcDbLayerTableRecord
  2
0
 70
     0
 62
     7
  6
CONTINUOUS
370
    -3
390
5
  0
LAYER
  5
2A
330
10
100
AcDbSymbolTableRecord
100
AcDbLayerTableRecord
  2
MAINOS
 70
     0
 62
     7
  6
CONTINUOUS
370
    -3
390
5
  0
LAYER
  5
39
330
10
100
AcDbSymbolTableRecord
100
AcDbLayerTableRecord
  2
DEFPOINTS
 70
     0
 62
     7
  6
CONTINUOUS
290
     0
370
    -3
390
5
  0
ENDTAB
  0
TABLE
  2
STYLE
  5
11
330
0
100
AcDbSymbolTable
 70
     2
  0
STYLE
  5
12
330
11
100
AcDbSymbolTableRecord
100
AcDbTextStyleTableRecord
  2
STANDARD
 70
     0
 40
0.0
 41
1.0
 50
0.0
 71
     0
 42
2.5
  3

  4

1001
ACAD
1000
AGaramond
1071
 33554450
  0
STYLE
  5
1F
330
11
100
AcDbSymbolTableRecord
100
AcDbTextStyleTableRecord
  2
KUVASTO
 70
     0
 40
70.0
 41
1.0
 50
0.0
 71
     0
 42
70.0
  3
Foustbk_.ttf
  4

1001
ACAD
1000
FoundrySterling-Book
1071
        2
  0
ENDTAB
  0
TABLE
  2
VIEW
  5
18
330
0
100
AcDbSymbolTable
 70
     0
  0
ENDTAB
  0
TABLE
  2
UCS
  5
19
330
0
100
AcDbSymbolTable
 70
     0
  0
ENDTAB
  0
TABLE
  2
APPID
  5
1C
330
0
100
AcDbSymbolTable
 70
     1
  0
APPID
  5
13
330
1C
100
AcDbSymbolTableRecord
100
AcDbRegAppTableRecord
  2
ACAD
 70
     0
  0
ENDTAB
  0
TABLE
  2
DIMSTYLE
  5
1D
330
0
100
AcDbSymbolTable
 70
     1
100
AcDbDimStyleTable
 71
     1
340
1E
  0
DIMSTYLE
105
1E
102
{ACAD_REACTORS
330
5C
330
30
330
4F
102
}
330
1D
100
AcDbSymbolTableRecord
100
AcDbDimStyleTableRecord
  2
STANDARD
 70
     0
 40
0.0
 41
70.0
 42
0.625
 43
3.75
 44
1.25
 73
     0
 77
     1
 78
     8
140
60.0
141
2.5
143
0.0394
147
20.0
171
     4
172
     1
173
     1
176
     3
177
     3
178
     5
273
     8
274
     4
277
     6
340
1F
341
20
343
20
344
20
  0
ENDTAB
  0
TABLE
  2
BLOCK_RECORD
  5
1
330
0
100
AcDbSymbolTable
 70
     5
  0
BLOCK_RECORD
  5
2
330
1
100
AcDbSymbolTableRecord
100
AcDbBlockTableRecord
  2
*MODEL_SPACE
340
A
  0
BLOCK_RECORD
  5
C
330
1
100
AcDbSymbolTableRecord
100
AcDbBlockTableRecord
  2
*PAPER_SPACE
340
F
  0
BLOCK_RECORD
  5
20
330
1
100
AcDbSymbolTableRecord
100
AcDbBlockTableRecord
  2
_OPEN
340
0
102
{BLKREFS
331
35
331
36
331
4D
331
4B
331
7B
331
7A
331
6E
331
46
331
61
331
62
331
54
331
55
331
A2
331
A3
331
AE
331
AF
331
C8
331
C9
331
D3
331
D4
331
DC
331
DD
102
}
  0
BLOCK_RECORD
  5
31
330
1
100
AcDbSymbolTableRecord
100
AcDbBlockTableRecord
  2
*D1
340
0
  0
BLOCK_RECORD
  5
9E
330
1
100
AcDbSymbolTableRecord
100
AcDbBlockTableRecord
  2
*D2
340
0
  0
BLOCK_RECORD
  5
AA
330
1
100
AcDbSymbolTableRecord
100
AcDbBlockTableRecord
  2
*D3
340
0
  0
BLOCK_RECORD
  5
C4
330
1
100
AcDbSymbolTableRecord
100
AcDbBlockTableRecord
  2
*D4
340
0
  0
ENDTAB
  0
ENDSEC
  0
SECTION
  2
BLOCKS
  0
BLOCK
  5
3
330
2
100
AcDbEntity
  8
0
100
AcDbBlockBegin
  2
*MODEL_SPACE
 70
     0
 10
0.0
 20
0.0
 30
0.0
  3
*MODEL_SPACE
  1

  0
ENDBLK
  5
9
330
2
100
AcDbEntity
  8
0
100
AcDbBlockEnd
  0
BLOCK
  5
D
330
C
100
AcDbEntity
 67
     1
  8
0
100
AcDbBlockBegin
  2
*PAPER_SPACE
 70
     0
 10
0.0
 20
0.0
 30
0.0
  3
*PAPER_SPACE
  1

  0
ENDBLK
  5
E
330
C
100
AcDbEntity
 67
     1
  8
0
100
AcDbBlockEnd
  0
BLOCK
  5
24
330
20
100
AcDbEntity
  8
0
100
AcDbBlockBegin
  2
_OPEN
 70
     0
 10
0.0
 20
0.0
 30
0.0
  3
_OPEN
  1

  0
LINE
  5
21
330
20
100
AcDbEntity
  8
0
  6
ByBlock
 62
     0
100
AcDbLine
 10
-1.0
 20
0.1666666666666666
 30
0.0
 11
0.0
 21
0.0
 31
0.0
  0
LINE
  5
22
330
20
100
AcDbEntity
  8
0
  6
ByBlock
 62
     0
100
AcDbLine
 10
0.0
 20
0.0
 30
0.0
 11
-1.0
 21
-0.1666666666666666
 31
0.0
  0
LINE
  5
23
330
20
100
AcDbEntity
  8
0
  6
ByBlock
 62
     0
100
AcDbLine
 10
0.0
 20
0.0
 30
0.0
 11
-1.0
 21
0.0
 31
0.0
  0
ENDBLK
  5
25
330
20
100
AcDbEntity
  8
0
100
AcDbBlockEnd
  0
BLOCK
  5
3C
330
31
100
AcDbEntity
  8
0
100
AcDbBlockBegin
  2
*D1
 70
     1
 10
0.0
 20
0.0
 30
0.0
  3
*D1
  1

  0
LINE
  5
32
330
31
100
AcDbEntity
  8
MAINOS
 62
     3
370
    -2
100
AcDbLine
 10
5247.899392092925
 20
1711.068966274669
 30
0.0
 11
5247.899392092925
 21
1685.578516666574
 31
0.0
  0
LINE
  5
33
330
31
100
AcDbEntity
  8
MAINOS
 62
     3
370
    -2
100
AcDbLine
 10
4347.946763015348
 20
1711.068966274671
 30
0.0
 11
4347.946763015348
 21
1685.578516666574
 31
0.0
  0
LINE
  5
34
330
31
100
AcDbEntity
  8
MAINOS
 62
     3
370
    -2
100
AcDbLine
 10
5177.899392092925
 20
1686.828516666574
 30
0.0
 11
4417.94676301535
 21
1686.828516666574
 31
0.0
  0
INSERT
  5
35
330
31
100
AcDbEntity
  8
MAINOS
 62
     3
370
    -2
100
AcDbBlockReference
  2
_OPEN
 10
5247.899392092925
 20
1686.828516666574
 30
0.0
 41
70.0
 42
70.0
 43
70.0
  0
INSERT
  5
36
330
31
100
AcDbEntity
  8
MAINOS
 62
     3
370
    -2
100
AcDbBlockReference
  2
_OPEN
 10
4347.946763015348
 20
1686.828516666574
 30
0.0
 41
70.0
 42
70.0
 43
70.0
 50
180.0
  0
MTEXT
  5
37
330
31
100
AcDbEntity
  8
MAINOS
 62
     5
100
AcDbMText
 10
4797.923077554137
 20
1744.939065799522
 30
0.0
 40
70.0
 41
0.0
 71
     5
 72
     1
  1
\A1;900
  7
KUVASTO
 73
     1
 44
1.0
  0
POINT
  5
38
330
31
100
AcDbEntity
  8
DEFPOINTS
 62
     0
100
AcDbPoint
 10
5247.899392092925
 20
1711.693966274668
 30
0.0
  0
POINT
  5
3A
330
31
100
AcDbEntity
  8
DEFPOINTS
 62
     0
100
AcDbPoint
 10
4347.946763015348
 20
1711.693966274672
 30
0.0
  0
POINT
  5
3B
330
31
100
AcDbEntity
  8
DEFPOINTS
 62
     0
100
AcDbPoint
 10
4347.946763015348
 20
1686.828516666574
 30
0.0
  0
ENDBLK
  5
3D
330
31
100
AcDbEntity
  8
0
100
AcDbBlockEnd
  0
BLOCK
  5
A8
330
9E
100
AcDbEntity
  8
0
100
AcDbBlockBegin
  2
*D2
 70
     1
 10
0.0
 20
0.0
 30
0.0
  3
*D2
  1

  0
LINE
  5
D0
330
9E
100
AcDbEntity
  8
MAINOS
 62
     3
370
    -2
100
AcDbLine
 10
5397.280276923812
 20
1854.299861045223
 30
0.0
 11
5428.290855536108
 21
1854.299861045223
 31
0.0
  0
LINE
  5
D1
330
9E
100
AcDbEntity
  8
MAINOS
 62
     3
370
    -2
100
AcDbLine
 10
5394.280276923813
 20
2344.999861045214
 30
0.0
 11
5428.290855536109
 21
2344.999861045214
 31
0.0
  0
LINE
  5
D2
330
9E
100
AcDbEntity
  8
MAINOS
 62
     3
370
    -2
100
AcDbLine
 10
5427.040855536109
 20
1924.299861045223
 30
0.0
 11
5427.040855536109
 21
2274.999861045214
 31
0.0
  0
INSERT
  5
D3
330
9E
100
AcDbEntity
  8
MAINOS
 62
     3
370
    -2
100
AcDbBlockReference
  2
_OPEN
 10
5427.040855536109
 20
1854.299861045223
 30
0.0
 41
70.0
 42
70.0
 43
70.0
 50
270.0
  0
INSERT
  5
D4
330
9E
100
AcDbEntity
  8
MAINOS
 62
     3
370
    -2
100
AcDbBlockReference
  2
_OPEN
 10
5427.040855536109
 20
2344.999861045214
 30
0.0
 41
70.0
 42
70.0
 43
70.0
 50
90.0
  0
MTEXT
  5
D5
330
9E
100
AcDbEntity
  8
MAINOS
 62
     5
100
AcDbMText
 10
5370.729011458148
 20
2099.649861045219
 30
0.0
 40
70.0
 41
0.0
 71
     5
 72
     1
  1
\A1;490
  7
KUVASTO
 11
0.0000000000000001
 21
1.0
 31
0.0
 73
     1
 44
1.0
  0
POINT
  5
D6
330
9E
100
AcDbEntity
  8
DEFPOINTS
 62
     0
100
AcDbPoint
 10
5396.655276923811
 20
1854.299861045223
 30
0.0
  0
POINT
  5
D7
330
9E
100
AcDbEntity
  8
DEFPOINTS
 62
     0
100
AcDbPoint
 10
5393.655276923813
 20
2344.999861045214
 30
0.0
  0
POINT
  5
D8
330
9E
100
AcDbEntity
  8
DEFPOINTS
 62
     0
100
AcDbPoint
 10
5427.040855536109
 20
2344.999861045214
 30
0.0
  0
ENDBLK
  5
A9
330
9E
100
AcDbEntity
  8
0
100
AcDbBlockEnd
  0
BLOCK
  5
B4
330
AA
100
AcDbEntity
  8
0
100
AcDbBlockBegin
  2
*D3
 70
     1
 10
0.0
 20
0.0
 30
0.0
  3
*D3
  1

  0
LINE
  5
D9
330
AA
100
AcDbEntity
  8
MAINOS
 62
     3
370
    -2
100
AcDbLine
 10
5558.125516873321
 20
2449.999861045215
 30
0.0
 11
5589.891988455013
 21
2449.999861045215
 31
0.0
  0
LINE
  5
DA
330
AA
100
AcDbEntity
  8
MAINOS
 62
     3
370
    -2
100
AcDbLine
 10
5558.125516873321
 20
1854.299861045223
 30
0.0
 11
5589.891988455012
 21
1854.299861045223
 31
0.0
  0
LINE
  5
DB
330
AA
100
AcDbEntity
  8
MAINOS
 62
     3
370
    -2
100
AcDbLine
 10
5588.641988455013
 20
2379.999861045215
 30
0.0
 11
5588.641988455012
 21
1924.299861045223
 31
0.0
  0
INSERT
  5
DC
330
AA
100
AcDbEntity
  8
MAINOS
 62
     3
370
    -2
100
AcDbBlockReference
  2
_OPEN
 10
5588.641988455013
 20
2449.999861045215
 30
0.0
 41
70.0
 42
70.0
 43
70.0
 50
90.0
  0
INSERT
  5
DD
330
AA
100
AcDbEntity
  8
MAINOS
 62
     3
370
    -2
100
AcDbBlockReference
  2
_OPEN
 10
5588.641988455012
 20
1854.299861045223
 30
0.0
 41
70.0
 42
70.0
 43
70.0
 50
270.0
  0
MTEXT
  5
DE
330
AA
100
AcDbEntity
  8
MAINOS
 62
     5
100
AcDbMText
 10
5522.937340778851
 20
2152.14986104522
 30
0.0
 40
70.0
 41
0.0
 71
     5
 72
     1
  1
\A1;(595)
  7
KUVASTO
 11
0.0000000000000001
 21
1.0
 31
0.0
 73
     1
 44
1.0
  0
POINT
  5
DF
330
AA
100
AcDbEntity
  8
DEFPOINTS
 62
     0
100
AcDbPoint
 10
5557.500516873322
 20
2449.999861045215
 30
0.0
  0
POINT
  5
E0
330
AA
100
AcDbEntity
  8
DEFPOINTS
 62
     0
100
AcDbPoint
 10
5557.500516873322
 20
1854.299861045223
 30
0.0
  0
POINT
  5
E1
330
AA
100
AcDbEntity
  8
DEFPOINTS
 62
     0
100
AcDbPoint
 10
5588.641988455012
 20
1854.299861045223
 30
0.0
  0
ENDBLK
  5
B5
330
AA
100
AcDbEntity
  8
0
100
AcDbBlockEnd
  0
BLOCK
  5
CE
330
C4
100
AcDbEntity
  8
0
100
AcDbBlockBegin
  2
*D4
 70
     1
 10
0.0
 20
0.0
 30
0.0
  3
*D4
  1

  0
LINE
  5
C5
330
C4
100
AcDbEntity
  8
MAINOS
 62
     3
370
    -2
100
AcDbLine
 10
5086.883298684263
 20
1854.299861045223
 30
0.0
 11
6007.391493378491
 21
1854.299861045222
 31
0.0
  0
LINE
  5
C6
330
C4
100
AcDbEntity
  8
MAINOS
 62
     3
370
    -2
100
AcDbLine
 10
5145.036234823535
 20
2344.999861045212
 30
0.0
 11
6007.391493378492
 21
2344.999861045212
 31
0.0
  0
LINE
  5
C7
330
C4
100
AcDbEntity
  8
MAINOS
 62
     3
370
    -2
100
AcDbLine
 10
6006.141493378492
 20
1924.299861045223
 30
0.0
 11
6006.141493378493
 21
2274.999861045213
 31
0.0
  0
INSERT
  5
C8
330
C4
100
AcDbEntity
  8
MAINOS
 62
     3
370
    -2
100
AcDbBlockReference
  2
_OPEN
 10
6006.141493378492
 20
1854.299861045222
 30
0.0
 41
70.0
 42
70.0
 43
70.0
 50
270.0
  0
INSERT
  5
C9
330
C4
100
AcDbEntity
  8
MAINOS
 62
     3
370
    -2
100
AcDbBlockReference
  2
_OPEN
 10
6006.141493378493
 20
2344.999861045212
 30
0.0
 41
70.0
 42
70.0
 43
70.0
 50
90.0
  0
MTEXT
  5
CA
330
C4
100
AcDbEntity
  8
MAINOS
 62
     5
100
AcDbMText
 10
5943.690219015674
 20
2099.649861045219
 30
0.0
 40
70.0
 41
0.0
 71
     5
 72
     1
  1
\A1;490,7
  7
KUVASTO
 11
0.0000000000000001
 21
1.0
 31
0.0
 73
     1
 44
1.0
  0
POINT
  5
CB
330
C4
100
AcDbEntity
  8
DEFPOINTS
 62
     0
100
AcDbPoint
 10
5086.258298684263
 20
1854.299861045223
 30
0.0
  0
POINT
  5
CC
330
C4
100
AcDbEntity
  8
DEFPOINTS
 62
     0
100
AcDbPoint
 10
5144.411234823535
 20
2344.999861045212
 30
0.0
  0
POINT
  5
CD
330
C4
100
AcDbEntity
  8
DEFPOINTS
 62
     0
100
AcDbPoint
 10
6006.141493378493
 20
2344.999861045212
 30
0.0
  0
ENDBLK
  5
CF
330
C4
100
AcDbEntity
  8
0
100
AcDbBlockEnd
  0
ENDSEC
  0
SECTION
  2
ENTITIES
  0
LWPOLYLINE
  5
2C
330
2
100
AcDbEntity
  8
MAINOS
100
AcDbPolyline
 90
       31
 70
     0
 43
0.0
 10
4560.198949827904
 20
1854.299861045221
 10
4560.198949827904
 20
1899.299861045221
 10
4437.946763015347
 20
1899.299861045221
 10
4437.946763015347
 20
1912.447231967639
 10
4392.946763015348
 20
1912.447231967641
 10
4392.946763015349
 20
2096.223546506426
 10
4392.946763015349
 20
2299.999861045217
 10
4557.923077554138
 20
2299.999861045213
 10
4797.92307755414
 20
2299.999861045213
 10
5037.923077554141
 20
2299.999861045213
 10
5202.899392092926
 20
2299.999861045213
 10
5202.899392092923
 20
2096.223546506426
 10
5202.899392092925
 20
1912.447231967636
 10
5157.899392092932
 20
1912.447231967636
 10
5157.899392092932
 20
1899.299861045221
 10
5035.647205275593
 20
1899.299861045221
 10
5035.647205275593
 20
1854.299861045221
 10
5136.869392092933
 20
1854.299861045224
 42
0.1309279104373941
 10
5157.899392092927
 20
1864.069861045221
 10
5157.899392092932
 20
1867.447231967638
 10
5247.899392092932
 20
1867.447231967639
 10
5247.899392092932
 20
2344.999861045214
 10
5040.923077554137
 20
2344.999861045212
 10
4800.923077554134
 20
2344.999861045214
 10
4560.923077554135
 20
2344.999861045214
 10
4347.946763015348
 20
2344.999861045216
 10
4347.946763015348
 20
1867.447231967641
 10
4437.946763015347
 20
1867.447231967639
 10
4437.946763015347
 20
1864.069861045227
 42
0.1309279104373939
 10
4458.976763015344
 20
1854.299861045226
 10
4560.198949925116
 20
1854.299861045221
  0
LWPOLYLINE
  5
2D
330
2
100
AcDbEntity
  8
0
  6
Continuous
 62
     7
370
    15
100
AcDbPolyline
 90
        9
 70
     0
 43
0.0
 10
4569.59993787587
 20
1844.299861045223
 10
4337.923077554136
 20
1844.299861045223
 10
4337.923077554136
 20
2357.447231967638
 10
4560.923077554135
 20
2357.447231967638
 10
4800.923077554138
 20
2357.447231967638
 10
5040.923077554138
 20
2357.447231967643
 10
5257.923077554141
 20
2357.447231967639
 10
5257.923077554135
 20
1844.299861045223
 10
5026.246217232404
 20
1844.299861045223
  0
LWPOLYLINE
  5
2E
330
2
100
AcDbEntity
  8
MAINOS
  6
DASHED
100
AcDbPolyline
 90
        4
 70
     0
 43
0.0
 10
5247.923077554137
 20
2310.193546506426
 10
5247.923077554137
 20
2449.999861045216
 10
4347.923077554137
 20
2449.999861045213
 10
4347.923077554137
 20
2310.193546506426
  0
DIMENSION
  5
30
330
2
100
AcDbEntity
  8
MAINOS
100
AcDbDimension
  2
*D1
 10
4347.946763015348
 20
1686.828516666574
 30
0.0
 11
4797.923077554137
 21
1744.939065799522
 31
0.0
  1
900
 71
     5
 42
899.9526290775765
  3
STANDARD
100
AcDbAlignedDimension
 13
5247.899392092925
 23
1711.693966274668
 33
0.0
 14
4347.946763015348
 24
1711.693966274672
 34
0.0
100
AcDbRotatedDimension
1001
ACAD
1000
DSTYLE
1002
{
1070
    40
1040
1.0
1002
}
  0
LWPOLYLINE
  5
3E
330
2
100
AcDbEntity
  8
MAINOS
 62
     6
100
AcDbPolyline
 90
        4
 70
     0
 43
0.0
 10
4302.946763015349
 20
1969.999861045214
 10
4302.946763015351
 20
2389.999861045216
 10
5292.899392092924
 20
2389.999861045216
 10
5292.899392092924
 20
1969.999861045214
  0
LWPOLYLINE
  5
3F
330
2
100
AcDbEntity
  8
MAINOS
100
AcDbPolyline
 90
       49
 70
     0
 43
0.0
 10
5015.158092271273
 20
1969.999861045215
 10
4996.393519693227
 20
1969.999861045215
 10
4996.393519693227
 20
1924.999861045213
 10
5033.306552378956
 20
1924.999861045213
 10
5142.899392092925
 20
1924.999861045213
 10
5187.899392092925
 20
1924.999861045213
 10
5187.899392092925
 20
2239.999861045212
 10
5187.899392092925
 20
2284.999861045212
 10
5067.899392092925
 20
2284.999861045212
 10
5022.899392092925
 20
2284.999861045212
 10
4797.899392092924
 20
2284.999861045212
 10
4572.899392092923
 20
2284.999861045212
 10
4527.899392092925
 20
2284.999861045212
 10
4407.899392092924
 20
2284.999861045212
 10
4407.899392092924
 20
2239.999861045214
 10
4407.899392092924
 20
1924.999861045213
 10
4452.899392092924
 20
1924.999861045213
 10
4562.539602729337
 20
1924.999861045213
 10
4599.452635415047
 20
1924.999861045213
 10
4599.452635415047
 20
1969.999861045215
 10
4580.688062837
 20
1969.999861045215
 10
4572.899392092925
 20
1969.999861045215
 10
4572.899392092925
 20
2019.10841411025
 10
4578.389648293962
 20
2013.22083515024
 10
4592.899392092921
 20
2012.206215024261
 10
4592.899392092921
 20
1994.499861045217
 10
4607.899392092921
 20
1994.499861045215
 10
4609.899392092922
 20
1996.499861045217
 10
4609.899392092922
 20
2022.499861045216
 10
4611.899392092921
 20
2024.499861045216
 10
4615.899392092923
 20
2024.499861045216
 10
4617.899392092923
 20
2026.499861045217
 10
4617.899392092924
 20
2196.499861045216
 10
4797.399392092924
 20
2196.499861045215
 10
4801.399392092925
 20
2196.499861045216
 10
4977.399392092924
 20
2196.499861045216
 10
4977.899392092925
 20
2196.499861045216
 10
4977.899392092925
 20
2026.499861045214
 10
4979.899392092925
 20
2024.499861045215
 10
4983.899392092926
 20
2024.499861045215
 10
4985.899392092925
 20
2022.499861045214
 10
4985.899392092925
 20
1996.499861045215
 10
4987.899392092925
 20
1994.499861045215
 10
5002.899392092925
 20
1994.499861045215
 10
5002.899392092925
 20
2012.206215024261
 10
5017.409135891885
 20
2013.220835150239
 10
5022.899392092925
 20
2019.108414110254
 10
5022.899392092925
 20
1969.999861045214
 10
4996.393519693227
 20
1969.999861045213
  0
LINE
  5
40
330
2
100
AcDbEntity
  8
MAINOS
 62
     3
100
AcDbLine
 10
4230.54151698645
 20
2189.999861045214
 30
0.0
 11
4230.54151698645
 21
2119.999861045214
 31
0.0
  0
LWPOLYLINE
  5
41
330
2
100
AcDbEntity
  8
0
  6
Continuous
 62
     7
370
    15
100
AcDbPolyline
 90
        4
 70
     1
 43
0.0
 10
4452.899392092924
 20
2239.999861045214
 10
4527.899392092924
 20
2239.999861045212
 10
4527.899392092925
 20
1969.999861045214
 10
4452.899392092925
 20
1969.999861045213
  0
MTEXT
  5
42
330
2
100
AcDbEntity
  8
MAINOS
 62
     5
100
AcDbMText
 10
4154.032690284332
 20
1746.911609152125
 30
0.0
 40
70.0
 41
0.0
 71
     5
 72
     1
  1
\A1;45
  7
KUVASTO
 73
     1
 44
1.0
  0
LINE
  5
43
330
2
100
AcDbEntity
  8
MAINOS
 62
     3
100
AcDbLine
 10
4162.946763015347
 20
1686.828516666574
 30
0.0
 11
4081.028536658751
 21
1686.828516666574
 31
0.0
  0
LINE
  5
44
330
2
100
AcDbEntity
  8
MAINOS
 62
     3
100
AcDbLine
 10
4347.946763015348
 20
1686.828516666574
 30
0.0
 11
4302.946763015348
 21
1686.828516666574
 31
0.0
  0
LINE
  5
45
330
2
100
AcDbEntity
  8
MAINOS
 62
     3
100
AcDbLine
 10
4232.946763015347
 20
1686.828516666574
 30
0.0
 11
4162.946763015347
 21
1686.828516666574
 31
0.0
  0
INSERT
  5
46
330
2
100
AcDbEntity
  8
MAINOS
 62
     3
100
AcDbBlockReference
  2
_OPEN
 10
4302.946763015348
 20
1686.828516666574
 30
0.0
 41
-70.0
 42
70.0
 43
70.0
 50
180.0
  0
LINE
  5
47
330
2
100
AcDbEntity
  8
MAINOS
 62
     3
100
AcDbLine
 10
4302.946763015348
 20
1711.068966274669
 30
0.0
 11
4302.946763015348
 21
1685.578516666574
 31
0.0
  0
LINE
  5
48
330
2
100
AcDbEntity
  8
MAINOS
 62
     3
100
AcDbLine
 10
4230.54151698645
 20
2519.999861045215
 30
0.0
 11
4230.54151698645
 21
2589.999861045214
 31
0.0
  0
MTEXT
  5
49
330
2
100
AcDbEntity
  8
MAINOS
 62
     5
100
AcDbMText
 10
4173.43164762252
 20
2352.280649602453
 30
0.0
 40
70.0
 41
0.0
 71
     5
 72
     1
  1
190
  7
KUVASTO
 11
0.0000000000000001
 21
1.0
 31
0.0
 73
     1
 44
1.0
  0
LINE
  5
4A
330
2
100
AcDbEntity
  8
MAINOS
 62
     3
100
AcDbLine
 10
4230.54151698645
 20
2449.999861045215
 30
0.0
 11
4230.54151698645
 21
2259.999861045215
 31
0.0
  0
INSERT
  5
4B
330
2
100
AcDbEntity
  8
MAINOS
 62
     3
100
AcDbBlockReference
  2
_OPEN
 10
4230.54151698645
 20
2259.999861045215
 30
0.0
 41
70.0
 42
70.0
 43
70.0
 50
90.0
  0
LINE
  5
4C
330
2
100
AcDbEntity
  8
MAINOS
 62
     3
100
AcDbLine
 10
4255.648377746369
 20
2259.999861045215
 30
0.0
 11
4229.29151698645
 21
2259.999861045215
 31
0.0
  0
INSERT
  5
4D
330
2
100
AcDbEntity
  8
MAINOS
 62
     3
100
AcDbBlockReference
  2
_OPEN
 10
4230.54151698645
 20
2449.999861045215
 30
0.0
 41
70.0
 42
70.0
 43
70.0
 50
270.0
  0
LINE
  5
4E
330
2
100
AcDbEntity
  8
MAINOS
 62
     3
100
AcDbLine
 10
4255.648377746369
 20
2449.999861045215
 30
0.0
 11
4229.29151698645
 21
2449.999861045215
 31
0.0
  0
DIMENSION
  5
4F
330
2
100
AcDbEntity
  8
MAINOS
100
AcDbDimension
  2
*D3
 10
5588.641988455012
 20
1854.299861045223
 30
0.0
 11
5522.937340778851
 21
2152.14986104522
 31
0.0
 70
    32
  1
(595)
 71
     5
 42
595.6999999999923
  3
STANDARD
100
AcDbAlignedDimension
 13
5557.500516873322
 23
2449.999861045215
 33
0.0
 14
5557.500516873322
 24
1854.299861045223
 34
0.0
 50
90.0
100
AcDbRotatedDimension
1001
ACAD
1000
DSTYLE
1002
{
1070
    40
1040
1.0
1002
}
  0
DIMENSION
  5
5C
330
2
100
AcDbEntity
  8
MAINOS
100
AcDbDimension
  2
*D2
 10
5427.040855536109
 20
2344.999861045214
 30
0.0
 11
5370.729011458148
 21
2099.649861045219
 31
0.0
 70
    32
  1
490
 71
     5
 42
490.6999999999909
  3
STANDARD
100
AcDbAlignedDimension
 13
5396.655276923811
 23
1854.299861045223
 33
0.0
 14
5393.655276923813
 24
2344.999861045214
 34
0.0
 50
90.0
100
AcDbRotatedDimension
1001
ACAD
1000
DSTYLE
1002
{
1070
    40
1040
1.0
1002
}
  0
LWPOLYLINE
  5
69
330
2
100
AcDbEntity
  8
0
  6
Continuous
 62
     7
370
    15
100
AcDbPolyline
 90
        4
 70
     1
 43
0.0
 10
4592.899392092923
 20
2120.293507066171
 10
4572.899392092925
 20
2118.894970827301
 10
4572.899392092925
 20
2184.604751263131
 10
4592.899392092924
 20
2183.206215024261
  0
LWPOLYLINE
  5
6A
330
2
100
AcDbEntity
  8
0
  6
Continuous
 62
     7
370
    15
100
AcDbPolyline
 90
        4
 70
     1
 43
0.0
 10
5142.899392092925
 20
1969.999861045214
 10
5067.899392092925
 20
1969.999861045215
 10
5067.899392092925
 20
2239.999861045212
 10
5142.899392092925
 20
2239.999861045212
  0
LWPOLYLINE
  5
6B
330
2
100
AcDbEntity
  8
0
  6
Continuous
 62
     7
370
    15
100
AcDbPolyline
 90
        4
 70
     1
 43
0.0
 10
5002.899392092924
 20
2183.206215024261
 10
5022.899392092925
 20
2184.604751263131
 10
5022.899392092926
 20
2118.8949708273
 10
5002.899392092924
 20
2120.29350706617
  0
LINE
  5
6C
330
2
100
AcDbEntity
  8
MAINOS
 62
     3
100
AcDbLine
 10
5362.899392092926
 20
1686.828516666574
 30
0.0
 11
5432.899392092926
 21
1686.828516666574
 31
0.0
  0
MTEXT
  5
6D
330
2
100
AcDbEntity
  8
MAINOS
 62
     5
100
AcDbMText
 10
5436.818524463103
 20
1746.911609152125
 30
0.0
 40
70.0
 41
0.0
 71
     5
 72
     1
  1
\A1;45
  7
KUVASTO
 73
     1
 44
1.0
  0
INSERT
  5
6E
330
2
100
AcDbEntity
  8
MAINOS
 62
     3
100
AcDbBlockReference
  2
_OPEN
 10
5292.899392092925
 20
1686.828516666574
 30
0.0
 41
70.0
 42
70.0
 43
70.0
 50
180.0
  0
LINE
  5
6F
330
2
100
AcDbEntity
  8
MAINOS
 62
     3
100
AcDbLine
 10
5247.899392092925
 20
1686.828516666574
 30
0.0
 11
5292.899392092926
 21
1686.828516666574
 31
0.0
  0
LINE
  5
70
330
2
100
AcDbEntity
  8
MAINOS
 62
     3
100
AcDbLine
 10
5292.899392092926
 20
1711.068966274669
 30
0.0
 11
5292.899392092926
 21
1685.578516666574
 31
0.0
  0
LWPOLYLINE
  5
71
330
2
100
AcDbEntity
  8
0
  6
Continuous
 62
     7
370
    15
100
AcDbPolyline
 90
       35
 70
     0
 43
0.0
 10
4562.539602729337
 20
1924.999861045213
 10
4569.958192233589
 20
1840.20499499881
 42
0.3888787318516714
 10
4572.946776327863
 20
1837.466462227067
 10
4594.523077554137
 20
1837.466462227067
 10
4615.768430706226
 20
1837.466462227067
 10
4621.637316310629
 20
1837.466462227067
 10
4974.208838797643
 20
1837.466462227067
 10
4980.077724402047
 20
1837.466462227067
 10
4997.023077554132
 20
1837.466462227067
 10
4997.023077554132
 20
1835.466462227067
 10
4986.567285232293
 20
1835.466462227067
 42
0.3964328273651259
 10
4984.571015635449
 20
1833.588559306137
 10
4982.721924527087
 20
1803.356186922276
 42
-0.401159381248533
 10
4981.200255455218
 20
1801.947959287499
 10
4890.363785743793
 20
1801.94775973158
 42
0.3394542588634026
 10
4888.431934091214
 20
1800.465397821785
 10
4888.153735168795
 20
1799.427145308705
 10
4885.996733459407
 20
1791.377105337257
 10
4885.996740947341
 20
1791.377077391913
 10
4886.111491061186
 20
1790.948824136863
 42
0.3394542588634027
 10
4888.043342713765
 20
1789.466462227067
 10
5008.717763810631
 20
1789.466462227067
 42
0.3394542588637701
 10
5012.581467115786
 20
1792.431186046657
 10
5012.724791012584
 20
1792.966078111441
 10
5012.810982319345
 20
1793.287748447446
 10
5011.544913486786
 20
1800.467981599927
 10
5011.54508846439
 20
1800.467981599927
 10
5009.691633345529
 20
1830.771704924742
 10
5009.51934715098
 20
1833.588559306137
 42
0.3964328273651259
 10
5007.523077554137
 20
1835.466462227067
 10
5006.927716262474
 20
1835.466462227067
 10
5006.927716262474
 20
1837.466462227067
 10
5022.89937878041
 20
1837.466462227067
 42
0.3888787318529981
 10
5025.887962874685
 20
1840.204994998822
 10
5033.306552378956
 20
1924.999861045213
  0
LWPOLYLINE
  5
72
330
2
100
AcDbEntity
  8
0
  6
Continuous
 62
     7
370
    15
100
AcDbPolyline
 90
       19
 70
     0
 43
0.0
 10
4580.166027779243
 20
1969.999861045215
 42
-0.7145234262566916
 10
4580.086887350767
 20
1975.387339757429
 10
4606.128176400673
 20
1982.854559231703
 42
0.3345953195021264
 10
4611.923077554137
 20
1990.544652799209
 10
4611.923077554137
 20
2007.466462227067
 10
4615.640966911007
 20
2007.141189056097
 42
-0.3888787318528868
 10
4617.923077554137
 20
2004.650702310868
 10
4617.923077554137
 20
1899.466462227067
 10
4619.986968782058
 20
1861.364353227066
 10
4623.850584319462
 20
1861.364353531189
 10
4975.859186521708
 20
1861.364353531189
 10
4977.923077646572
 20
1899.466462531189
 10
4977.923077646572
 20
2004.650702614991
 42
-0.3888787318528563
 10
4980.205188289703
 20
2007.14118936022
 10
4983.923077646574
 20
2007.466462531189
 10
4983.923077646574
 20
1990.544653103333
 42
0.3345953195021264
 10
4989.717978800038
 20
1982.854559535826
 10
5015.759267849944
 20
1975.387340061553
 42
-0.7145234262566916
 10
5015.680127421468
 20
1969.999861349338
  0
LWPOLYLINE
  5
73
330
2
100
AcDbEntity
  8
MAINOS
 62
     4
100
AcDbPolyline
 90
        2
 70
     0
 43
0.0
 10
4617.923077554137
 20
1924.999861045213
 10
4977.923077646572
 20
1924.999861045213
  0
LWPOLYLINE
  5
74
330
2
100
AcDbEntity
  8
0
  6
Continuous
 62
     7
370
    15
100
AcDbPolyline
 90
        4
 70
     1
 43
0.0
 10
4572.899392092925
 20
2099.104751263132
 10
4592.899392092923
 20
2097.706215024262
 10
4592.899392092921
 20
2034.793507066172
 10
4572.899392092925
 20
2033.394970827302
  0
LINE
  5
75
330
2
100
AcDbEntity
  8
0
  6
Continuous
 62
     7
370
    15
100
AcDbLine
 10
5022.899378780412
 20
1816.466462227067
 30
0.0
 11
5022.905502520432
 21
1816.466462227067
 31
0.0
  0
LWPOLYLINE
  5
76
330
2
100
AcDbEntity
  8
0
  6
Continuous
 62
     7
370
    15
100
AcDbPolyline
 90
        4
 70
     1
 43
0.0
 10
5002.899392092924
 20
2097.706215024261
 10
5022.899392092924
 20
2099.104751263131
 10
5022.899392092924
 20
2033.3949708273
 10
5002.899392092925
 20
2034.79350706617
  0
LINE
  5
77
330
2
100
AcDbEntity
  8
MAINOS
 62
     3
100
AcDbLine
 10
5432.899392092926
 20
1686.828516666574
 30
0.0
 11
5514.81761844952
 21
1686.828516666574
 31
0.0
  0
LINE
  5
78
330
2
100
AcDbEntity
  8
MAINOS
 62
     3
100
AcDbLine
 10
5394.905276923815
 20
2389.999861045216
 30
0.0
 11
5428.294279421534
 21
2389.999861045216
 31
0.0
  0
LINE
  5
79
330
2
100
AcDbEntity
  8
MAINOS
 62
     3
100
AcDbLine
 10
5394.905276923815
 20
2344.999861045214
 30
0.0
 11
5428.294279421534
 21
2344.999861045214
 31
0.0
  0
INSERT
  5
7A
330
2
100
AcDbEntity
  8
MAINOS
 62
     3
100
AcDbBlockReference
  2
_OPEN
 10
5427.044279421534
 20
2389.999861045216
 30
0.0
 41
70.0
 42
70.0
 43
70.0
 50
270.0
  0
INSERT
  5
7B
330
2
100
AcDbEntity
  8
MAINOS
 62
     3
100
AcDbBlockReference
  2
_OPEN
 10
5427.044279421534
 20
2344.999861045214
 30
0.0
 41
70.0
 42
70.0
 43
70.0
 50
90.0
  0
MTEXT
  5
7C
330
2
100
AcDbEntity
  8
MAINOS
 62
     5
100
AcDbMText
 10
5366.961186935983
 20
2533.918993415392
 30
0.0
 40
70.0
 41
0.0
 71
     5
 72
     1
  1
\A1;45
  7
KUVASTO
 11
0.0000000000000001
 21
1.0
 31
0.0
 73
     1
 44
1.0
  0
LWPOLYLINE
  5
7D
330
2
100
AcDbEntity
  8
0
  6
Continuous
 62
     7
370
    15
100
AcDbPolyline
 90
        9
 70
     1
 43
0.0
 10
5017.399392092924
 20
2204.499861045215
 10
5005.899392092924
 20
2204.499861045215
 10
5007.899392092924
 20
2206.499861045216
 10
5007.899392092924
 20
2221.499861045215
 10
4990.193038113879
 20
2221.499861045215
 10
4989.178417987901
 20
2236.009604844176
 10
4984.899392092924
 20
2239.999861045216
 10
5022.899392092924
 20
2239.999861045214
 10
5022.899392092926
 20
2198.999861045213
  0
CIRCLE
  5
7E
330
2
100
AcDbEntity
  8
MAINOS
 62
     6
100
AcDbCircle
 10
4797.923077554137
 20
2259.999861045215
 30
0.0
 40
75.0
  0
LWPOLYLINE
  5
7F
330
2
100
AcDbEntity
  8
0
  6
Continuous
 62
     7
370
    15
100
AcDbPolyline
 90
        4
 70
     1
 43
0.0
 10
4777.899392092924
 20
2239.999861045216
 10
4776.605746071969
 20
2221.499861045216
 10
4713.693038113879
 20
2221.499861045216
 10
4712.399392092924
 20
2239.999861045216
  0
LWPOLYLINE
  5
80
330
2
100
AcDbEntity
  8
0
  6
Continuous
 62
     7
370
    15
100
AcDbPolyline
 90
        9
 70
     1
 43
0.0
 10
4572.899392092923
 20
2198.999861045217
 10
4572.899392092923
 20
2239.999861045214
 10
4610.899392092924
 20
2239.999861045217
 10
4606.620366197947
 20
2236.009604844177
 10
4605.605746071969
 20
2221.499861045216
 10
4587.899392092924
 20
2221.499861045216
 10
4587.899392092924
 20
2206.499861045217
 10
4589.899392092924
 20
2204.499861045217
 10
4578.399392092924
 20
2204.499861045217
  0
LWPOLYLINE
  5
81
330
2
100
AcDbEntity
  8
0
  6
Continuous
 62
     7
370
    15
100
AcDbPolyline
 90
        4
 70
     1
 43
0.0
 10
4692.399392092924
 20
2239.999861045216
 10
4691.105746071969
 20
2221.499861045216
 10
4628.193038113879
 20
2221.499861045216
 10
4626.899392092925
 20
2239.999861045216
  0
LWPOLYLINE
  5
82
330
2
100
AcDbEntity
  8
0
  6
Continuous
 62
     7
370
    15
100
AcDbPolyline
 90
        4
 70
     1
 43
0.0
 10
4968.899392092924
 20
2239.999861045215
 10
4967.605746071971
 20
2221.499861045215
 10
4904.69303811388
 20
2221.499861045215
 10
4903.399392092924
 20
2239.999861045216
  0
LWPOLYLINE
  5
83
330
2
100
AcDbEntity
  8
0
  6
Continuous
 62
     7
370
    15
100
AcDbPolyline
 90
        4
 70
     1
 43
0.0
 10
4883.399392092925
 20
2239.999861045215
 10
4882.105746071969
 20
2221.499861045216
 10
4819.193038113879
 20
2221.499861045215
 10
4817.899392092924
 20
2239.999861045215
  0
LINE
  5
84
330
2
100
AcDbEntity
  8
MAINOS
 62
     3
100
AcDbLine
 10
4797.923077554137
 20
2234.999861045213
 30
0.0
 11
4797.923077554137
 21
2284.999861045214
 31
0.0
  0
LINE
  5
85
330
2
100
AcDbEntity
  8
MAINOS
 62
     3
100
AcDbLine
 10
4772.923077554137
 20
2259.999861045215
 30
0.0
 11
4822.923077554137
 21
2259.999861045215
 31
0.0
  0
LINE
  5
86
330
2
100
AcDbEntity
  8
MAINOS
 62
     3
100
AcDbLine
 10
5427.044279421534
 20
2529.999861045215
 30
0.0
 11
5427.044279421534
 21
2611.91808740181
 31
0.0
  0
LINE
  5
87
330
2
100
AcDbEntity
  8
MAINOS
 62
     3
100
AcDbLine
 10
5427.044279421534
 20
2274.999861045214
 30
0.0
 11
5427.044279421534
 21
2204.999861045215
 31
0.0
  0
LINE
  5
88
330
2
100
AcDbEntity
  8
MAINOS
 62
     3
100
AcDbLine
 10
5427.044279421534
 20
2344.999861045214
 30
0.0
 11
5427.044279421534
 21
2389.999861045216
 31
0.0
  0
LINE
  5
89
330
2
100
AcDbEntity
  8
MAINOS
 62
     3
100
AcDbLine
 10
5427.044279421534
 20
2459.999861045215
 30
0.0
 11
5427.044279421534
 21
2529.999861045215
 31
0.0
  0
ENDSEC
  0
SECTION
  2
OBJECTS
  0
DICTIONARY
  5
7
330
0
100
AcDbDictionary
281
     1
  3
ACAD_GROUP
350
27
  3
ACAD_LAYOUT
350
B
  3
ACAD_MLINESTYLE
350
28
  3
ACAD_PLOTSETTINGS
350
29
  3
ACAD_PLOTSTYLENAME
350
6
  3
AcDbVariableDictionary
350
8B
  0
DICTIONARY
  5
27
102
{ACAD_REACTORS
330
7
102
}
330
7
100
AcDbDictionary
281
     1
  0
DICTIONARY
  5
B
102
{ACAD_REACTORS
330
7
102
}
330
7
100
AcDbDictionary
281
     1
  3
Layout1
350
F
  3
Model
350
A
  0
DICTIONARY
  5
28
102
{ACAD_REACTORS
330
7
102
}
330
7
100
AcDbDictionary
281
     1
  3
STANDARD
350
2B
  0
DICTIONARY
  5
29
102
{ACAD_REACTORS
330
7
102
}
330
7
100
AcDbDictionary
281
     1
  0
ACDBDICTIONARYWDFLT
  5
6
102
{ACAD_REACTORS
330
7
102
}
330
7
100
AcDbDictionary
281
     1
  3
Normal
350
5
100
AcDbDictionaryWithDefault
340
5
  0
DICTIONARY
  5
8B
102
{ACAD_REACTORS
330
7
102
}
330
7
100
AcDbDictionary
281
     1
  3
DIMASSOC
350
8D
  3
HIDETEXT
350
8C
  0
LAYOUT
  5
F
102
{ACAD_REACTORS
330
B
102
}
330
B
100
AcDbPlotSettings
  1

  2
ASPA2
  4

  6

 40
0.0
 41
0.0
 42
0.0
 43
0.0
 44
0.0
 45
0.0
 46
0.0
 47
0.0
 48
0.0
 49
0.0
140
0.0
141
0.0
142
1.0
143
1.0
 70
   688
 72
     0
 73
     0
 74
     5
  7
acad.ctb
 75
    16
147
1.0
148
0.0
149
0.0
100
AcDbLayout
  1
Layout1
 70
     1
 71
     1
 10
0.0
 20
0.0
 11
420.0
 21
297.0
 12
0.0
 22
0.0
 32
0.0
 14
1.000000000000000E+20
 24
1.000000000000000E+20
 34
1.000000000000000E+20
 15
-1.000000000000000E+20
 25
-1.000000000000000E+20
 35
-1.000000000000000E+20
146
0.0
 13
0.0
 23
0.0
 33
0.0
 16
1.0
 26
0.0
 36
0.0
 17
0.0
 27
1.0
 37
0.0
 76
     0
330
C
  0
LAYOUT
  5
A
102
{ACAD_REACTORS
330
B
102
}
330
B
100
AcDbPlotSettings
  1

  2
Amyuni PDF Converter
  4
A4
  6

 40
6.720416545867919
 41
6.80509614944458
 42
6.889755249023437
 43
6.720428466796875
 44
209.9733276367186
 45
296.9259948730469
 46
3.759999999999998
 47
30.73999999999999
 48
3720.281263814993
 49
1232.478800346044
140
5939.432034169917
141
3120.876358500894
142
1.0
143
10.0
 70
 11956
 72
     1
 73
     1
 74
     4
  7
acad.ctb
 75
    20
147
0.1
148
-3720.281263814993
149
-1232.478800346044
100
AcDbLayout
  1
Model
 70
     1
 71
     0
 10
0.0
 20
0.0
 11
12.0
 21
9.0
 12
0.0
 22
0.0
 32
0.0
 14
0.0
 24
0.0
 34
0.0
 15
0.0
 25
0.0
 35
0.0
146
0.0
 13
0.0
 23
0.0
 33
0.0
 16
1.0
 26
0.0
 36
0.0
 17
0.0
 27
1.0
 37
0.0
 76
     0
330
2
  0
MLINESTYLE
  5
2B
102
{ACAD_REACTORS
330
28
102
}
330
28
100
AcDbMlineStyle
  2
STANDARD
 70
     0
  3

 62
   256
 51
90.0
 52
90.0
 71
     2
 49
0.5
 62
   256
  6
BYLAYER
 49
-0.5
 62
   256
  6
BYLAYER
  0
ACDBPLACEHOLDER
  5
5
102
{ACAD_REACTORS
330
6
102
}
330
6
  0
DICTIONARYVAR
  5
8D
102
{ACAD_REACTORS
330
8B
102
}
330
8B
100
DictionaryVariables
280
     0
  1
1
  0
DICTIONARYVAR
  5
8C
102
{ACAD_REACTORS
330
8B
102
}
330
8B
100
DictionaryVariables
280
     0
  1
1
  0
ENDSEC
  0
EOF
