  0
SECTION
  2
HEADER
  9
$ACADVER
  1
AC1015
  9
$ACADMAINTVER
 70
    14
  9
$DWGCODEPAGE
  3
ANSI_1252
  9
$INSBASE
 10
0.0
 20
0.0
 30
0.0
  9
$EXTMIN
 10
3991.028536658751
 20
1617.447146458429
 30
0.0
  9
$EXTMAX
 10
5690.30865512168
 20
2636.91808740181
 30
0.0
  9
$LIMMIN
 10
0.0
 20
0.0
  9
$LIMMAX
 10
420.0
 20
297.0
  9
$ORTHOMODE
 70
     1
  9
$REGENMODE
 70
     1
  9
$FILLMODE
 70
     1
  9
$QTEXTMODE
 70
     0
  9
$MIRRTEXT
 70
     1
  9
$LTSCALE
 40
50.0
  9
$ATTMODE
 70
     1
  9
$TEXTSIZE
 40
70.0
  9
$TRACEWID
 40
1.0
  9
$TEXTSTYLE
  7
KUVASTO
  9
$CLAYER
  8
MAINOS
  9
$CELTYPE
  6
BYLAYER
  9
$CECOLOR
 62
   256
  9
$CELTSCALE
 40
1.0
  9
$DISPSILH
 70
     1
  9
$DIMSCALE
 40
0.0
  9
$DIMASZ
 40
70.0
  9
$DIMEXO
 40
0.625
  9
$DIMDLI
 40
3.75
  9
$DIMRND
 40
0.0
  9
$DIMDLE
 40
0.0
  9
$DIMEXE
 40
1.25
  9
$DIMTP
 40
0.0
  9
$DIMTM
 40
0.0
  9
$DIMTXT
 40
60.0
  9
$DIMCEN
 40
2.5
  9
$DIMTSZ
 40
0.0
  9
$DIMTOL
 70
     0
  9
$DIMLIM
 70
     0
  9
$DIMTIH
 70
     0
  9
$DIMTOH
 70
     1
  9
$DIMSE1
 70
     0
  9
$DIMSE2
 70
     0
  9
$DIMTAD
 70
     1
  9
$DIMZIN
 70
     8
  9
$DIMBLK
  1

  9
$DIMASO
 70
     1
  9
$DIMSHO
 70
     1
  9
$DIMPOST
  1

  9
$DIMAPOST
  1

  9
$DIMALT
 70
     0
  9
$DIMALTD
 70
     4
  9
$DIMALTF
 40
0.0394
  9
$DIMLFAC
 40
1.0
  9
$DIMTOFL
 70
     1
  9
$DIMTVP
 40
0.0
  9
$DIMTIX
 70
     0
  9
$DIMSOXD
 70
     0
  9
$DIMSAH
 70
     1
  9
$DIMBLK1
  1
OPEN
  9
$DIMBLK2
  1
OPEN
  9
$DIMSTYLE
  2
STANDARD
  9
$DIMCLRD
 70
     3
  9
$DIMCLRE
 70
     3
  9
$DIMCLRT
 70
     5
  9
$DIMTFAC
 40
1.0
  9
$DIMGAP
 40
20.0
  9
$DIMJUST
 70
     0
  9
$DIMSD1
 70
     0
  9
$DIMSD2
 70
     0
  9
$DIMTOLJ
 70
     1
  9
$DIMTZIN
 70
     0
  9
$DIMALTZ
 70
     0
  9
$DIMALTTZ
 70
     0
  9
$DIMUPT
 70
     0
  9
$DIMDEC
 70
     4
  9
$DIMTDEC
 70
     4
  9
$DIMALTU
 70
     8
  9
$DIMALTTD
 70
     4
  9
$DIMTXSTY
  7
KUVASTO
  9
$DIMAUNIT
 70
     0
  9
$DIMADEC
 70
     0
  9
$DIMALTRND
 40
0.0
  9
$DIMAZIN
 70
     0
  9
$DIMDSEP
 70
    46
  9
$DIMATFIT
 70
     3
  9
$DIMFRAC
 70
     0
  9
$DIMLDRBLK
  1
OPEN
  9
$DIMLUNIT
 70
     6
  9
$DIMLWD
 70
    -2
  9
$DIMLWE
 70
    -2
  9
$DIMTMOVE
 70
     0
  9
$LUNITS
 70
     2
  9
$LUPREC
 70
     4
  9
$SKETCHINC
 40
1.0
  9
$FILLETRAD
 40
0.0
  9
$AUNITS
 70
     0
  9
$AUPREC
 70
     0
  9
$MENU
  1
.
  9
$ELEVATION
 40
0.0
  9
$PELEVATION
 40
0.0
  9
$THICKNESS
 40
0.0
  9
$LIMCHECK
 70
     0
  9
$CHAMFERA
 40
30.0
  9
$CHAMFERB
 40
30.0
  9
$CHAMFERC
 40
20.0
  9
$CHAMFERD
 40
0.0
  9
$SKPOLY
 70
     0
  9
$TDCREATE
 40
2452044.392230162
  9
$TDUCREATE
 40
2452044.267230162
  9
$TDUPDATE
 40
2453830.391697222
  9
$TDUUPDATE
 40
2453830.266697222
  9
$TDINDWG
 40
0.5675967245
  9
$TDUSRTIMER
 40
0.5675961806
  9
$USRTIMER
 70
     1
  9
$ANGBASE
 50
0.0
  9
$ANGDIR
 70
     0
  9
$PDMODE
 70
     0
  9
$PDSIZE
 40
0.0
  9
$PLINEWID
 40
0.0
  9
$SPLFRAME
 70
     0
  9
$SPLINETYPE
 70
     6
  9
$SPLINESEGS
 70
     8
  9
$HANDSEED
  5
AE
  9
$SURFTAB1
 70
     6
  9
$SURFTAB2
 70
     6
  9
$SURFTYPE
 70
     6
  9
$SURFU
 70
     6
  9
$SURFV
 70
     6
  9
$UCSBASE
  2

  9
$UCSNAME
  2

  9
$UCSORG
 10
0.0
 20
0.0
 30
0.0
  9
$UCSXDIR
 10
1.0
 20
0.0
 30
0.0
  9
$UCSYDIR
 10
0.0
 20
1.0
 30
0.0
  9
$UCSORTHOREF
  2

  9
$UCSORTHOVIEW
 70
     0
  9
$UCSORGTOP
 10
0.0
 20
0.0
 30
0.0
  9
$UCSORGBOTTOM
 10
0.0
 20
0.0
 30
0.0
  9
$UCSORGLEFT
 10
0.0
 20
0.0
 30
0.0
  9
$UCSORGRIGHT
 10
0.0
 20
0.0
 30
0.0
  9
$UCSORGFRONT
 10
0.0
 20
0.0
 30
0.0
  9
$UCSORGBACK
 10
0.0
 20
0.0
 30
0.0
  9
$PUCSBASE
  2

  9
$PUCSNAME
  2

  9
$PUCSORG
 10
0.0
 20
0.0
 30
0.0
  9
$PUCSXDIR
 10
1.0
 20
0.0
 30
0.0
  9
$PUCSYDIR
 10
0.0
 20
1.0
 30
0.0
  9
$PUCSORTHOREF
  2

  9
$PUCSORTHOVIEW
 70
     0
  9
$PUCSORGTOP
 10
0.0
 20
0.0
 30
0.0
  9
$PUCSORGBOTTOM
 10
0.0
 20
0.0
 30
0.0
  9
$PUCSORGLEFT
 10
0.0
 20
0.0
 30
0.0
  9
$PUCSORGRIGHT
 10
0.0
 20
0.0
 30
0.0
  9
$PUCSORGFRONT
 10
0.0
 20
0.0
 30
0.0
  9
$PUCSORGBACK
 10
0.0
 20
0.0
 30
0.0
  9
$USERI1
 70
     0
  9
$USERI2
 70
     0
  9
$USERI3
 70
     0
  9
$USERI4
 70
     0
  9
$USERI5
 70
     0
  9
$USERR1
 40
0.0
  9
$USERR2
 40
0.0
  9
$USERR3
 40
0.0
  9
$USERR4
 40
0.0
  9
$USERR5
 40
0.0
  9
$WORLDVIEW
 70
     1
  9
$SHADEDGE
 70
     3
  9
$SHADEDIF
 70
    70
  9
$TILEMODE
 70
     1
  9
$MAXACTVP
 70
    48
  9
$PINSBASE
 10
0.0
 20
0.0
 30
0.0
  9
$PLIMCHECK
 70
     0
  9
$PEXTMIN
 10
1.000000000000000E+20
 20
1.000000000000000E+20
 30
1.000000000000000E+20
  9
$PEXTMAX
 10
-1.000000000000000E+20
 20
-1.000000000000000E+20
 30
-1.000000000000000E+20
  9
$PLIMMIN
 10
0.0
 20
0.0
  9
$PLIMMAX
 10
420.0
 20
297.0
  9
$UNITMODE
 70
     0
  9
$VISRETAIN
 70
     1
  9
$PLINEGEN
 70
     0
  9
$PSLTSCALE
 70
     1
  9
$TREEDEPTH
 70
  3020
  9
$CMLSTYLE
  2
STANDARD
  9
$CMLJUST
 70
     0
  9
$CMLSCALE
 40
20.0
  9
$PROXYGRAPHICS
 70
     1
  9
$MEASUREMENT
 70
     1
  9
$CELWEIGHT
370
    -1
  9
$ENDCAPS
280
     0
  9
$JOINSTYLE
280
     0
  9
$LWDISPLAY
290
     0
  9
$INSUNITS
 70
     0
  9
$HYPERLINKBASE
  1

  9
$STYLESHEET
  1

  9
$XEDIT
290
     1
  9
$CEPSNTYPE
380
     0
  9
$PSTYLEMODE
290
     1
  9
$FINGERPRINTGUID
  2
{DFB77EDF-71BF-4C3F-AE2E-ECE0062F40CF}
  9
$VERSIONGUID
  2
{C75B3E94-1F33-469C-BF7B-0E4B7BC53A18}
  9
$EXTNAMES
290
     1
  9
$PSVPSCALE
 40
0.0
  9
$OLESTARTUP
290
     0
  0
ENDSEC
  0
SECTION
  2
CLASSES
  0
CLASS
  1
LWPOLYLINE
  2
AcDbPolyline
  3
AutoCAD 2000
 90
    32768
280
     0
281
     1
  0
CLASS
  1
DICTIONARYVAR
  2
AcDbDictionaryVar
  3
AutoCAD 2000
 90
        0
280
     0
281
     0
  0
CLASS
  1
HATCH
  2
AcDbHatch
  3
AutoCAD 2000
 90
    32768
280
     0
281
     1
  0
CLASS
  1
ACDBDICTIONARYWDFLT
  2
AcDbDictionaryWithDefault
  3
AutoCAD 2000
 90
        0
280
     0
281
     0
  0
CLASS
  1
ACDBPLACEHOLDER
  2
AcDbPlaceHolder
  3
AutoCAD 2000
 90
        0
280
     0
281
     0
  0
CLASS
  1
LAYOUT
  2
AcDbLayout
  3
AutoCAD 2000
 90
        0
280
     0
281
     0
  0
ENDSEC
  0
SECTION
  2
TABLES
  0
TABLE
  2
VPORT
  5
1A
330
0
100
AcDbSymbolTable
 70
     2
  0
VPORT
  5
AD
330
1A
100
AcDbSymbolTableRecord
100
AcDbViewportTableRecord
  2
*Active
 70
     0
 10
0.0
 20
0.0
 11
1.0
 21
1.0
 12
4840.660914579444
 22
2127.206205884142
 13
0.0
 23
0.0
 14
10.0
 24
10.0
 15
10.0
 25
10.0
 16
0.0
 26
-0.0000000000000001
 36
0.9999999999999998
 17
0.0
 27
0.0
 37
0.0
 40
1028.701721989523
 41
2.076119402985074
 42
50.0
 43
0.0
 44
0.0
 50
0.0
 51
0.0
 71
     0
 72
 20000
 73
     1
 74
     1
 75
     0
 76
     0
 77
     0
 78
     0
281
     0
 65
     1
110
0.0
120
0.0
130
0.0
111
1.0
121
0.0
131
0.0
112
0.0
122
1.0
132
0.0
 79
     0
146
0.0
  0
ENDTAB
  0
TABLE
  2
LTYPE
  5
15
330
0
100
AcDbSymbolTable
 70
     2
  0
LTYPE
  5
16
330
15
100
AcDbSymbolTableRecord
100
AcDbLinetypeTableRecord
  2
BYBLOCK
 70
     0
  3

 72
    65
 73
     0
 40
0.0
  0
LTYPE
  5
17
330
15
100
AcDbSymbolTableRecord
100
AcDbLinetypeTableRecord
  2
BYLAYER
 70
     0
  3

 72
    65
 73
     0
 40
0.0
  0
LTYPE
  5
8
330
15
100
AcDbSymbolTableRecord
100
AcDbLinetypeTableRecord
  2
CONTINUOUS
 70
     0
  3
Solid line
 72
    65
 73
     0
 40
0.0
  0
LTYPE
  5
3D
330
15
100
AcDbSymbolTableRecord
100
AcDbLinetypeTableRecord
  2
DASHED
 70
     0
  3
Dashed __ __ __ __ __ __ __ __ __ __ __ __ __ _
 72
    65
 73
     2
 40
0.75
 49
0.5
 74
     0
 49
-0.25
 74
     0
  0
ENDTAB
  0
TABLE
  2
LAYER
  5
10
330
0
100
AcDbSymbolTable
 70
     3
  0
LAYER
  5
4
330
10
100
AcDbSymbolTableRecord
100
AcDbLayerTableRecord
  2
0
 70
     0
 62
     7
  6
CONTINUOUS
370
    -3
390
5
  0
LAYER
  5
2A
330
10
100
AcDbSymbolTableRecord
100
AcDbLayerTableRecord
  2
MAINOS
 70
     0
 62
     7
  6
CONTINUOUS
370
    -3
390
5
  0
LAYER
  5
35
330
10
100
AcDbSymbolTableRecord
100
AcDbLayerTableRecord
  2
DEFPOINTS
 70
     0
 62
     7
  6
CONTINUOUS
290
     0
370
    -3
390
5
  0
ENDTAB
  0
TABLE
  2
STYLE
  5
11
330
0
100
AcDbSymbolTable
 70
     2
  0
STYLE
  5
12
330
11
100
AcDbSymbolTableRecord
100
AcDbTextStyleTableRecord
  2
STANDARD
 70
     0
 40
0.0
 41
1.0
 50
0.0
 71
     0
 42
2.5
  3

  4

1001
ACAD
1000
AGaramond
1071
 33554450
  0
STYLE
  5
1F
330
11
100
AcDbSymbolTableRecord
100
AcDbTextStyleTableRecord
  2
KUVASTO
 70
     0
 40
70.0
 41
1.0
 50
0.0
 71
     0
 42
70.0
  3
Foustbk_.ttf
  4

1001
ACAD
1000
FoundrySterling-Book
1071
        2
  0
ENDTAB
  0
TABLE
  2
VIEW
  5
18
330
0
100
AcDbSymbolTable
 70
     0
  0
ENDTAB
  0
TABLE
  2
UCS
  5
19
330
0
100
AcDbSymbolTable
 70
     0
  0
ENDTAB
  0
TABLE
  2
APPID
  5
1C
330
0
100
AcDbSymbolTable
 70
     1
  0
APPID
  5
13
330
1C
100
AcDbSymbolTableRecord
100
AcDbRegAppTableRecord
  2
ACAD
 70
     0
  0
ENDTAB
  0
TABLE
  2
DIMSTYLE
  5
1D
330
0
100
AcDbSymbolTable
 70
     1
100
AcDbDimStyleTable
 71
     1
340
1E
  0
DIMSTYLE
105
1E
102
{ACAD_REACTORS
330
63
330
2C
330
56
102
}
330
1D
100
AcDbSymbolTableRecord
100
AcDbDimStyleTableRecord
  2
STANDARD
 70
     0
 40
0.0
 41
70.0
 42
0.625
 43
3.75
 44
1.25
 73
     0
 77
     1
 78
     8
140
60.0
141
2.5
143
0.0394
147
20.0
171
     4
172
     1
173
     1
176
     3
177
     3
178
     5
273
     8
274
     4
277
     6
340
1F
341
20
343
20
344
20
  0
ENDTAB
  0
TABLE
  2
BLOCK_RECORD
  5
1
330
0
100
AcDbSymbolTable
 70
     4
  0
BLOCK_RECORD
  5
2
330
1
100
AcDbSymbolTableRecord
100
AcDbBlockTableRecord
  2
*MODEL_SPACE
340
A
  0
BLOCK_RECORD
  5
C
330
1
100
AcDbSymbolTableRecord
100
AcDbBlockTableRecord
  2
*PAPER_SPACE
340
F
  0
BLOCK_RECORD
  5
20
330
1
100
AcDbSymbolTableRecord
100
AcDbBlockTableRecord
  2
_OPEN
340
0
102
{BLKREFS
331
53
331
50
331
82
331
84
331
75
331
47
331
68
331
69
331
5B
331
5C
331
31
331
32
331
96
331
97
102
}
  0
BLOCK_RECORD
  5
57
330
1
100
AcDbSymbolTableRecord
100
AcDbBlockTableRecord
  2
*D1
340
0
  0
BLOCK_RECORD
  5
64
330
1
100
AcDbSymbolTableRecord
100
AcDbBlockTableRecord
  2
*D2
340
0
  0
BLOCK_RECORD
  5
92
330
1
100
AcDbSymbolTableRecord
100
AcDbBlockTableRecord
  2
*D3
340
0
  0
ENDTAB
  0
ENDSEC
  0
SECTION
  2
BLOCKS
  0
BLOCK
  5
3
330
2
100
AcDbEntity
  8
0
100
AcDbBlockBegin
  2
*MODEL_SPACE
 70
     0
 10
0.0
 20
0.0
 30
0.0
  3
*MODEL_SPACE
  1

  0
ENDBLK
  5
9
330
2
100
AcDbEntity
  8
0
100
AcDbBlockEnd
  0
BLOCK
  5
D
330
C
100
AcDbEntity
 67
     1
  8
0
100
AcDbBlockBegin
  2
*PAPER_SPACE
 70
     0
 10
0.0
 20
0.0
 30
0.0
  3
*PAPER_SPACE
  1

  0
ENDBLK
  5
E
330
C
100
AcDbEntity
 67
     1
  8
0
100
AcDbBlockEnd
  0
BLOCK
  5
24
330
20
100
AcDbEntity
  8
0
100
AcDbBlockBegin
  2
_OPEN
 70
     0
 10
0.0
 20
0.0
 30
0.0
  3
_OPEN
  1

  0
LINE
  5
21
330
20
100
AcDbEntity
  8
0
  6
ByBlock
 62
     0
100
AcDbLine
 10
-1.0
 20
0.1666666666666666
 30
0.0
 11
0.0
 21
0.0
 31
0.0
  0
LINE
  5
22
330
20
100
AcDbEntity
  8
0
  6
ByBlock
 62
     0
100
AcDbLine
 10
0.0
 20
0.0
 30
0.0
 11
-1.0
 21
-0.1666666666666666
 31
0.0
  0
LINE
  5
23
330
20
100
AcDbEntity
  8
0
  6
ByBlock
 62
     0
100
AcDbLine
 10
0.0
 20
0.0
 30
0.0
 11
-1.0
 21
0.0
 31
0.0
  0
ENDBLK
  5
25
330
20
100
AcDbEntity
  8
0
100
AcDbBlockEnd
  0
BLOCK
  5
61
330
57
100
AcDbEntity
  8
0
100
AcDbBlockBegin
  2
*D1
 70
     1
 10
0.0
 20
0.0
 30
0.0
  3
*D1
  1

  0
LINE
  5
58
330
57
100
AcDbEntity
  8
MAINOS
 62
     3
370
    -2
100
AcDbLine
 10
5648.125516873321
 20
2474.999861045215
 30
0.0
 11
5679.891988455013
 21
2474.999861045215
 31
0.0
  0
LINE
  5
59
330
57
100
AcDbEntity
  8
MAINOS
 62
     3
370
    -2
100
AcDbLine
 10
5648.125516873321
 20
1827.447231967638
 30
0.0
 11
5679.891988455012
 21
1827.447231967638
 31
0.0
  0
LINE
  5
5A
330
57
100
AcDbEntity
  8
MAINOS
 62
     3
370
    -2
100
AcDbLine
 10
5678.641988455013
 20
2404.999861045215
 30
0.0
 11
5678.641988455012
 21
1897.447231967638
 31
0.0
  0
INSERT
  5
5B
330
57
100
AcDbEntity
  8
MAINOS
 62
     3
370
    -2
100
AcDbBlockReference
  2
_OPEN
 10
5678.641988455013
 20
2474.999861045215
 30
0.0
 41
70.0
 42
70.0
 43
70.0
 50
90.0
  0
INSERT
  5
5C
330
57
100
AcDbEntity
  8
MAINOS
 62
     3
370
    -2
100
AcDbBlockReference
  2
_OPEN
 10
5678.641988455012
 20
1827.447231967638
 30
0.0
 41
70.0
 42
70.0
 43
70.0
 50
270.0
  0
MTEXT
  5
5D
330
57
100
AcDbEntity
  8
MAINOS
 62
     5
100
AcDbMText
 10
5612.93734077885
 20
2151.223546506428
 30
0.0
 40
70.0
 41
0.0
 71
     5
 72
     1
  1
\A1;(650)
  7
KUVASTO
 11
0.0000000000000001
 21
1.0
 31
0.0
 73
     1
 44
1.0
  0
POINT
  5
5E
330
57
100
AcDbEntity
  8
DEFPOINTS
 62
     0
100
AcDbPoint
 10
5647.500516873321
 20
2474.999861045215
 30
0.0
  0
POINT
  5
5F
330
57
100
AcDbEntity
  8
DEFPOINTS
 62
     0
100
AcDbPoint
 10
5647.500516873321
 20
1827.447231967638
 30
0.0
  0
POINT
  5
60
330
57
100
AcDbEntity
  8
DEFPOINTS
 62
     0
100
AcDbPoint
 10
5678.641988455012
 20
1827.447231967638
 30
0.0
  0
ENDBLK
  5
62
330
57
100
AcDbEntity
  8
0
100
AcDbBlockEnd
  0
BLOCK
  5
6E
330
64
100
AcDbEntity
  8
0
100
AcDbBlockBegin
  2
*D2
 70
     1
 10
0.0
 20
0.0
 30
0.0
  3
*D2
  1

  0
LINE
  5
65
330
64
100
AcDbEntity
  8
MAINOS
 62
     3
370
    -2
100
AcDbLine
 10
5487.280276923812
 20
1827.44723196764
 30
0.0
 11
5518.290855536108
 21
1827.44723196764
 31
0.0
  0
LINE
  5
66
330
64
100
AcDbEntity
  8
MAINOS
 62
     3
370
    -2
100
AcDbLine
 10
5484.280276923813
 20
2369.999861045214
 30
0.0
 11
5518.290855536109
 21
2369.999861045214
 31
0.0
  0
LINE
  5
67
330
64
100
AcDbEntity
  8
MAINOS
 62
     3
370
    -2
100
AcDbLine
 10
5517.040855536109
 20
1897.447231967639
 30
0.0
 11
5517.040855536109
 21
2299.999861045213
 31
0.0
  0
INSERT
  5
68
330
64
100
AcDbEntity
  8
MAINOS
 62
     3
370
    -2
100
AcDbBlockReference
  2
_OPEN
 10
5517.040855536109
 20
1827.44723196764
 30
0.0
 41
70.0
 42
70.0
 43
70.0
 50
270.0
  0
INSERT
  5
69
330
64
100
AcDbEntity
  8
MAINOS
 62
     3
370
    -2
100
AcDbBlockReference
  2
_OPEN
 10
5517.040855536109
 20
2369.999861045214
 30
0.0
 41
70.0
 42
70.0
 43
70.0
 50
90.0
  0
MTEXT
  5
6A
330
64
100
AcDbEntity
  8
MAINOS
 62
     5
100
AcDbMText
 10
5461.411170378687
 20
2098.723546506427
 30
0.0
 40
70.0
 41
0.0
 71
     5
 72
     1
  1
\A1;545
  7
KUVASTO
 11
0.0000000000000001
 21
1.0
 31
0.0
 73
     1
 44
1.0
  0
POINT
  5
6B
330
64
100
AcDbEntity
  8
DEFPOINTS
 62
     0
100
AcDbPoint
 10
5486.655276923812
 20
1827.44723196764
 30
0.0
  0
POINT
  5
6C
330
64
100
AcDbEntity
  8
DEFPOINTS
 62
     0
100
AcDbPoint
 10
5483.655276923813
 20
2369.999861045214
 30
0.0
  0
POINT
  5
6D
330
64
100
AcDbEntity
  8
DEFPOINTS
 62
     0
100
AcDbPoint
 10
5517.040855536109
 20
2369.999861045214
 30
0.0
  0
ENDBLK
  5
6F
330
64
100
AcDbEntity
  8
0
100
AcDbBlockEnd
  0
BLOCK
  5
9C
330
92
100
AcDbEntity
  8
0
100
AcDbBlockBegin
  2
*D3
 70
     1
 10
0.0
 20
0.0
 30
0.0
  3
*D3
  1

  0
LINE
  5
93
330
92
100
AcDbEntity
  8
MAINOS
 62
     3
370
    -2
100
AcDbLine
 10
5337.899392092925
 20
1653.354262733191
 30
0.0
 11
5337.899392092925
 21
1627.863813125096
 31
0.0
  0
LINE
  5
94
330
92
100
AcDbEntity
  8
MAINOS
 62
     3
370
    -2
100
AcDbLine
 10
4257.946763015348
 20
1653.354262733194
 30
0.0
 11
4257.946763015348
 21
1627.863813125096
 31
0.0
  0
LINE
  5
95
330
92
100
AcDbEntity
  8
MAINOS
 62
     3
370
    -2
100
AcDbLine
 10
5267.899392092925
 20
1629.113813125096
 30
0.0
 11
4327.946763015347
 21
1629.113813125096
 31
0.0
  0
INSERT
  5
96
330
92
100
AcDbEntity
  8
MAINOS
 62
     3
370
    -2
100
AcDbBlockReference
  2
_OPEN
 10
5337.899392092925
 20
1629.113813125096
 30
0.0
 41
70.0
 42
70.0
 43
70.0
  0
INSERT
  5
97
330
92
100
AcDbEntity
  8
MAINOS
 62
     3
370
    -2
100
AcDbBlockReference
  2
_OPEN
 10
4257.946763015348
 20
1629.113813125096
 30
0.0
 41
70.0
 42
70.0
 43
70.0
 50
180.0
  0
MTEXT
  5
98
330
92
100
AcDbEntity
  8
MAINOS
 62
     5
100
AcDbMText
 10
4797.923077554137
 20
1685.425657203057
 30
0.0
 40
70.0
 41
0.0
 71
     5
 72
     1
  1
\A1;1080
  7
KUVASTO
 73
     1
 44
1.0
  0
POINT
  5
99
330
92
100
AcDbEntity
  8
DEFPOINTS
 62
     0
100
AcDbPoint
 10
5337.899392092925
 20
1653.979262733192
 30
0.0
  0
POINT
  5
9A
330
92
100
AcDbEntity
  8
DEFPOINTS
 62
     0
100
AcDbPoint
 10
4257.946763015348
 20
1653.979262733194
 30
0.0
  0
POINT
  5
9B
330
92
100
AcDbEntity
  8
DEFPOINTS
 62
     0
100
AcDbPoint
 10
4257.946763015348
 20
1629.113813125096
 30
0.0
  0
ENDBLK
  5
9D
330
92
100
AcDbEntity
  8
0
100
AcDbBlockEnd
  0
ENDSEC
  0
SECTION
  2
ENTITIES
  0
DIMENSION
  5
2C
330
2
100
AcDbEntity
  8
MAINOS
100
AcDbDimension
  2
*D3
 10
4257.946763015348
 20
1629.113813125096
 30
0.0
 11
4797.923077554137
 21
1685.425657203057
 31
0.0
 70
    32
  1
1080
 71
     5
 42
1079.952629077577
  3
STANDARD
100
AcDbAlignedDimension
 13
5337.899392092925
 23
1653.979262733192
 33
0.0
 14
4257.946763015348
 24
1653.979262733194
 34
0.0
100
AcDbRotatedDimension
1001
ACAD
1000
DSTYLE
1002
{
1070
    40
1040
1.0
1002
}
  0
LWPOLYLINE
  5
3B
330
2
100
AcDbEntity
  8
MAINOS
 62
     6
100
AcDbPolyline
 90
        4
 70
     0
 43
0.0
 10
4212.946763015349
 20
1949.999861045213
 10
4212.946763015351
 20
2414.999861045216
 10
5382.899392092924
 20
2414.999861045216
 10
5382.899392092924
 20
1949.999861045213
  0
LWPOLYLINE
  5
3C
330
2
100
AcDbEntity
  8
MAINOS
  6
DASHED
100
AcDbPolyline
 90
        6
 70
     0
 43
0.0
 10
5337.923077554137
 20
2335.193546506426
 10
5337.923077554138
 20
2444.999861045215
 10
5307.923077554138
 20
2474.999861045215
 10
4287.923077554137
 20
2474.999861045215
 10
4257.923077554138
 20
2444.999861045214
 10
4257.923077554138
 20
2335.193546506426
  0
LWPOLYLINE
  5
3E
330
2
100
AcDbEntity
  8
MAINOS
100
AcDbPolyline
 90
       28
 70
     1
 43
0.0
 10
5247.899392092925
 20
1872.447231967636
 10
5054.42198415025
 20
1872.447231967638
 10
5035.647205275594
 20
1872.447231967638
 10
5035.647205275594
 20
1827.447231967638
 10
5043.671984150248
 20
1827.447231967638
 10
5307.89939209293
 20
1827.447231967639
 10
5337.899392092929
 20
1857.447231967639
 10
5337.89939209293
 20
2339.999861045214
 10
5307.899392092931
 20
2369.999861045214
 10
5040.923077554137
 20
2369.999861045212
 10
4800.923077554134
 20
2369.999861045214
 10
4560.923077554135
 20
2369.999861045214
 10
4287.946763015351
 20
2369.999861045217
 10
4257.94676301535
 20
2339.999861045217
 10
4257.946763015349
 20
1857.447231967641
 10
4287.946763015348
 20
1827.447231967641
 10
4552.174170958027
 20
1827.447231967638
 10
4560.198949827904
 20
1827.447231967638
 10
4560.198949827904
 20
1872.447231967639
 10
4541.424170958024
 20
1872.447231967639
 10
4347.946763015348
 20
1872.447231967641
 10
4347.946763015349
 20
2096.223546506427
 10
4347.946763015349
 20
2324.999861045216
 10
4557.923077554138
 20
2324.999861045213
 10
4797.92307755414
 20
2324.999861045213
 10
5037.923077554141
 20
2324.999861045213
 10
5247.899392092926
 20
2324.999861045213
 10
5247.899392092923
 20
2096.223546506426
  0
LWPOLYLINE
  5
3F
330
2
100
AcDbEntity
  8
0
  6
Continuous
 62
     7
370
    15
100
AcDbPolyline
 90
        4
 70
     1
 43
0.0
 10
4692.399392092924
 20
2219.999861045216
 10
4691.105746071969
 20
2201.499861045216
 10
4628.193038113879
 20
2201.499861045216
 10
4626.899392092925
 20
2219.999861045216
  0
LWPOLYLINE
  5
40
330
2
100
AcDbEntity
  8
MAINOS
 62
     4
100
AcDbPolyline
 90
        2
 70
     0
 43
0.0
 10
4617.923077554137
 20
1904.999861045213
 10
4977.923077646572
 20
1904.999861045213
  0
LWPOLYLINE
  5
41
330
2
100
AcDbEntity
  8
0
  6
Continuous
 62
     7
370
    15
100
AcDbPolyline
 90
       19
 70
     0
 43
0.0
 10
4580.166027779243
 20
1949.999861045214
 42
-0.7145234262566916
 10
4580.086887350767
 20
1955.387339757431
 10
4606.128176400673
 20
1962.854559231703
 42
0.3345953195021264
 10
4611.923077554137
 20
1970.544652799209
 10
4611.923077554137
 20
1987.466462227067
 10
4615.640966911007
 20
1987.141189056097
 42
-0.3888787318528868
 10
4617.923077554137
 20
1984.650702310867
 10
4617.923077554137
 20
1879.466462227067
 10
4619.986968782058
 20
1841.364353227066
 10
4623.850584319463
 20
1841.36435353119
 10
4975.859186521708
 20
1841.36435353119
 10
4977.923077646572
 20
1879.46646253119
 10
4977.923077646572
 20
1984.650702614991
 42
-0.3888787318528563
 10
4980.205188289703
 20
1987.14118936022
 10
4983.923077646574
 20
1987.46646253119
 10
4983.923077646574
 20
1970.544653103333
 42
0.3345953195021264
 10
4989.717978800038
 20
1962.854559535826
 10
5015.759267849944
 20
1955.387340061554
 42
-0.7145234262566916
 10
5015.680127421468
 20
1949.999861349338
  0
LWPOLYLINE
  5
42
330
2
100
AcDbEntity
  8
0
  6
Continuous
 62
     7
370
    15
100
AcDbPolyline
 90
       35
 70
     0
 43
0.0
 10
4562.539602729337
 20
1904.999861045213
 10
4569.958192233589
 20
1820.20499499881
 42
0.3888787318516714
 10
4572.946776327863
 20
1817.466462227067
 10
4594.523077554137
 20
1817.466462227067
 10
4615.768430706226
 20
1817.466462227067
 10
4621.637316310629
 20
1817.466462227067
 10
4974.208838797643
 20
1817.466462227067
 10
4980.077724402047
 20
1817.466462227067
 10
4997.023077554132
 20
1817.466462227067
 10
4997.023077554132
 20
1815.466462227067
 10
4986.567285232293
 20
1815.466462227067
 42
0.3964328273651259
 10
4984.571015635449
 20
1813.588559306137
 10
4982.721924527087
 20
1783.356186922277
 42
-0.401159381248533
 10
4981.200255455218
 20
1781.947959287499
 10
4890.363785743793
 20
1781.94775973158
 42
0.3394542588634026
 10
4888.431934091214
 20
1780.465397821784
 10
4888.153735168795
 20
1779.427145308705
 10
4885.996733459407
 20
1771.377105337257
 10
4885.996740947341
 20
1771.377077391913
 10
4886.111491061186
 20
1770.948824136863
 42
0.3394542588634027
 10
4888.043342713765
 20
1769.466462227067
 10
5008.717763810631
 20
1769.466462227067
 42
0.3394542588637701
 10
5012.581467115786
 20
1772.431186046657
 10
5012.724791012584
 20
1772.966078111441
 10
5012.810982319345
 20
1773.287748447446
 10
5011.544913486786
 20
1780.467981599928
 10
5011.54508846439
 20
1780.467981599928
 10
5009.691633345529
 20
1810.771704924742
 10
5009.51934715098
 20
1813.588559306137
 42
0.3964328273651259
 10
5007.523077554137
 20
1815.466462227067
 10
5006.927716262474
 20
1815.466462227067
 10
5006.927716262474
 20
1817.466462227067
 10
5022.89937878041
 20
1817.466462227067
 42
0.3888787318529981
 10
5025.887962874685
 20
1820.204994998824
 10
5033.306552378956
 20
1904.999861045213
  0
LWPOLYLINE
  5
43
330
2
100
AcDbEntity
  8
MAINOS
100
AcDbPolyline
 90
       49
 70
     0
 43
0.0
 10
5015.158092271273
 20
1949.999861045214
 10
4996.393519693227
 20
1949.999861045214
 10
4996.393519693227
 20
1904.999861045213
 10
5033.306552378956
 20
1904.999861045213
 10
5187.899392092925
 20
1904.999861045213
 10
5232.899392092924
 20
1904.999861045213
 10
5232.899392092924
 20
2219.999861045212
 10
5232.899392092924
 20
2309.999861045212
 10
5067.899392092925
 20
2309.999861045212
 10
5022.899392092925
 20
2309.999861045212
 10
4797.899392092924
 20
2309.999861045212
 10
4572.899392092923
 20
2309.999861045212
 10
4527.899392092925
 20
2309.999861045212
 10
4362.899392092923
 20
2309.999861045212
 10
4362.899392092923
 20
2219.999861045214
 10
4362.899392092923
 20
1904.999861045213
 10
4407.899392092924
 20
1904.999861045213
 10
4562.539602729337
 20
1904.999861045213
 10
4599.452635415047
 20
1904.999861045213
 10
4599.452635415047
 20
1949.999861045214
 10
4580.688062837001
 20
1949.999861045214
 10
4572.899392092925
 20
1949.999861045215
 10
4572.899392092925
 20
1999.10841411025
 10
4578.389648293962
 20
1993.220835150239
 10
4592.899392092921
 20
1992.206215024262
 10
4592.899392092921
 20
1974.499861045216
 10
4607.899392092921
 20
1974.499861045216
 10
4609.899392092922
 20
1976.499861045217
 10
4609.899392092922
 20
2002.499861045216
 10
4611.899392092921
 20
2004.499861045216
 10
4615.899392092923
 20
2004.499861045216
 10
4617.899392092923
 20
2006.499861045216
 10
4617.899392092924
 20
2176.499861045216
 10
4797.399392092924
 20
2176.499861045215
 10
4801.399392092925
 20
2176.499861045216
 10
4977.399392092924
 20
2176.499861045216
 10
4977.899392092925
 20
2176.499861045216
 10
4977.899392092925
 20
2006.499861045214
 10
4979.899392092925
 20
2004.499861045215
 10
4983.899392092926
 20
2004.499861045215
 10
4985.899392092925
 20
2002.499861045215
 10
4985.899392092925
 20
1976.499861045215
 10
4987.899392092925
 20
1974.499861045215
 10
5002.899392092925
 20
1974.499861045215
 10
5002.899392092925
 20
1992.20621502426
 10
5017.409135891885
 20
1993.220835150239
 10
5022.899392092925
 20
1999.108414110254
 10
5022.899392092925
 20
1949.999861045213
 10
4996.393519693227
 20
1949.999861045213
  0
LWPOLYLINE
  5
44
330
2
100
AcDbEntity
  8
0
  6
Continuous
 62
     7
370
    15
100
AcDbPolyline
 90
        4
 70
     1
 43
0.0
 10
4592.899392092923
 20
2100.293507066171
 10
4572.899392092925
 20
2098.894970827301
 10
4572.899392092925
 20
2164.604751263131
 10
4592.899392092924
 20
2163.206215024261
  0
LWPOLYLINE
  5
45
330
2
100
AcDbEntity
  8
0
  6
Continuous
 62
     7
370
    15
100
AcDbPolyline
 90
        4
 70
     1
 43
0.0
 10
4407.899392092924
 20
2264.999861045214
 10
4482.899392092924
 20
2264.999861045212
 10
4482.899392092924
 20
1949.999861045213
 10
4407.899392092924
 20
1949.999861045213
  0
MTEXT
  5
46
330
2
100
AcDbEntity
  8
MAINOS
 62
     5
100
AcDbMText
 10
4064.032690284332
 20
1689.196905610647
 30
0.0
 40
70.0
 41
0.0
 71
     5
 72
     1
  1
45
  7
KUVASTO
 73
     1
 44
1.0
  0
INSERT
  5
47
330
2
100
AcDbEntity
  8
MAINOS
 62
     3
100
AcDbBlockReference
  2
_OPEN
 10
4212.946763015348
 20
1629.113813125096
 30
0.0
 41
-70.0
 42
70.0
 43
70.0
 50
180.0
  0
LINE
  5
48
330
2
100
AcDbEntity
  8
MAINOS
 62
     3
100
AcDbLine
 10
4142.946763015348
 20
1629.113813125096
 30
0.0
 11
4072.946763015347
 21
1629.113813125096
 31
0.0
  0
LINE
  5
49
330
2
100
AcDbEntity
  8
MAINOS
 62
     3
100
AcDbLine
 10
4072.946763015347
 20
1629.113813125096
 30
0.0
 11
3991.028536658751
 21
1629.113813125096
 31
0.0
  0
LINE
  5
4A
330
2
100
AcDbEntity
  8
MAINOS
 62
     3
100
AcDbLine
 10
4212.946763015348
 20
1653.354262733191
 30
0.0
 11
4212.946763015348
 21
1627.863813125096
 31
0.0
  0
LINE
  5
4B
330
2
100
AcDbEntity
  8
MAINOS
 62
     3
100
AcDbLine
 10
4257.946763015348
 20
1629.113813125096
 30
0.0
 11
4212.946763015348
 21
1629.113813125096
 31
0.0
  0
LWPOLYLINE
  5
4C
330
2
100
AcDbEntity
  8
0
  6
Continuous
 62
     7
370
    15
100
AcDbPolyline
 90
        4
 70
     1
 43
0.0
 10
4572.899392092925
 20
2079.104751263132
 10
4592.899392092923
 20
2077.706215024262
 10
4592.899392092921
 20
2014.793507066172
 10
4572.899392092925
 20
2013.394970827302
  0
LINE
  5
4D
330
2
100
AcDbEntity
  8
MAINOS
 62
     3
100
AcDbLine
 10
4140.54151698645
 20
2544.999861045215
 30
0.0
 11
4140.54151698645
 21
2614.999861045214
 31
0.0
  0
MTEXT
  5
4E
330
2
100
AcDbEntity
  8
MAINOS
 62
     5
100
AcDbMText
 10
4083.43164762252
 20
2377.280649602453
 30
0.0
 40
70.0
 41
0.0
 71
     5
 72
     1
  1
190
  7
KUVASTO
 11
0.0000000000000001
 21
1.0
 31
0.0
 73
     1
 44
1.0
  0
LINE
  5
4F
330
2
100
AcDbEntity
  8
MAINOS
 62
     3
100
AcDbLine
 10
4140.54151698645
 20
2474.999861045215
 30
0.0
 11
4140.54151698645
 21
2284.999861045215
 31
0.0
  0
INSERT
  5
50
330
2
100
AcDbEntity
  8
MAINOS
 62
     3
100
AcDbBlockReference
  2
_OPEN
 10
4140.54151698645
 20
2284.999861045215
 30
0.0
 41
70.0
 42
70.0
 43
70.0
 50
90.0
  0
LINE
  5
51
330
2
100
AcDbEntity
  8
MAINOS
 62
     3
100
AcDbLine
 10
4140.54151698645
 20
2214.999861045213
 30
0.0
 11
4140.54151698645
 21
2144.999861045214
 31
0.0
  0
LINE
  5
52
330
2
100
AcDbEntity
  8
MAINOS
 62
     3
100
AcDbLine
 10
4165.648377746369
 20
2284.999861045215
 30
0.0
 11
4139.29151698645
 21
2284.999861045215
 31
0.0
  0
INSERT
  5
53
330
2
100
AcDbEntity
  8
MAINOS
 62
     3
100
AcDbBlockReference
  2
_OPEN
 10
4140.54151698645
 20
2474.999861045215
 30
0.0
 41
70.0
 42
70.0
 43
70.0
 50
270.0
  0
LINE
  5
54
330
2
100
AcDbEntity
  8
MAINOS
 62
     3
100
AcDbLine
 10
4165.648377746369
 20
2474.999861045215
 30
0.0
 11
4139.29151698645
 21
2474.999861045215
 31
0.0
  0
LWPOLYLINE
  5
55
330
2
100
AcDbEntity
  8
0
  6
Continuous
 62
     7
370
    15
100
AcDbPolyline
 90
        9
 70
     1
 43
0.0
 10
4572.899392092923
 20
2178.999861045217
 10
4572.899392092923
 20
2219.999861045214
 10
4610.899392092924
 20
2219.999861045217
 10
4606.620366197947
 20
2216.009604844177
 10
4605.605746071969
 20
2201.499861045216
 10
4587.899392092924
 20
2201.499861045216
 10
4587.899392092924
 20
2186.499861045217
 10
4589.899392092924
 20
2184.499861045217
 10
4578.399392092924
 20
2184.499861045217
  0
DIMENSION
  5
56
330
2
100
AcDbEntity
  8
MAINOS
100
AcDbDimension
  2
*D1
 10
5678.641988455012
 20
1827.447231967638
 30
0.0
 11
5612.93734077885
 21
2151.223546506428
 31
0.0
  1
(650)
 71
     5
 42
647.5526290775765
  3
STANDARD
100
AcDbAlignedDimension
 13
5647.500516873321
 23
2474.999861045215
 33
0.0
 14
5647.500516873321
 24
1827.447231967638
 34
0.0
 50
90.0
100
AcDbRotatedDimension
1001
ACAD
1000
DSTYLE
1002
{
1070
    40
1040
1.0
1002
}
  0
DIMENSION
  5
63
330
2
100
AcDbEntity
  8
MAINOS
100
AcDbDimension
  2
*D2
 10
5517.040855536109
 20
2369.999861045214
 30
0.0
 11
5461.411170378687
 21
2098.723546506427
 31
0.0
  1
545
 71
     5
 42
542.5526290775744
  3
STANDARD
100
AcDbAlignedDimension
 13
5486.655276923812
 23
1827.44723196764
 33
0.0
 14
5483.655276923813
 24
2369.999861045214
 34
0.0
 50
90.0
100
AcDbRotatedDimension
1001
ACAD
1000
DSTYLE
1002
{
1070
    40
1040
1.0
1002
}
  0
LWPOLYLINE
  5
70
330
2
100
AcDbEntity
  8
0
  6
Continuous
 62
     7
370
    15
100
AcDbPolyline
 90
        4
 70
     1
 43
0.0
 10
5002.899392092924
 20
2163.206215024261
 10
5022.899392092925
 20
2164.604751263131
 10
5022.899392092926
 20
2098.8949708273
 10
5002.899392092924
 20
2100.29350706617
  0
LWPOLYLINE
  5
71
330
2
100
AcDbEntity
  8
0
  6
Continuous
 62
     7
370
    15
100
AcDbPolyline
 90
        4
 70
     1
 43
0.0
 10
5187.899392092925
 20
1949.999861045213
 10
5112.899392092925
 20
1949.999861045215
 10
5112.899392092925
 20
2264.999861045212
 10
5187.899392092925
 20
2264.999861045212
  0
LINE
  5
72
330
2
100
AcDbEntity
  8
MAINOS
 62
     3
100
AcDbLine
 10
5522.899392092926
 20
1629.113813125096
 30
0.0
 11
5604.81761844952
 21
1629.113813125096
 31
0.0
  0
MTEXT
  5
73
330
2
100
AcDbEntity
  8
MAINOS
 62
     5
100
AcDbMText
 10
5526.818524463103
 20
1689.196905610647
 30
0.0
 40
70.0
 41
0.0
 71
     5
 72
     1
  1
45
  7
KUVASTO
 73
     1
 44
1.0
  0
LINE
  5
74
330
2
100
AcDbEntity
  8
MAINOS
 62
     3
100
AcDbLine
 10
5382.899392092927
 20
1653.354262733191
 30
0.0
 11
5382.899392092927
 21
1627.863813125096
 31
0.0
  0
INSERT
  5
75
330
2
100
AcDbEntity
  8
MAINOS
 62
     3
100
AcDbBlockReference
  2
_OPEN
 10
5382.899392092925
 20
1629.113813125096
 30
0.0
 41
70.0
 42
70.0
 43
70.0
 50
180.0
  0
LINE
  5
76
330
2
100
AcDbEntity
  8
MAINOS
 62
     3
100
AcDbLine
 10
5337.899392092925
 20
1629.113813125096
 30
0.0
 11
5382.899392092927
 21
1629.113813125096
 31
0.0
  0
LINE
  5
77
330
2
100
AcDbEntity
  8
MAINOS
 62
     3
100
AcDbLine
 10
5452.899392092926
 20
1629.113813125096
 30
0.0
 11
5522.899392092926
 21
1629.113813125096
 31
0.0
  0
LWPOLYLINE
  5
78
330
2
100
AcDbEntity
  8
0
  6
Continuous
 62
     7
370
    15
100
AcDbPolyline
 90
        4
 70
     1
 43
0.0
 10
5002.899392092924
 20
2077.706215024261
 10
5022.899392092924
 20
2079.104751263131
 10
5022.899392092924
 20
2013.3949708273
 10
5002.899392092925
 20
2014.79350706617
  0
MTEXT
  5
79
330
2
100
AcDbEntity
  8
MAINOS
 62
     5
100
AcDbMText
 10
5456.961186935983
 20
2558.918993415392
 30
0.0
 40
70.0
 41
0.0
 71
     5
 72
     1
  1
\A1;45
  7
KUVASTO
 11
0.0000000000000001
 21
1.0
 31
0.0
 73
     1
 44
1.0
  0
LINE
  5
7A
330
2
100
AcDbEntity
  8
MAINOS
 62
     3
100
AcDbLine
 10
5517.044279421534
 20
2484.999861045215
 30
0.0
 11
5517.044279421534
 21
2554.999861045215
 31
0.0
  0
CIRCLE
  5
7B
330
2
100
AcDbEntity
  8
MAINOS
 62
     6
100
AcDbCircle
 10
4797.923077554137
 20
2284.999861045215
 30
0.0
 40
75.0
  0
LWPOLYLINE
  5
7C
330
2
100
AcDbEntity
  8
0
  6
Continuous
 62
     7
370
    15
100
AcDbPolyline
 90
        4
 70
     1
 43
0.0
 10
4777.899392092924
 20
2219.999861045216
 10
4776.605746071969
 20
2201.499861045216
 10
4713.693038113879
 20
2201.499861045216
 10
4712.399392092924
 20
2219.999861045216
  0
LWPOLYLINE
  5
7D
330
2
100
AcDbEntity
  8
0
  6
Continuous
 62
     7
370
    15
100
AcDbPolyline
 90
        4
 70
     1
 43
0.0
 10
4883.399392092925
 20
2219.999861045215
 10
4882.105746071969
 20
2201.499861045216
 10
4819.193038113879
 20
2201.499861045215
 10
4817.899392092924
 20
2219.999861045215
  0
LINE
  5
7E
330
2
100
AcDbEntity
  8
MAINOS
 62
     3
100
AcDbLine
 10
4797.923077554137
 20
2259.999861045215
 30
0.0
 11
4797.923077554137
 21
2309.999861045215
 31
0.0
  0
LINE
  5
7F
330
2
100
AcDbEntity
  8
MAINOS
 62
     3
100
AcDbLine
 10
4772.923077554137
 20
2284.999861045215
 30
0.0
 11
4822.923077554137
 21
2284.999861045215
 31
0.0
  0
LWPOLYLINE
  5
80
330
2
100
AcDbEntity
  8
0
  6
Continuous
 62
     7
370
    15
100
AcDbPolyline
 90
        9
 70
     1
 43
0.0
 10
5017.399392092924
 20
2184.499861045215
 10
5005.899392092924
 20
2184.499861045215
 10
5007.899392092924
 20
2186.499861045216
 10
5007.899392092924
 20
2201.499861045215
 10
4990.193038113879
 20
2201.499861045215
 10
4989.178417987901
 20
2216.009604844176
 10
4984.899392092924
 20
2219.999861045216
 10
5022.899392092924
 20
2219.999861045214
 10
5022.899392092926
 20
2178.999861045214
  0
LWPOLYLINE
  5
81
330
2
100
AcDbEntity
  8
0
  6
Continuous
 62
     7
370
    15
100
AcDbPolyline
 90
        4
 70
     1
 43
0.0
 10
4968.899392092924
 20
2219.999861045215
 10
4967.605746071971
 20
2201.499861045215
 10
4904.69303811388
 20
2201.499861045215
 10
4903.399392092924
 20
2219.999861045216
  0
INSERT
  5
82
330
2
100
AcDbEntity
  8
MAINOS
 62
     3
100
AcDbBlockReference
  2
_OPEN
 10
5517.044279421534
 20
2369.999861045214
 30
0.0
 41
70.0
 42
70.0
 43
70.0
 50
90.0
  0
LINE
  5
83
330
2
100
AcDbEntity
  8
MAINOS
 62
     3
100
AcDbLine
 10
5517.044279421534
 20
2299.999861045213
 30
0.0
 11
5517.044279421534
 21
2204.999861045215
 31
0.0
  0
INSERT
  5
84
330
2
100
AcDbEntity
  8
MAINOS
 62
     3
100
AcDbBlockReference
  2
_OPEN
 10
5517.044279421534
 20
2414.999861045216
 30
0.0
 41
70.0
 42
70.0
 43
70.0
 50
270.0
  0
LINE
  5
85
330
2
100
AcDbEntity
  8
MAINOS
 62
     3
100
AcDbLine
 10
5517.044279421534
 20
2369.999861045214
 30
0.0
 11
5517.044279421534
 21
2414.999861045216
 31
0.0
  0
LINE
  5
86
330
2
100
AcDbEntity
  8
MAINOS
 62
     3
100
AcDbLine
 10
5484.905276923814
 20
2369.999861045214
 30
0.0
 11
5518.294279421534
 21
2369.999861045214
 31
0.0
  0
LINE
  5
87
330
2
100
AcDbEntity
  8
MAINOS
 62
     3
100
AcDbLine
 10
5484.905276923814
 20
2414.999861045216
 30
0.0
 11
5518.294279421534
 21
2414.999861045216
 31
0.0
  0
LINE
  5
88
330
2
100
AcDbEntity
  8
MAINOS
 62
     3
100
AcDbLine
 10
5517.044279421534
 20
2554.999861045215
 30
0.0
 11
5517.044279421534
 21
2636.91808740181
 31
0.0
  0
ENDSEC
  0
SECTION
  2
OBJECTS
  0
DICTIONARY
  5
7
330
0
100
AcDbDictionary
281
     1
  3
ACAD_GROUP
350
27
  3
ACAD_LAYOUT
350
B
  3
ACAD_MLINESTYLE
350
28
  3
ACAD_PLOTSETTINGS
350
29
  3
ACAD_PLOTSTYLENAME
350
6
  3
AcDbVariableDictionary
350
8A
  0
DICTIONARY
  5
27
102
{ACAD_REACTORS
330
7
102
}
330
7
100
AcDbDictionary
281
     1
  0
DICTIONARY
  5
B
102
{ACAD_REACTORS
330
7
102
}
330
7
100
AcDbDictionary
281
     1
  3
Layout1
350
F
  3
Model
350
A
  0
DICTIONARY
  5
28
102
{ACAD_REACTORS
330
7
102
}
330
7
100
AcDbDictionary
281
     1
  3
STANDARD
350
2B
  0
DICTIONARY
  5
29
102
{ACAD_REACTORS
330
7
102
}
330
7
100
AcDbDictionary
281
     1
  0
ACDBDICTIONARYWDFLT
  5
6
102
{ACAD_REACTORS
330
7
102
}
330
7
100
AcDbDictionary
281
     1
  3
Normal
350
5
100
AcDbDictionaryWithDefault
340
5
  0
DICTIONARY
  5
8A
102
{ACAD_REACTORS
330
7
102
}
330
7
100
AcDbDictionary
281
     1
  3
DIMASSOC
350
8C
  3
HIDETEXT
350
8B
  0
LAYOUT
  5
F
102
{ACAD_REACTORS
330
B
102
}
330
B
100
AcDbPlotSettings
  1

  2
ASPA2
  4

  6

 40
0.0
 41
0.0
 42
0.0
 43
0.0
 44
0.0
 45
0.0
 46
0.0
 47
0.0
 48
0.0
 49
0.0
140
0.0
141
0.0
142
1.0
143
1.0
 70
   688
 72
     0
 73
     0
 74
     5
  7
acad.ctb
 75
    16
147
1.0
148
0.0
149
0.0
100
AcDbLayout
  1
Layout1
 70
     1
 71
     1
 10
0.0
 20
0.0
 11
420.0
 21
297.0
 12
0.0
 22
0.0
 32
0.0
 14
1.000000000000000E+20
 24
1.000000000000000E+20
 34
1.000000000000000E+20
 15
-1.000000000000000E+20
 25
-1.000000000000000E+20
 35
-1.000000000000000E+20
146
0.0
 13
0.0
 23
0.0
 33
0.0
 16
1.0
 26
0.0
 36
0.0
 17
0.0
 27
1.0
 37
0.0
 76
     0
330
C
  0
LAYOUT
  5
A
102
{ACAD_REACTORS
330
B
102
}
330
B
100
AcDbPlotSettings
  1

  2
Amyuni PDF Converter
  4
A4
  6

 40
6.720416545867919
 41
6.80509614944458
 42
6.889755249023437
 43
6.720428466796875
 44
209.9733276367186
 45
296.9259948730469
 46
3.759999999999998
 47
30.73999999999999
 48
3720.281263814993
 49
1232.478800346044
140
5939.432034169917
141
3120.876358500894
142
1.0
143
10.0
 70
 11956
 72
     1
 73
     1
 74
     4
  7
acad.ctb
 75
    20
147
0.1
148
-3720.281263814993
149
-1232.478800346044
100
AcDbLayout
  1
Model
 70
     1
 71
     0
 10
0.0
 20
0.0
 11
12.0
 21
9.0
 12
0.0
 22
0.0
 32
0.0
 14
0.0
 24
0.0
 34
0.0
 15
0.0
 25
0.0
 35
0.0
146
0.0
 13
0.0
 23
0.0
 33
0.0
 16
1.0
 26
0.0
 36
0.0
 17
0.0
 27
1.0
 37
0.0
 76
     0
330
2
  0
MLINESTYLE
  5
2B
102
{ACAD_REACTORS
330
28
102
}
330
28
100
AcDbMlineStyle
  2
STANDARD
 70
     0
  3

 62
   256
 51
90.0
 52
90.0
 71
     2
 49
0.5
 62
   256
  6
BYLAYER
 49
-0.5
 62
   256
  6
BYLAYER
  0
ACDBPLACEHOLDER
  5
5
102
{ACAD_REACTORS
330
6
102
}
330
6
  0
DICTIONARYVAR
  5
8C
102
{ACAD_REACTORS
330
8A
102
}
330
8A
100
DictionaryVariables
280
     0
  1
1
  0
DICTIONARYVAR
  5
8B
102
{ACAD_REACTORS
330
8A
102
}
330
8A
100
DictionaryVariables
280
     0
  1
1
  0
ENDSEC
  0
EOF
